osu file format v14

[General]
AudioFilename: How to go.mp3
AudioLeadIn: 2000
PreviewTime: 51248
Countdown: 0
SampleSet: Soft
StackLeniency: 0.4
Mode: 0
LetterboxInBreaks: 0
WidescreenStoryboard: 0

[Editor]
DistanceSpacing: 1.3
BeatDivisor: 4
GridSize: 4
TimelineZoom: 1

[Metadata]
Title:How to go ~TV size~
TitleUnicode:How to go ~TV size~
Artist:School Food Punishment
ArtistUnicode:スクール フード パニッシュメント
Creator:Atsuro
Version:Insane
Source:Un-Go
Tags:Opening
BeatmapID:456692
BeatmapSetID:191872

[Difficulty]
HPDrainRate:7
CircleSize:4.5
OverallDifficulty:7
ApproachRate:9
SliderMultiplier:1.9
SliderTickRate:1

[Events]
//Background and Video events
Video,810,"vid.avi"
0,0,"bg.jpg",0,0
//Break Periods
//Storyboard Layer 0 (Background)
//Storyboard Layer 1 (Fail)
//Storyboard Layer 2 (Pass)
//Storyboard Layer 3 (Foreground)
//Storyboard Sound Samples

[TimingPoints]
248,375,4,2,0,80,1,0
248,-133.333333333333,4,2,0,60,0,0
2498,-200,4,2,0,60,0,0
3248,-100,4,2,0,70,0,0
15248,-111.111111111111,4,2,0,60,0,0
39248,-100,4,2,0,70,0,0
50873,-83.3333333333333,4,2,0,70,0,0
51248,-83.3333333333333,4,2,0,80,0,1
75060,-83.3333333333333,4,2,0,80,0,0
75248,-83.3333333333333,4,2,0,80,0,1
87248,-83.3333333333333,4,2,0,80,0,0

[Colours]
Combo1 : 74,74,74
Combo2 : 196,136,210
Combo3 : 200,185,200
Combo4 : 255,151,205

[HitObjects]
256,72,248,5,4,1:0:0:0:
188,244,623,1,0,0:0:0:0:
116,312,810,1,2,0:0:0:0:
324,244,1185,1,0,0:0:0:0:
396,312,1372,1,2,0:0:0:0:
256,168,1748,1,0,0:0:0:0:
256,72,1935,1,2,0:0:0:0:
256,168,2123,6,0,L|256:260,1,71.2500027179719,0|0,0:0|0:0,0:0:0:0:
338,307,2498,2,0,P|256:348|174:307,1,190
256,192,3435,5,0,0:0:0:0:
302,87,3623,1,0,1:0:0:0:
209,87,3810,1,0,0:0:0:0:
361,159,3998,1,0,0:0:0:0:
151,159,4185,1,0,0:0:0:0:
256,28,4373,1,0,1:0:0:0:
256,192,4560,1,0,0:0:0:0:
267,314,4748,6,0,P|206:302|168:274,1,95
248,124,5123,2,0,P|309:136|347:164,1,95,0|0,1:0|0:0,0:0:0:0:
176,204,5498,2,0,P|115:192|77:164,1,95
204,64,5873,1,0,1:0:0:0:
380,208,6060,5,0,0:0:0:0:
360,244,6154,1,0,0:0:0:0:
328,276,6248,1,4,0:0:0:0:
185,275,6435,1,0,0:0:0:0:
256,152,6623,1,0,1:0:0:0:
113,152,6810,1,0,0:0:0:0:
39,274,6998,1,0,0:0:0:0:
164,205,7185,1,0,0:0:0:0:
234,81,7373,1,0,1:0:0:0:
302,206,7560,1,0,0:0:0:0:
415,293,7748,6,0,B|447:237|447:237|427:193,1,95
303,206,8123,2,0,B|290:233|290:233|322:288,1,95,0|0,1:0|0:0,0:0:0:0:
366,168,8498,2,0,L|366:60,1,95
440,126,8873,1,0,1:0:0:0:
292,124,9060,1,0,0:0:0:0:
176,76,9248,6,0,L|112:104,1,63.3333333333333,2|0,0:0|0:0,0:0:0:0:
116,188,9498,2,0,L|192:160,1,63.3333333333333,2|0,0:0|1:0,0:0:0:0:
336,76,9748,2,0,L|400:104,1,63.3333333333333,2|0,0:0|0:0,0:0:0:0:
396,188,9998,2,0,L|320:160,1,63.3333333333333,2|0,0:0|0:0,0:0:0:0:
216,124,10248,6,0,L|216:52,1,63.3333333333333,2|0,0:0|1:0,0:0:0:0:
296,260,10498,2,0,L|296:332,1,63.3333333333333,2|0,0:0|0:0,0:0:0:0:
188,232,10748,2,0,L|116:232,1,63.3333333333333,2|0,0:0|0:0,0:0:0:0:
324,152,10998,2,0,L|396:152,1,63.3333333333333,2|0,0:0|1:0,0:0:0:0:
256,60,11248,6,0,L|256:144,1,63.3333333333333,2|0,0:0|0:0,0:0:0:0:
256,324,11498,2,0,L|256:240,1,63.3333333333333,2|0,0:0|0:0,0:0:0:0:
124,192,11748,2,0,L|208:192,1,63.3333333333333,2|0,0:0|1:0,0:0:0:0:
388,192,11998,2,0,L|304:192,1,63.3333333333333,2|0,0:0|0:0,0:0:0:0:
124,192,12248,5,4,0:0:0:0:
188,76,12435,1,0,0:0:0:0:
256,192,12623,1,0,1:0:0:0:
324,76,12810,1,0,0:0:0:0:
388,192,12997,1,0,0:0:0:0:
256,332,13185,1,0,0:0:0:0:
256,296,13279,1,0,0:0:0:0:
256,256,13373,1,0,1:0:0:0:
256,124,13560,1,0,0:0:0:0:
128,160,13748,6,0,P|152:216|204:232,1,95
331,230,14123,2,0,P|370:204|384:160,1,95,0|0,1:0|0:0,0:0:0:0:
376,120,14404,1,0,1:0:0:0:
356,88,14498,1,0,0:0:0:0:
156,88,14685,1,0,0:0:0:0:
112,264,14872,1,0,1:0:0:0:
133,305,14966,1,0,1:0:0:0:
174,328,15060,1,0,1:0:0:0:
216,344,15154,1,0,1:0:0:0:
260,348,15248,1,4,0:0:0:0:
256,172,15435,5,0,0:0:0:0:
376,120,15623,2,0,P|424:168|436:200,1,85.4999973907472,0|0,1:0|0:0,0:0:0:0:
439,197,15904,1,0,1:0:0:0:
445,212,15998,1,0,0:0:0:0:
380,312,16185,1,0,0:0:0:0:
272,256,16373,2,0,P|228:196|228:152,1,85.4999973907472,0|0,1:0|0:0,0:0:0:0:
112,260,16748,6,0,P|96:312|100:360,1,85.4999973907472
215,320,17123,2,0,P|255:334|296:322,1,85.4999973907472,0|0,1:0|0:0,0:0:0:0:
256,264,17404,2,0,L|256:204,1,42.7499986953736,0|0,1:0|0:0,0:0:0:0:
288,76,17685,1,0,0:0:0:0:
152,112,17873,2,0,P|100:176|144:264,1,170.999994781494,0|0,1:0|0:0,0:0:0:0:
220,148,18435,6,0,P|224:84|192:52,1,85.4999973907472,0|0,0:0|1:0,0:0:0:0:
172,200,18810,1,0,0:0:0:0:
210,219,18904,1,0,1:0:0:0:
254,212,18998,1,0,0:0:0:0:
325,106,19185,1,0,0:0:0:0:
326,235,19373,2,0,P|290:279|228:283,1,85.4999973907472,0|0,1:0|0:0,0:0:0:0:
285,334,19654,2,0,P|241:343|231:342,1,42.7499986953736,0|0,1:0|0:0,0:0:0:0:
145,276,19935,6,0,L|108:248,1,42.7499986953736
65,228,20123,2,0,P|106:191|115:123,1,85.4999973907472,0|0,1:0|0:0,0:0:0:0:
208,64,20498,1,0,0:0:0:0:
256,192,20685,1,0,0:0:0:0:
304,64,20873,1,0,1:0:0:0:
256,192,21060,5,0,0:0:0:0:
256,224,21154,1,0,0:0:0:0:
256,256,21248,1,0,0:0:0:0:
328,140,21435,1,0,0:0:0:0:
192,140,21623,2,0,P|156:188|152:236,1,85.4999973907472,0|0,1:0|0:0,0:0:0:0:
152,248,21904,1,0,1:0:0:0:
160,280,21998,1,0,0:0:0:0:
352,280,22185,1,0,0:0:0:0:
360,248,22279,1,0,0:0:0:0:
360,211,22372,1,0,1:0:0:0:
211,332,22560,2,0,L|161:355,1,42.7499986953736,0|0,0:0|1:0,0:0:0:0:
128,344,22748,6,0,P|76:308|64:256,1,85.4999973907472,0|0,0:0|0:0,0:0:0:0:
68,152,23123,2,0,P|90:116|128:97,1,85.4999973907472,0|0,1:0|0:0,0:0:0:0:
256,48,23498,1,0,0:0:0:0:
344,172,23685,1,0,0:0:0:0:
256,300,23873,1,0,1:0:0:0:
168,172,24060,1,0,0:0:0:0:
256,300,24248,5,0,0:0:0:0:
256,146,24435,1,0,0:0:0:0:
168,276,24623,1,0,1:0:0:0:
344,276,24810,1,0,0:0:0:0:
344,104,24998,1,2,0:0:0:0:
168,104,25185,1,0,0:0:0:0:
256,300,25373,1,0,1:0:0:0:
344,104,25560,1,2,0:0:0:0:
217,244,25748,6,0,B|173:244|173:244|145:212,1,85.4999973907472,0|0,0:0|0:0,0:0:0:0:
45,120,26123,2,0,B|89:120|89:120|117:151,1,85.4999973907472,0|0,1:0|0:0,0:0:0:0:
167,104,26404,2,0,L|199:150,1,42.7499986953736,0|0,1:0|0:0,0:0:0:0:
369,188,26685,6,0,L|337:142,1,42.7499986953736,0|0,1:0|0:0,0:0:0:0:
322,114,26873,1,0,1:0:0:0:
330,72,26966,1,0,1:0:0:0:
359,41,27060,1,0,1:0:0:0:
399,29,27154,1,0,1:0:0:0:
440,39,27248,1,4,1:0:0:0:
440,176,27435,1,0,0:0:0:0:
352,280,27623,6,0,P|292:244|288:208,1,85.4999973907472,0|0,1:0|0:0,0:0:0:0:
168,240,27998,2,0,P|228:276|232:312,1,85.4999973907472
352,280,28373,1,0,1:0:0:0:
416,188,28560,5,0,0:0:0:0:
384,160,28654,1,0,1:0:0:0:
340,156,28748,1,0,0:0:0:0:
256,48,28935,1,0,0:0:0:0:
172,156,29123,2,0,P|124:168|88:200,1,85.4999973907472,0|0,1:0|0:0,0:0:0:0:
256,256,29498,2,0,L|256:136,1,85.4999973907472
186,291,29873,2,0,P|248:332|332:268,1,170.999994781494,0|0,1:0|0:0,0:0:0:0:
256,172,30435,5,0,0:0:0:0:
256,136,30529,1,0,0:0:0:0:
256,104,30623,1,0,1:0:0:0:
136,40,30810,1,0,0:0:0:0:
48,144,30998,2,0,P|45:197|62:231,1,85.4999973907472
176,292,31373,1,0,1:0:0:0:
336,292,31560,5,2,0:0:0:0:
344,260,31654,1,2,0:0:0:0:
336,220,31748,1,2,0:0:0:0:
176,220,31935,1,2,0:0:0:0:
168,260,32029,1,2,0:0:0:0:
176,292,32123,1,0,1:0:0:0:
256,180,32310,6,0,L|256:92,1,85.4999973907472
388,56,32685,1,0,0:0:0:0:
256,24,32873,1,0,1:0:0:0:
124,56,33060,1,0,0:0:0:0:
44,168,33248,6,0,P|64:224|92:252,1,85.4999973907472
180,336,33623,2,0,P|212:284|212:232,1,85.4999973907472,0|0,1:0|0:0,0:0:0:0:
232,124,33998,2,0,P|296:144|324:176,1,85.4999973907472,2|0,0:0|0:0,0:0:0:0:
332,188,34279,1,0,0:0:0:0:
344,224,34373,1,0,1:0:0:0:
284,348,34560,1,0,0:0:0:0:
192,248,34748,6,0,P|160:184|168:148,1,85.4999973907472
204,44,35123,2,0,P|159:35|112:48,1,85.4999973907472,0|0,1:0|0:0,0:0:0:0:
93,67,35404,1,0,1:0:0:0:
74,98,35498,1,0,0:0:0:0:
84,234,35685,1,0,0:0:0:0:
188,322,35873,1,0,1:0:0:0:
325,322,36060,1,0,0:0:0:0:
428,234,36248,6,0,P|448:182|441:131,1,85.4999973907472
368,40,36623,2,0,P|348:92|355:143,1,85.4999973907472,0|0,1:0|0:0,0:0:0:0:
361,258,36998,1,2,0:0:0:0:
256,172,37185,1,0,0:0:0:0:
256,172,37279,1,0,0:0:0:0:
256,172,37373,1,0,1:0:0:0:
151,258,37560,1,0,0:0:0:0:
216,108,37748,6,0,P|258:97|310:118,1,85.4999973907472
256,256,38123,2,0,L|256:164,1,85.4999973907472,0|0,1:0|0:0,0:0:0:0:
256,32,38498,1,0,1:0:0:0:
380,92,38685,1,0,1:0:0:0:
132,92,38873,1,0,1:0:0:0:
256,172,39060,1,0,1:0:0:0:
256,32,39248,6,0,P|294:65|302:115,1,95,6|0,0:0|0:0,0:0:0:0:
228,104,39529,2,0,P|188:144|176:184,1,95,2|0,0:0|0:0,0:0:0:0:
112,220,39810,2,0,P|152:256|204:248,1,95,2|0,0:0|0:0,0:0:0:0:
176,328,40091,2,0,P|232:316|264:276,1,95,2|0,0:0|0:0,0:0:0:0:
304,352,40373,2,0,P|329:310|329:259,1,95,2|0,0:0|0:0,0:0:0:0:
401,237,40654,2,0,P|384:200|352:176,1,47.5,2|0,0:0|0:0,0:0:0:0:
388,44,40935,6,0,P|324:24|280:32,1,95,0|0,0:0|1:0,0:0:0:0:
148,48,41310,2,0,P|116:60|96:76,1,47.5
160,120,41498,2,0,P|192:132|212:148,1,47.5,0|0,1:0|0:0,0:0:0:0:
144,188,41685,2,0,P|112:200|92:216,1,47.5
160,256,41873,2,0,P|192:268|212:284,1,47.5,0|0,1:0|0:0,0:0:0:0:
144,324,42060,2,0,P|112:336|92:352,1,47.5
216,348,42248,6,0,P|285:311|290:262,1,95,4|0,0:0|0:0,0:0:0:0:
270,226,42529,2,2,P|325:229|356:270,1,95,2|0,0:0|0:0,0:0:0:0:
400,314,42810,2,0,P|424:262|406:207,1,95,2|0,0:0|0:0,0:0:0:0:
493,214,43091,2,0,P|468:168|410:153,1,95,2|0,0:0|0:0,0:0:0:0:
355,170,43373,2,0,P|382:93|428:77,1,95,2|0,0:0|0:0,0:0:0:0:
353,20,43654,2,0,P|305:68|284:115,1,95,2|0,0:0|0:0,0:0:0:0:
234,42,43935,2,0,P|223:102|228:148,1,95,2|0,0:0|1:0,0:0:0:0:
208,280,44310,5,0,0:0:0:0:
64,206,44498,1,0,1:0:0:0:
172,171,44685,1,0,0:0:0:0:
99,315,44873,2,0,P|148:360|194:373,1,95,0|0,1:0|0:0,0:0:0:0:
321,357,45248,6,0,P|354:312|353:269,1,95,6|0,0:0|0:0,0:0:0:0:
424,248,45529,2,0,P|377:206|334:205,1,95,2|0,0:0|0:0,0:0:0:0:
276,180,45810,2,0,P|306:140|354:130,1,95,2|0,0:0|0:0,0:0:0:0:
408,68,46091,1,2,0:0:0:0:
232,88,46373,2,0,L|228:132,1,23.75,0|2,1:0|0:0,0:0:0:0:
160,124,46654,2,0,L|156:168,1,23.75,0|2,1:0|0:0,0:0:0:0:
88,160,46935,2,0,L|84:204,1,23.75,0|2,1:0|0:0,0:0:0:0:
144,340,47123,5,0,0:0:0:0:
256,240,47310,1,0,0:0:0:0:
368,340,47498,1,0,1:0:0:0:
368,192,47685,1,2,0:0:0:0:
360,160,47779,1,2,0:0:0:0:
340,132,47873,2,0,P|288:96|256:88,1,95,0|0,1:0|0:0,0:0:0:0:
160,160,48248,6,0,L|148:192,1,23.75,0|2,1:0|0:0,0:0:0:0:
84,343,48529,2,0,L|96:311,1,23.75,0|2,1:0|0:0,0:0:0:0:
352,160,48810,2,0,L|364:192,1,23.75,0|2,1:0|0:0,0:0:0:0:
428,343,49091,2,0,L|416:311,1,23.75,0|2,1:0|0:0,0:0:0:0:
256,80,49373,2,0,L|256:120,4,23.75,0|2|0|0|0,1:0|0:0|0:0|0:0|0:0,0:0:0:0:
216,228,49748,5,0,1:0:0:0:
256,256,49841,1,0,0:0:0:0:
296,228,49935,1,0,0:0:0:0:
336,80,50123,1,0,0:0:0:0:
176,80,50310,1,0,0:0:0:0:
256,176,50498,1,0,1:0:0:0:
256,328,50685,1,0,0:0:0:0:
430,318,50873,2,0,B|448:265|405:238|405:238|443:207|445:147|388:115,1,227.999993041992,0|4,0:0|0:0,0:0:0:0:
256,44,51435,5,0,0:0:0:0:
113,117,51623,1,0,1:0:0:0:
103,275,51810,1,0,0:0:0:0:
103,275,51904,1,0,0:0:0:0:
103,275,51998,1,0,0:0:0:0:
55,82,52185,1,0,0:0:0:0:
256,44,52373,1,0,1:0:0:0:
170,157,52560,1,0,0:0:0:0:
201,316,52748,6,0,P|274:311|305:268,1,113.999996520996
311,68,53123,2,0,P|238:73|207:116,1,113.999996520996,0|0,1:0|0:0,0:0:0:0:
204,124,53404,1,0,0:0:0:0:
196,148,53498,1,0,0:0:0:0:
320,224,53685,1,0,0:0:0:0:
430,108,53873,2,0,P|399:46|343:14,1,113.999996520996,0|0,1:0|0:0,0:0:0:0:
204,34,54248,5,0,0:0:0:0:
78,131,54435,1,0,0:0:0:0:
256,196,54623,1,0,1:0:0:0:
308,34,54810,1,0,0:0:0:0:
308,34,54904,1,0,0:0:0:0:
308,34,54998,1,0,0:0:0:0:
434,131,55185,1,0,0:0:0:0:
256,196,55373,6,0,P|208:244|120:252,1,113.999996520996,0|0,1:0|0:0,0:0:0:0:
256,196,55748,2,0,P|304:244|392:252,1,113.999996520996
256,196,56123,1,0,1:0:0:0:
256,40,56310,1,0,0:0:0:0:
256,72,56404,1,0,0:0:0:0:
256,104,56498,1,0,0:0:0:0:
256,264,56685,1,0,0:0:0:0:
100,296,56873,2,0,P|60:232|64:180,1,113.999996520996,0|0,1:0|0:0,0:0:0:0:
140,84,57248,5,4,0:0:0:0:
256,40,57435,1,2,0:0:0:0:
372,84,57623,1,0,1:0:0:0:
400,216,57810,1,2,0:0:0:0:
256,148,57998,1,2,0:0:0:0:
112,216,58185,1,2,0:0:0:0:
256,288,58373,1,0,1:0:0:0:
256,40,58560,1,2,0:0:0:0:
112,216,58748,6,0,P|144:280|208:320,1,113.999996520996
256,148,59123,1,0,1:0:0:0:
400,216,59310,1,0,0:0:0:0:
384,268,59404,1,0,0:0:0:0:
344,304,59498,1,0,0:0:0:0:
256,148,59685,1,0,0:0:0:0:
144,32,59873,2,0,P|64:56|32:112,1,113.999996520996,0|0,1:0|0:0,0:0:0:0:
168,180,60248,6,0,P|224:232|272:236,1,113.999996520996,4|0,0:0|0:0,0:0:0:0:
288,80,60623,1,0,1:0:0:0:
376,216,60810,1,0,0:0:0:0:
380,236,60904,1,0,0:0:0:0:
381,253,60998,2,0,P|384:309|357:359,1,113.999996520996
201,295,61373,2,0,P|257:281|331:308,1,113.999996520996,0|0,1:0|0:0,0:0:0:0:
157,359,61748,6,0,P|129:303|149:223,1,113.999996520996,4|0,0:0|0:0,0:0:0:0:
256,184,62123,1,0,1:0:0:0:
312,34,62310,1,0,0:0:0:0:
340,52,62404,1,0,0:0:0:0:
368,80,62498,1,0,0:0:0:0:
256,184,62685,1,0,0:0:0:0:
200,34,62873,1,0,1:0:0:0:
172,52,62967,1,0,1:0:0:0:
144,80,63061,1,0,1:0:0:0:
120,116,63154,1,0,1:0:0:0:
104,156,63248,6,0,P|128:208|184:248,1,113.999996520996,4|0,0:0|0:0,0:0:0:0:
324,120,63623,6,0,P|266:114|204:143,1,113.999996520996,0|0,1:0|0:0,0:0:0:0:
276,200,63904,1,0,0:0:0:0:
276,200,63998,2,0,L|296:320,1,113.999996520996
156,320,64373,1,0,1:0:0:0:
108,192,64560,1,0,0:0:0:0:
256,192,64748,5,0,0:0:0:0:
412,224,64935,1,0,0:0:0:0:
368,72,65123,1,0,1:0:0:0:
328,228,65310,1,0,0:0:0:0:
319,263,65404,1,0,0:0:0:0:
310,296,65498,1,0,0:0:0:0:
188,236,65685,1,0,0:0:0:0:
288,128,65873,2,0,P|312:56|288:12,1,113.999996520996,0|0,1:0|0:0,0:0:0:0:
148,84,66248,6,0,P|124:156|148:200,1,113.999996520996
256,296,66623,1,0,1:0:0:0:
376,192,66810,1,0,0:0:0:0:
376,192,66904,1,0,0:0:0:0:
376,192,66998,2,0,P|388:136|360:68,1,113.999996520996
392,220,67373,2,0,P|434:258|507:268,1,113.999996520996,0|0,1:0|0:0,0:0:0:0:
360,220,67748,6,0,P|305:237|260:295,1,113.999996520996
408,328,68123,1,0,1:0:0:0:
472,192,68310,1,0,0:0:0:0:
472,192,68404,1,0,0:0:0:0:
472,192,68498,1,0,0:0:0:0:
408,56,68685,1,0,0:0:0:0:
299,160,68873,2,0,P|270:208|256:263,1,113.999996520996,0|0,1:0|0:0,0:0:0:0:
376,192,69248,5,6,0:2:0:0:
256,92,69435,1,2,0:2:0:0:
257,263,69623,1,2,1:2:0:0:
136,192,69810,1,2,0:2:0:0:
296,192,69998,1,2,0:2:0:0:
216,192,70185,1,2,0:2:0:0:
372,96,70373,1,2,1:2:0:0:
140,96,70560,1,2,0:2:0:0:
256,264,70748,5,0,0:0:0:0:
256,120,70935,1,0,0:0:0:0:
165,233,71123,1,0,1:0:0:0:
350,138,71310,1,0,0:0:0:0:
350,138,71404,1,0,0:0:0:0:
350,138,71498,1,0,0:0:0:0:
161,138,71685,1,0,0:0:0:0:
346,233,71873,2,0,P|400:270|464:274,1,113.999996520996,0|0,1:0|0:0,0:0:0:0:
444,136,72248,2,0,P|426:71|379:27,1,113.999996520996,4|0,0:0|0:0,0:0:0:0:
296,148,72623,1,0,1:0:0:0:
148,152,72810,1,0,0:0:0:0:
148,152,72904,1,0,0:0:0:0:
148,152,72998,1,0,0:0:0:0:
220,24,73185,1,0,0:0:0:0:
224,172,73373,1,0,1:0:0:0:
268,312,73560,1,0,0:0:0:0:
364,192,73748,6,0,P|420:144|416:80,1,113.999996520996,4|0,0:0|0:0,0:0:0:0:
292,140,74123,1,0,1:0:0:0:
172,206,74310,1,0,0:0:0:0:
188,246,74404,1,0,0:0:0:0:
228,270,74498,1,0,1:0:0:0:
96,206,74685,1,0,0:0:0:0:
102,245,74778,1,0,0:0:0:0:
118,281,74872,1,0,1:0:0:0:
143,312,74966,1,0,1:0:0:0:
176,335,75060,1,0,1:0:0:0:
213,348,75153,1,0,1:0:0:0:
256,350,75248,5,4,0:0:0:0:
337,213,75435,1,0,0:0:0:0:
417,351,75623,1,0,1:0:0:0:
278,274,75810,1,0,0:0:0:0:
278,274,75904,1,0,0:0:0:0:
278,274,75998,1,0,0:0:0:0:
392,272,76185,1,0,0:0:0:0:
336,136,76373,1,0,1:0:0:0:
336,304,76560,1,0,0:0:0:0:
296,192,76748,5,0,0:0:0:0:
256,60,76935,1,0,0:0:0:0:
216,192,77123,1,0,1:0:0:0:
304,304,77310,1,0,0:0:0:0:
336,280,77404,1,0,0:0:0:0:
360,244,77498,1,0,0:0:0:0:
208,304,77685,2,0,P|176:276|140:208,1,113.999996520996,0|0,0:0|1:0,0:0:0:0:
256,136,78060,1,0,0:0:0:0:
344,32,78248,5,4,0:0:0:0:
388,160,78435,1,2,0:0:0:0:
160,80,78623,1,4,0:0:0:0:
116,208,78810,1,2,0:0:0:0:
356,216,78998,1,4,0:0:0:0:
400,344,79185,1,2,0:0:0:0:
448,216,79373,2,0,P|468:140|424:88,1,113.999996520996,0|0,1:0|0:0,0:0:0:0:
316,104,79748,5,0,0:0:0:0:
192,160,79935,1,0,0:0:0:0:
316,216,80123,1,0,1:0:0:0:
192,160,80310,1,0,0:0:0:0:
160,160,80404,1,0,0:0:0:0:
128,160,80498,1,0,0:0:0:0:
124,307,80685,1,0,0:0:0:0:
249,232,80873,1,0,1:0:0:0:
272,200,80966,1,0,1:0:0:0:
281,162,81060,1,0,1:0:0:0:
273,123,81154,1,0,1:0:0:0:
249,91,81248,6,0,P|288:44|468:48,1,227.999993041992,4|0,0:0|1:0,0:0:0:0:
408,224,81810,1,2,0:0:0:0:
352,88,81998,1,2,0:0:0:0:
316,232,82185,1,0,0:0:0:0:
432,136,82373,1,0,1:0:0:0:
284,152,82560,1,2,0:0:0:0:
368,276,82748,6,0,P|256:304|144:276,1,227.999993041992,0|0,0:0|1:0,0:0:0:0:
212,104,83310,1,0,0:0:0:0:
256,84,83404,1,0,0:0:0:0:
300,104,83498,1,0,0:0:0:0:
420,192,83685,1,0,0:0:0:0:
256,288,83873,2,0,P|188:256|152:208,1,113.999996520996,0|0,1:0|0:0,0:0:0:0:
256,96,84248,2,0,P|324:128|360:176,1,113.999996520996,4|0,0:0|0:0,0:0:0:0:
172,132,84623,1,0,1:0:0:0:
340,252,84810,1,4,0:0:0:0:
340,252,84904,1,0,0:0:0:0:
340,252,84998,1,0,0:0:0:0:
316,108,85185,1,0,0:0:0:0:
196,276,85372,1,0,1:0:0:0:
364,176,85560,1,0,0:0:0:0:
140,192,85748,5,6,0:0:0:0:
147,153,85841,1,0,0:0:0:0:
168,119,85935,1,0,0:0:0:0:
199,94,86029,1,0,0:0:0:0:
236,81,86123,1,2,0:0:0:0:
276,82,86216,1,0,0:0:0:0:
313,96,86310,1,0,0:0:0:0:
343,122,86404,1,0,0:0:0:0:
362,157,86498,5,2,0:0:0:0:
367,196,86591,1,0,0:0:0:0:
360,235,86685,1,0,0:0:0:0:
339,269,86779,1,0,0:0:0:0:
308,294,86873,1,2,0:0:0:0:
270,306,86966,1,0,0:0:0:0:
230,305,87060,1,0,0:0:0:0:
193,290,87154,1,0,0:0:0:0:
164,264,87248,6,0,P|140:204|156:136,1,113.999996520996,6|0,0:0|0:0,0:0:0:0:
112,72,87529,2,0,P|180:72|224:112,1,113.999996520996,2|0,0:0|0:0,0:0:0:0:
297,98,87810,2,0,P|344:67|400:72,1,113.999996520996,2|0,0:0|0:0,0:0:0:0:
365,156,88091,2,0,P|370:212|347:264,1,113.999996520996,2|0,0:0|0:0,0:0:0:0:
257,244,88373,1,2,0:0:0:0:
178,332,88560,5,0,0:0:0:0:
216,344,88653,1,0,0:0:0:0:
256,348,88747,1,0,0:0:0:0:
295,343,88841,1,0,0:0:0:0:
333,330,88935,1,4,1:0:0:0:
