osu file format v14

[General]
AudioFilename: How to go.mp3
AudioLeadIn: 2000
PreviewTime: 51248
Countdown: 0
SampleSet: Soft
StackLeniency: 0.7
Mode: 0
LetterboxInBreaks: 0
WidescreenStoryboard: 0

[Editor]
Bookmarks: 748
DistanceSpacing: 1.2
BeatDivisor: 4
GridSize: 4
TimelineZoom: 1

[Metadata]
Title:How to go ~TV size~
TitleUnicode:How to go ~TV size~
Artist:School Food Punishment
ArtistUnicode:スクール フード パニッシュメント
Creator:Atsuro
Version:Hard
Source:Un-Go
Tags:Opening
BeatmapID:456532
BeatmapSetID:191872

[Difficulty]
HPDrainRate:5.5
CircleSize:4
OverallDifficulty:5
ApproachRate:8
SliderMultiplier:1.7
SliderTickRate:1

[Events]
//Background and Video events
Video,810,"vid.avi"
0,0,"bg.jpg",0,0
//Break Periods
//Storyboard Layer 0 (Background)
//Storyboard Layer 1 (Fail)
//Storyboard Layer 2 (Pass)
//Storyboard Layer 3 (Foreground)
//Storyboard Sound Samples

[TimingPoints]
248,375,4,2,0,80,1,0
248,-133.333333333333,4,2,0,60,0,0
3248,-100,4,2,0,70,0,0
15248,-111.111111111111,4,2,0,60,0,0
39248,-100,4,2,0,70,0,0
50873,-83.3333333333333,4,2,0,80,0,0
51248,-83.3333333333333,4,2,0,80,0,1
75060,-83.3333333333333,4,2,0,80,0,0
75248,-83.3333333333333,4,2,0,80,0,1
87248,-83.3333333333333,4,2,0,80,0,0

[Colours]
Combo1 : 74,74,74
Combo2 : 196,136,210
Combo3 : 200,185,200
Combo4 : 255,151,205

[HitObjects]
136,132,248,5,4,1:0:0:0:
288,148,623,1,0,0:0:0:0:
288,147,810,2,0,P|264:224|208:264,1,127.500004863739,2|0,0:0|0:0,0:0:0:0:
200,162,1373,2,0,P|224:85|280:45,1,127.500004863739,2|0,0:0|0:0,0:0:0:0:
356,81,1935,2,0,P|374:160|345:223,1,127.500004863739,2|0,0:0|0:0,0:0:0:0:
256,192,2498,12,4,3248,1:0:0:0:
344,244,3623,6,0,P|392:200|396:92,1,170,0|0,1:0|0:0,0:0:0:0:
316,44,4185,1,0,0:0:0:0:
256,128,4373,1,0,1:0:0:0:
196,44,4560,1,0,0:0:0:0:
148,136,4748,6,0,P|176:184|201:198,1,85
132,273,5123,2,0,P|162:301|203:309,1,85,0|0,1:0|0:0,0:0:0:0:
308,309,5498,2,0,P|349:301|380:273,1,85
311,197,5873,2,0,P|346:174|364:136,1,85,0|0,1:0|0:0,0:0:0:0:
260,100,6248,6,0,L|260:16,1,85
174,89,6623,2,0,L|174:185,1,85,0|0,1:0|0:0,0:0:0:0:
101,243,6998,1,0,0:0:0:0:
175,313,7185,1,0,0:0:0:0:
250,243,7373,1,0,1:0:0:0:
175,173,7560,1,0,0:0:0:0:
101,243,7748,6,0,P|56:296|58:331,2,85,0|0|0,0:0|0:0|1:0,0:0:0:0:
175,174,8310,1,0,0:0:0:0:
250,243,8498,2,0,P|296:296|294:331,2,85,0|0|0,0:0|0:0|1:0,0:0:0:0:
175,174,9060,1,0,0:0:0:0:
256,112,9248,6,2,P|332:88|369:51,1,113.333333333333,2|2,0:0|0:0,0:0:0:0:
314,196,9748,2,2,P|267:213|166:207,1,113.333333333333
313,298,10248,2,2,P|409:252|440:216,1,113.333333333333
406,113,10748,5,2,0:0:0:0:
256,60,10998,1,2,0:0:0:0:
105,113,11248,1,2,0:0:0:0:
212,232,11498,1,2,0:0:0:0:
256,60,11748,1,2,0:0:0:0:
300,232,11998,1,2,0:0:0:0:
256,348,12248,6,0,P|316:336|344:296,1,85,4|0,0:0|0:0,0:0:0:0:
256,228,12623,1,0,1:0:0:0:
256,348,12810,2,0,P|153:327|105:258,1,170,2|0,0:0|0:0,0:0:0:0:
186,185,13373,2,0,P|262:146|330:198,1,170,0|0,1:0|0:0,0:0:0:0:
352,88,13935,5,0,0:0:0:0:
256,56,14123,1,0,1:0:0:0:
164,96,14310,2,0,L|124:128,2,42.5,0|0|0,0:0|1:0|0:0,0:0:0:0:
256,56,14685,1,0,0:0:0:0:
256,140,14873,2,0,L|256:208,3,42.5,0|0|0|0,1:0|1:0|1:0|1:0,0:0:0:0:
260,236,15248,6,0,P|312:268|408:248,1,152.999995330811,4|0,0:0|1:0,0:0:0:0:
336,188,15810,2,0,P|381:178|416:145,1,76.4999976654053
336,97,16185,1,0,0:0:0:0:
245,101,16373,2,0,P|200:111|165:144,1,76.4999976654053,0|0,1:0|0:0,0:0:0:0:
140,44,16748,6,0,P|81:93|39:169,1,152.999995330811,0|0,0:0|1:0,0:0:0:0:
100,229,17310,2,0,L|142:182,2,38.2499988327027,0|0|0,0:0|1:0|0:0,0:0:0:0:
52,308,17685,1,0,0:0:0:0:
136,348,17873,1,0,1:0:0:0:
220,308,18060,1,0,0:0:0:0:
256,224,18248,6,0,L|256:120,2,76.4999976654053,0|0|0,0:0|0:0|1:0,0:0:0:0:
344,252,18810,2,0,L|344:320,2,38.2499988327027,0|0|0,0:0|1:0|0:0,0:0:0:0:
344,160,19185,1,0,0:0:0:0:
296,80,19373,1,0,1:0:0:0:
208,56,19560,2,0,L|208:4,2,38.2499988327027,0|0|0,0:0|1:0|0:0,0:0:0:0:
120,89,19935,5,0,0:0:0:0:
64,162,20123,2,0,P|106:181|202:125,1,152.999995330811,0|0,1:0|0:0,0:0:0:0:
296,80,20685,1,0,0:0:0:0:
280,188,20873,2,0,P|264:224|208:268,1,76.4999976654053,0|0,1:0|0:0,0:0:0:0:
276,336,21248,6,0,L|360:336,1,76.4999976654053
392,252,21623,1,0,1:0:0:0:
472,208,21810,2,0,L|528:208,2,38.2499988327027,0|0|0,0:0|1:0|0:0,0:0:0:0:
392,164,22185,1,0,0:0:0:0:
324,104,22373,2,0,P|280:64|244:56,1,76.4999976654053,0|0,1:0|0:0,0:0:0:0:
232,52,22654,1,0,1:0:0:0:
200,48,22748,1,0,0:0:0:0:
116,104,22935,5,0,0:0:0:0:
148,196,23123,2,0,P|180:228|220:240,1,76.4999976654053,0|0,1:0|0:0,0:0:0:0:
303,238,23498,2,0,P|338:223|364:196,1,76.4999976654053,0|0,0:0|0:0,0:0:0:0:
256,96,23873,2,0,L|256:172,1,76.4999976654053,0|0,1:0|0:0,0:0:0:0:
184,252,24248,5,0,0:0:0:0:
107,201,24435,1,0,0:0:0:0:
108,109,24623,1,0,1:0:0:0:
184,60,24810,1,0,0:0:0:0:
284,12,24998,2,0,B|340:-4|340:-4|376:4,1,76.4999976654053,2|0,0:0|0:0,0:0:0:0:
356,112,25373,2,0,B|338:115|338:115|282:99,1,76.4999976654053,0|2,1:0|0:0,0:0:0:0:
408,56,25748,6,0,L|492:56,1,76.4999976654053,0|0,0:0|0:0,0:0:0:0:
444,171,26123,2,0,P|422:243|361:289,1,152.999995330811,0|0,1:0|0:0,0:0:0:0:
288,208,26685,1,0,0:0:0:0:
216,289,26873,2,0,L|172:245,3,38.2499988327027,0|0|0|0,1:0|1:0|1:0|1:0,1:0:0:0:
155,223,27248,6,0,P|128:154|161:87,1,152.999995330811,4|0,0:0|1:0,0:0:0:0:
256,40,27810,1,0,0:0:0:0:
351,88,27998,2,0,P|378:114|390:150,1,76.4999976654053
391,257,28373,2,0,P|378:292|351:319,1,76.4999976654053,0|0,1:0|0:0,0:0:0:0:
295,199,28748,6,0,B|219:173|219:240|117:211,1,152.999995330811,0|0,0:0|1:0,0:0:0:0:
168,112,29310,1,0,0:0:0:0:
256,52,29498,1,0,0:0:0:0:
344,112,29685,1,0,0:0:0:0:
381,212,29873,2,0,P|337:284|267:285,1,152.999995330811,0|0,1:0|0:0,0:0:0:0:
175,329,30435,5,0,0:0:0:0:
134,229,30623,1,0,1:0:0:0:
233,189,30810,2,0,L|293:202,2,38.2499988327027,0|0|0,0:0|1:0|0:0,0:0:0:0:
248,88,31185,2,0,L|188:75,2,38.2499988327027,0|0|0,0:0|0:0|1:0,0:0:0:0:
336,149,31560,1,0,0:0:0:0:
425,207,31748,6,2,B|446:180|472:206|502:158,1,76.4999976654053
472,278,32123,2,0,B|452:305|426:279|395:327,1,76.4999976654053,0|2,1:0|0:0,0:0:0:0:
321,241,32498,1,0,0:0:0:0:
202,241,32685,1,0,0:0:0:0:
262,181,32873,1,0,1:0:0:0:
262,300,33060,6,0,L|262:361,2,38.2499988327027,0|0|0,0:0|0:0|0:0,0:0:0:0:
262,181,33435,1,0,0:0:0:0:
300,60,33623,2,0,B|332:72|332:72|352:116,1,76.4999976654053,0|0,1:0|0:0,0:0:0:0:
452,144,33998,2,0,B|453:178|453:178|420:213,1,76.4999976654053,2|0,0:0|0:0,0:0:0:0:
332,260,34373,1,0,1:0:0:0:
224,268,34560,2,0,B|166:266|166:266|119:235|129:173,1,152.999995330811
228,184,35123,6,0,L|312:184,1,76.4999976654053,0|0,1:0|0:0,0:0:0:0:
332,184,35404,1,0,1:0:0:0:
356,184,35498,1,0,0:0:0:0:
319,99,35685,1,0,0:0:0:0:
220,104,35873,2,0,P|168:128|152:172,1,76.4999976654053,0|0,1:0|0:0,0:0:0:0:
158,241,36248,6,0,P|208:297|281:318,1,152.999995330811,0|0,0:0|1:0,0:0:0:0:
341,249,36810,1,0,0:0:0:0:
388,169,36998,2,0,P|429:136|484:140,2,76.4999976654053,2|0|0,0:0|0:0|1:0,0:0:0:0:
342,249,37560,1,0,0:0:0:0:
279,307,37748,6,0,P|320:337|375:330,1,76.4999976654053,0|0,0:0|0:0,0:0:0:0:
411,277,38123,2,0,P|447:266|472:237,1,76.4999976654053,0|0,1:0|0:0,0:0:0:0:
432,154,38498,1,0,1:0:0:0:
344,94,38685,1,0,1:0:0:0:
236,94,38873,1,0,1:0:0:0:
148,154,39060,1,0,1:0:0:0:
140,256,39248,6,2,P|156:312|240:356,1,127.5,6|2,0:0|0:0,0:0:0:0:
372,256,39810,2,2,P|356:312|272:356,1,127.5
256,180,40373,2,0,L|256:96,1,85,0|0,1:0|0:0,0:0:0:0:
341,177,40748,6,0,P|341:211|314:254,1,85
196,254,41123,2,0,P|172:219|170:177,1,85,0|0,1:0|0:0,0:0:0:0:
137,62,41498,2,2,P|255:28|397:72,1,255,0|2,1:0|0:0,0:0:0:0:
267,100,42248,6,2,P|199:111|144:147,1,127.5
323,180,42810,2,2,P|391:191|446:227,1,127.5
266,262,43373,2,2,P|198:273|143:309,1,127.5
40,163,43935,5,0,0:0:0:0:
147,110,44123,2,0,P|172:69|210:52,1,85,0|2,1:0|0:0,0:0:0:0:
307,53,44498,2,2,P|344:73|365:110,1,85
263,153,44873,2,0,P|226:197|224:235,1,85,0|2,1:0|0:0,0:0:0:0:
336,156,45248,6,2,P|300:88|220:92,1,127.5,6|2,0:0|0:0,0:0:0:0:
341,232,45810,2,2,P|385:296|456:306,1,127.5,2|0,0:0|0:0,0:0:0:0:
448,199,46373,1,0,1:0:0:0:
448,199,46654,1,0,1:0:0:0:
448,199,46935,6,0,L|448:115,1,85,0|2,1:0|0:0,0:0:0:0:
341,147,47310,2,0,L|341:243,1,85,2|0,0:0|1:0,0:0:0:0:
240,296,47685,2,2,P|180:264|156:160,1,170
252,192,48248,5,0,1:0:0:0:
252,212,48529,1,0,1:0:0:0:
252,232,48810,1,0,1:0:0:0:
252,252,49091,1,0,1:0:0:0:
220,356,49373,6,0,B|180:356|180:356|156:316,1,85,0|0,1:0|0:0,0:0:0:0:
288,356,49748,2,0,B|328:356|328:356|352:316,1,85,0|0,1:0|0:0,0:0:0:0:
448,280,50123,2,0,L|492:288,2,42.5,0|0|0,1:0|1:0|1:0,0:0:0:0:
384,200,50498,2,0,P|404:136|428:112,1,85,0|0,1:0|0:0,0:0:0:0:
373,29,50873,2,0,B|334:58|290:30|290:30|274:16|258:31|258:31|230:50|179:28,1,203.999993774414,0|4,0:0|0:0,0:0:0:0:
134,125,51435,5,0,0:0:0:0:
214,210,51623,2,0,P|260:255|266:310,1,101.999996887207,0|0,1:0|0:0,0:0:0:0:
157,311,51998,2,0,P|111:266|105:211,1,101.999996887207,0|0,0:0|0:0,0:0:0:0:
135,125,52373,2,0,P|207:85|331:105,1,203.999993774414,0|0,1:0|0:0,0:0:0:0:
417,162,52935,5,0,0:0:0:0:
330,234,53123,1,0,1:0:0:0:
417,303,53310,2,0,L|469:303,2,50.9999984436036,0|0|0,0:0|0:0|0:0,0:0:0:0:
331,234,53685,1,0,0:0:0:0:
219,218,53873,2,0,P|239:158|283:134,1,101.999996887207,0|0,1:0|0:0,0:0:0:0:
381,132,54248,6,0,P|368:83|333:46,1,101.999996887207,0|0,0:0|0:0,0:0:0:0:
221,39,54623,1,0,1:0:0:0:
120,104,54810,2,0,L|28:104,2,50.9999984436036,0|0|0,0:0|0:0|0:0,0:0:0:0:
220,176,55185,1,0,0:0:0:0:
163,276,55373,6,0,P|96:242|89:179,1,101.999996887207,0|0,1:0|0:0,0:0:0:0:
148,152,55748,2,0,P|177:111|225:95,1,101.999996887207
260,192,56123,2,0,P|301:221|317:269,1,101.999996887207,0|0,1:0|0:0,0:0:0:0:
422,306,56498,1,0,0:0:0:0:
448,208,56685,1,0,0:0:0:0:
392,124,56873,1,0,1:0:0:0:
300,62,57060,5,0,0:0:0:0:
264,53,57154,1,0,0:0:0:0:
228,49,57248,1,4,0:0:0:0:
128,76,57435,1,0,0:0:0:0:
80,164,57623,2,0,P|96:244|128:268,1,101.999996887207,0|0,1:0|0:0,0:0:0:0:
192,348,57998,2,0,P|232:276|216:216,1,101.999996887207,0|0,0:0|0:0,0:0:0:0:
208,140,58373,2,0,P|268:140|320:184,1,101.999996887207,0|0,1:0|0:0,0:0:0:0:
364,268,58748,5,0,0:0:0:0:
432,168,58935,2,0,P|402:81|270:73,1,203.999993774414,0|0,0:0|0:0,0:0:0:0:
332,156,59498,2,0,P|292:212|240:244,1,101.999996887207
184,296,59873,1,0,1:0:0:0:
128,216,60060,5,0,0:0:0:0:
116,188,60154,1,0,0:0:0:0:
108,161,60248,2,0,P|123:93|176:55,1,101.999996887207,4|0,0:0|0:0,0:0:0:0:
256,120,60623,2,0,L|256:224,1,101.999996887207,0|0,1:0|0:0,0:0:0:0:
403,161,60998,2,0,P|398:111|368:70,1,101.999996887207
256,36,61373,1,0,1:0:0:0:
208,124,61560,1,0,0:0:0:0:
312,124,61748,1,4,1:0:0:0:
348,220,61935,6,0,B|363:279|363:279|331:307,1,101.999996887207,0|0,0:0|1:0,0:0:0:0:
256,256,62310,2,0,L|256:196,2,50.9999984436036,0|0|0,0:0|1:0|0:0,0:0:0:0:
256,372,62685,1,0,0:0:0:0:
180,308,62873,2,0,B|150:281|150:281|165:222,1,101.999996887207,0|0,1:0|0:0,0:0:0:0:
256,204,63248,6,0,P|316:158|332:124,1,101.999996887207,4|0,0:0|0:0,0:0:0:0:
256,68,63623,2,0,P|196:114|180:148,1,101.999996887207,0|0,1:0|0:0,0:0:0:0:
256,204,63998,2,0,P|196:158|180:124,1,101.999996887207
256,68,64373,2,0,P|316:114|332:148,1,101.999996887207,0|0,1:0|0:0,0:0:0:0:
404,68,64748,6,0,P|348:16|304:-8,1,101.999996887207
185,2,65123,2,0,P|143:31|108:68,1,101.999996887207,0|0,1:0|0:0,0:0:0:0:
100,88,65404,1,0,0:0:0:0:
92,112,65498,1,0,0:0:0:0:
116,212,65685,1,0,0:0:0:0:
164,316,65873,6,0,P|219:265|220:216,1,101.999996887207,0|0,1:0|0:0,0:0:0:0:
252,124,66248,2,0,P|270:77|312:49,1,101.999996887207
432,33,66623,1,0,1:0:0:0:
493,124,66810,5,0,0:0:0:0:
491,159,66904,1,0,0:0:0:0:
486,194,66998,2,0,P|462:246|422:270,1,101.999996887207
318,268,67373,2,0,P|276:239|257:193,1,101.999996887207,0|0,1:0|0:0,0:0:0:0:
371,118,67748,6,0,L|371:254,1,101.999996887207
371,324,68123,1,0,1:0:0:0:
269,330,68310,1,0,0:0:0:0:
238,314,68404,1,0,0:0:0:0:
214,285,68498,1,0,0:0:0:0:
157,199,68685,1,0,0:0:0:0:
157,199,68873,2,0,P|101:287|-7:279,1,203.999993774414,0|4,1:0|0:0,0:0:0:0:
56,198,69435,5,0,0:0:0:0:
102,107,69623,2,0,P|160:88|209:107,1,101.999996887207,0|0,1:0|0:0,0:0:0:0:
267,200,69998,1,0,0:0:0:0:
346,292,70185,1,0,0:0:0:0:
465,262,70373,1,0,1:0:0:0:
481,141,70560,1,0,0:0:0:0:
386,62,70748,6,0,P|338:46|281:66,1,101.999996887207
216,144,71123,1,0,1:0:0:0:
216,255,71310,1,0,0:0:0:0:
298,322,71498,2,0,L|405:322,1,101.999996887207
432,192,71873,2,0,L|324:192,1,101.999996887207,0|0,1:0|0:0,0:0:0:0:
260,103,72248,6,0,P|216:200|280:292,1,203.999993774414,4|0,0:0|1:0,0:0:0:0:
330,192,72810,1,0,0:0:0:0:
332,85,72998,2,0,P|286:32|223:38,1,101.999996887207,0|0,0:0|0:0,0:0:0:0:
148,48,73373,2,0,P|103:96|117:153,1,101.999996887207,0|0,1:0|0:0,0:0:0:0:
256,192,73748,12,0,74873,0:0:0:0:
340,268,75248,6,0,P|384:236|408:184,1,101.999996887207,4|0,0:0|0:0,0:0:0:0:
392,92,75623,2,0,P|348:124|324:176,1,101.999996887207,0|0,1:0|0:0,0:0:0:0:
252,236,75998,2,0,P|176:204|152:156,1,101.999996887207
148,88,76373,2,0,P|224:120|248:168,1,101.999996887207,0|0,1:0|0:0,0:0:0:0:
316,192,76748,6,0,P|328:252|300:300,1,101.999996887207
220,332,77123,1,0,1:0:0:0:
124,304,77310,1,0,0:0:0:0:
108,268,77404,1,0,0:0:0:0:
112,232,77498,1,0,0:0:0:0:
192,172,77685,1,0,0:0:0:0:
300,124,77873,6,0,B|348:88|348:88|348:32,1,101.999996887207,0|0,1:0|0:0,0:0:0:0:
164,46,78248,2,0,B|164:88|164:88|212:124,1,101.999996887207,4|0,0:0|0:0,0:0:0:0:
300,212,78623,2,0,B|348:248|348:248|348:290,1,101.999996887207,4|0,0:0|0:0,0:0:0:0:
164,290,78998,2,0,B|164:248|164:248|212:212,1,101.999996887207,4|0,0:0|0:0,0:0:0:0:
300,124,79373,2,0,P|254:102|202:155,1,101.999996887207,0|0,1:0|0:0,0:0:0:0:
112,192,79748,5,0,0:0:0:0:
112,92,79935,1,0,0:0:0:0:
28,184,80123,1,0,1:0:0:0:
28,284,80310,1,0,0:0:0:0:
152,272,80498,6,0,P|192:228|192:164,1,101.999996887207,0|0,0:0|0:0,0:0:0:0:
256,80,80873,2,0,L|256:156,3,50.9999984436036,0|0|0|0,1:0|1:0|1:0|1:0,1:0:0:0:
272,172,81248,6,0,P|312:248|424:267,1,203.999993774414,4|0,0:0|1:0,0:0:0:0:
435,159,81810,2,0,P|383:119|339:111,1,101.999996887207
256,80,82185,1,0,0:0:0:0:
160,116,82373,1,0,1:0:0:0:
72,164,82560,1,0,0:0:0:0:
108,256,82748,6,0,P|192:224|212:184,1,101.999996887207
314,217,83123,2,0,P|354:249|404:256,1,101.999996887207,0|0,1:0|0:0,0:0:0:0:
352,144,83498,2,0,P|256:112|152:148,1,203.999993774414,0|0,0:0|1:0,0:0:0:0:
232,212,84060,1,0,0:0:0:0:
304,288,84248,6,0,P|367:293|403:269,1,101.999996887207,4|0,0:0|0:0,0:0:0:0:
445,183,84623,1,0,1:0:0:0:
432,82,84810,2,0,L|482:46,2,50.9999984436036,4|0|0,0:0|1:0|0:0,0:0:0:0:
352,144,85185,1,0,0:0:0:0:
256,104,85373,1,0,1:0:0:0:
160,144,85560,1,0,0:0:0:0:
256,192,85748,12,2,86873,0:0:0:0:
256,192,87248,6,0,P|348:200|420:140,1,152.999995330811,4|0,0:0|0:0,0:0:0:0:
256,192,87810,2,0,P|164:200|92:140,1,152.999995330811,4|0,0:0|0:0,0:0:0:0:
256,192,88373,6,2,L|256:243,2,50.9999984436036,2|2|2,0:0|0:0|0:0,0:0:0:0:
204,104,88748,1,0,0:0:0:0:
308,104,88935,1,4,1:0:0:0:
