osu file format v14

[General]
AudioFilename: How to go.mp3
AudioLeadIn: 2000
PreviewTime: 51248
Countdown: 0
SampleSet: Soft
StackLeniency: 0.3
Mode: 0
LetterboxInBreaks: 0
WidescreenStoryboard: 1

[Editor]
Bookmarks: 45248,75998
DistanceSpacing: 1
BeatDivisor: 2
GridSize: 4
TimelineZoom: 1

[Metadata]
Title:How to go ~TV size~
TitleUnicode:How to go ~TV size~
Artist:School Food Punishment
ArtistUnicode:スクール フード パニッシュメント
Creator:Atsuro
Version:Easy
Source:Un-Go
Tags:Opening
BeatmapID:463003
BeatmapSetID:191872

[Difficulty]
HPDrainRate:2
CircleSize:3
OverallDifficulty:2
ApproachRate:3
SliderMultiplier:1.1
SliderTickRate:1

[Events]
//Background and Video events
Video,810,"vid.avi"
0,0,"bg.jpg",0,0
//Break Periods
//Storyboard Layer 0 (Background)
//Storyboard Layer 1 (Fail)
//Storyboard Layer 2 (Pass)
//Storyboard Layer 3 (Foreground)
//Storyboard Sound Samples

[TimingPoints]
248,375,4,2,0,80,1,0
3248,-100,4,2,0,70,0,0
15248,-99.9999999999999,4,2,0,60,0,0
39248,-100,4,2,0,70,0,0
51248,-100,4,2,0,80,0,1
74498,-100,4,2,0,80,0,0
75248,-100,4,2,0,80,0,1
87248,-100,4,2,0,80,0,0

[Colours]
Combo1 : 74,74,74
Combo2 : 196,136,210
Combo3 : 200,185,200
Combo4 : 255,151,205

[HitObjects]
335,272,248,6,0,P|256:292|177:273,3,165,0|2|2|2,1:0|0:0|0:0|0:0,0:0:0:0:
152,112,2498,2,0,B|256:56|256:168|360:112,1,220,2|4,0:0|0:0,0:0:0:0:
451,50,3623,5,0,1:0:0:0:
474,157,3998,2,0,P|462:228|431:266,1,110,0|0,0:0|1:0,0:0:0:0:
351,322,4748,2,0,L|224:321,1,110,0|0,0:0|1:0,0:0:0:0:
187,224,5498,2,0,P|239:206|290:224,1,110,0|0,0:0|1:0,0:0:0:0:
319,118,6248,6,0,P|239:97|160:117,2,165,0|2|0,0:0|0:0|1:0,0:0:0:0:
400,192,7748,2,0,L|400:316,1,110,0|0,0:0|1:0,0:0:0:0:
298,340,8498,2,0,P|252:350|191:339,1,110,0|0,0:0|1:0,0:0:0:0:
91,290,9248,6,0,P|193:197|214:104,1,220,4|2,0:0|0:0,0:0:0:0:
256,20,10373,1,0,1:0:0:0:
298,121,10748,2,0,P|335:223|421:290,2,220,2|2|4,0:0|0:0|0:0,0:0:0:0:
256,20,12623,5,0,1:0:0:0:
152,47,12998,2,0,P|102:71|63:110,1,110,0|0,0:0|1:0,0:0:0:0:
60,220,13748,2,0,P|98:258|148:282,1,110,0|0,0:0|1:0,0:0:0:0:
256,304,14498,2,0,L|376:304,1,110,0|0,0:0|1:0,0:0:0:0:
468,260,15248,6,0,L|468:140,1,110,4|0,0:0|1:0,0:0:0:0:
432,44,15998,2,0,P|371:89|358:182,2,165,0|2|0,0:0|0:0|1:0,0:0:0:0:
468,150,17498,2,0,L|468:260,1,110,0|0,0:0|1:0,0:0:0:0:
388,336,18248,5,0,0:0:0:0:
301,267,18623,2,0,P|236:234|189:238,2,110,0|0|0,1:0|0:0|1:0,0:0:0:0:
222,344,19748,2,4,P|113:303|96:206,1,220,2|0,0:0|0:0,0:3:0:0:
169,130,20873,1,0,1:0:0:0:
268,177,21248,6,0,P|338:188|383:176,1,110,2|0,0:0|1:0,0:0:0:0:
325,81,21998,2,0,L|324:268,2,165,0|2|0,0:0|0:0|1:0,0:0:0:0:
238,149,23498,2,0,P|197:186|136:205,1,110,0|0,0:0|1:0,0:0:0:0:
50,148,24248,2,0,P|33:199|45:252,1,110,0|0,0:0|1:0,0:0:0:0:
140,314,24998,2,0,B|220:360|220:288|297:313,2,165,2|2|0,0:0|0:0|1:0,0:0:0:0:
199,220,26498,2,0,P|216:167|208:113,1,110,0|0,0:0|1:0,0:0:0:0:
144,24,27248,5,4,0:0:0:0:
81,114,27623,2,0,P|73:168|89:220,1,110,0|0,1:0|0:0,0:0:0:0:
144,316,28373,1,0,1:0:0:0:
252,344,28748,2,0,P|312:268|304:200,2,165,0|2|0,0:1|0:0|1:0,0:0:0:0:
204,244,30248,6,0,P|216:140|320:96,1,220
412,136,31373,1,0,1:0:0:0:
488,216,31748,2,0,L|488:336,2,110,2|0|0,0:0|1:0|0:0,0:0:0:0:
412,136,32873,1,0,1:0:0:0:
364,236,33248,6,0,P|304:276|244:280,1,110,0|0,0:0|1:0,0:0:0:0:
196,364,33998,2,0,P|131:332|88:236,2,165,2|2|0,0:0|0:0|1:0,0:0:0:0:
304,364,35498,2,0,L|416:364,1,110,0|0,0:0|1:0,0:0:0:0:
492,288,36248,6,0,P|504:224|496:180,1,110,0|0,0:0|1:0,0:0:0:0:
416,108,36998,2,0,B|336:76|336:140|256:108,2,165,2|2|0,0:0|0:0|1:0,0:0:0:0:
384,212,38498,2,0,P|344:260|280:272,1,110,0|0,1:0|1:0,0:0:0:0:
192,272,39248,2,0,P|116:232|108:156,2,165,6|2|2,0:0|0:0|0:0,0:0:0:0:
256,184,40748,2,0,L|256:60,1,110,0|0,0:0|1:0,0:0:0:0:
364,80,41498,2,0,P|380:136|364:188,1,110,2|0,0:0|1:0,0:0:0:0:
296,272,42248,6,0,P|372:296|456:256,2,165,6|2|2,0:0|0:0|0:0,0:0:0:0:
204,212,43748,2,0,P|152:184|88:188,1,110,0|0,0:0|1:0,0:0:0:0:
128,290,44498,2,0,L|230:361,1,110,0|0,0:0|1:0,0:0:0:0:
296,272,45248,6,0,P|372:248|456:288,2,165,6|2|0,0:0|0:0|1:0,0:0:0:0:
92,356,47123,2,0,P|60:304|40:240,1,110,0|0,0:0|1:0,0:0:0:0:
48,148,47873,1,2,0:0:0:0:
136,84,48248,6,0,L|304:84,2,165,0|0|4,1:0|1:0|1:0,0:0:0:0:
112,192,49748,2,0,P|218:216|324:191,1,220,0|0,1:0|1:0,0:0:0:0:
472,28,51248,6,0,P|484:84|468:152,1,110,4|0,0:0|1:0,0:0:0:0:
364,136,51998,2,0,P|352:192|368:260,1,110,0|0,0:0|1:0,0:0:0:0:
404,344,52748,1,0,0:0:0:0:
300,308,53123,2,0,B|196:252|196:364|92:308,1,220,0|0,1:0|1:0,0:0:0:0:
56,204,54248,6,0,P|128:168|160:128,1,110,0|0,0:0|1:0,0:0:0:0:
220,68,54998,2,0,P|260:104|311:124,1,110,0|0,0:0|1:0,0:0:0:0:
416,96,55748,1,0,0:0:0:0:
488,176,56123,2,0,P|472:280|356:308,1,220,0|0,1:0|1:0,0:0:0:0:
272,268,57248,6,0,P|193:245|115:266,2,165,4|2|0,0:0|0:0|1:0,0:0:0:0:
364,332,58748,1,0,0:0:0:0:
448,264,59123,2,0,P|464:204|448:144,1,110,0|0,1:0|0:0,0:0:0:0:
372,84,59873,1,0,1:0:0:0:
260,59,60248,6,0,P|156:74|67:152,1,220,4|0,0:0|0:0,0:0:0:0:
22,245,61373,1,0,1:0:0:0:
109,312,61748,2,0,B|197:332|256:266|256:266|317:332|409:308,1,330,4|0,0:0|1:0,0:0:0:0:
482,226,63248,6,0,P|472:158|446:116,1,110,4|0,0:0|1:0,0:0:0:0:
357,65,63998,2,0,P|293:90|243:88,1,110,0|0,0:0|1:0,0:0:0:0:
153,41,64748,1,0,0:0:0:0:
77,121,65123,2,0,P|42:223|77:325,1,220,0|0,1:0|1:0,0:0:0:0:
186,335,66248,6,0,P|241:261|256:218,1,110,0|0,0:0|1:0,0:0:0:0:
345,195,66998,2,0,P|290:121|275:78,1,110,0|0,0:0|1:0,0:0:0:0:
393,97,67748,1,0,0:0:0:0:
454,188,68123,2,0,P|451:262|317:343,1,220,0|0,1:0|1:0,0:0:0:0:
235,316,69248,6,0,P|200:250|217:158,2,165,4|2|0,0:0|0:0|1:0,0:0:0:0:
325,253,70748,1,0,0:0:0:0:
393,166,71123,2,0,P|414:99|406:42,2,110,0|0|0,1:0|0:0|1:0,0:0:0:0:
324,253,72248,2,0,P|246:274|167:252,2,165,4|2|0,0:0|0:0|1:0,0:0:0:0:
394,166,73748,2,0,P|256:92|112:168,1,330,4|0,0:0|1:0,0:0:0:0:
80,272,75248,6,0,P|124:308|196:316,1,110,4|0,0:0|1:0,0:0:0:0:
224,220,75998,2,0,P|277:231|319:266,1,110,0|0,0:0|1:0,0:0:0:0:
384,356,76748,1,0,0:0:0:0:
468,284,77123,2,0,P|500:180|468:72,1,220,0|0,1:0|1:0,0:0:0:0:
380,136,78248,6,0,P|328:148|268:132,2,110,4|0|2,0:0|1:0|0:0,0:0:0:0:
328,40,79373,1,0,1:0:0:0:
220,48,79748,2,0,L|96:80,1,110,0|0,0:0|1:0,0:0:0:0:
36,156,80498,2,0,L|160:188,1,110,0|0,0:0|1:0,0:0:0:0:
248,208,81248,6,0,P|201:278|124:292,2,165,4|0|0,0:0|1:0|1:0,0:0:0:0:
286,104,82748,2,0,P|333:34|410:20,2,165,4|0|0,0:0|1:0|1:0,0:0:0:0:
351,192,84248,6,0,P|361:252|350:301,1,110,4|0,0:0|1:0,0:0:0:0:
262,365,84998,2,0,L|155:294,1,110,0|0,0:0|1:0,0:0:0:0:
94,224,85748,2,0,P|104:99|179:216,1,330,4|0,0:0|1:0,0:0:0:0:
256,192,87248,12,4,88935,0:0:0:0:
