osu file format v9

[General]
AudioFilename: School Food Punishment - Un-Go OP - How to go (Tv size).mp3
AudioLeadIn: 1963
PreviewTime: 51134
Countdown: 0
SampleSet: Soft
StackLeniency: 0.4
Mode: 0
LetterboxInBreaks: 0

[Editor]
Bookmarks: 3124,15124,27124,39124,45124,51124,63124,75124,87124
DistanceSpacing: 1.2
BeatDivisor: 8
GridSize: 4

[Metadata]
Title:How to go (TV Size)
Artist:School Food Punishment
Creator:hipster3000
Version:Normal
Source:UN-GO
Tags:sfp noitamina opening kogure xcherry xakyrie Sweet_Serenitee Haruka

[Difficulty]
HPDrainRate:3
CircleSize:4
OverallDifficulty:3
ApproachRate:4
SliderMultiplier:1.00000000596046
SliderTickRate:1

[Events]
//Background and Video events
0,0,"UN-GO_1.png"
Video,0,"un-go.avi"
//Break Periods
//Storyboard Layer 0 (Background)
//Storyboard Layer 1 (Fail)
//Storyboard Layer 2 (Pass)
//Storyboard Layer 3 (Foreground)
//Storyboard Sound Samples
//Background Colour Transformations
3,100,163,162,255

[TimingPoints]
122,375,4,2,1,40,1,0
3122,-100,4,2,1,63,0,0
51122,-100,4,2,1,63,0,1
75122,-100,4,2,1,63,0,0

[Colours]
Combo1 : 28,170,35
Combo2 : 57,133,179
Combo3 : 245,197,245
Combo4 : 200,38,38
Combo5 : 255,150,0

[HitObjects]
176,112,122,2,8,B|256:88|256:88|280:120|320:104,1,150.000000894069,12|8
328,280,1247,2,8,B|248:304|248:304|224:272|184:288,1,150.000000894069
332,96,3122,6,0,B|256:56|184:96,1,150.000000894069,4|0
256,192,4059,1,0
360,256,4434,2,0,B|360:316|296:332,1,100.000000596046
260,292,4997,2,0,B|212:304,1,50.000000298023,8|0
128,216,5559,2,0,B|108:196|116:160,2,50.000000298023,0|8|0
184,232,6122,6,0,B|236:256|288:232,1,100.000000596046,0|8
368,148,6872,2,0,B|316:124|264:148,1,100.000000596046,0|8
152,160,7622,1,0
200,48,7997,1,8
272,144,8372,1,0
272,144,8559,1,0
272,144,8747,1,8
384,116,9122,6,0,B|424:148|404:192,2,75.0000004470345,4|0|0
336,76,9872,2,0,B|304:36|260:56,2,75.0000004470345,0|0|0
328,136,10622,2,0,B|276:200,1,75.0000004470345
224,240,11137,1,0
224,240,11372,2,0,B|224:308|244:316,2,75.0000004470345
256,192,12122,12,4,14372
256,192,15122,5,0
248,312,15497,2,0,B|168:312|160:272,2,100.000000596046,2|0|2
368,312,16622,2,0,B|432:296|432:240,1,100.000000596046,0|2
432,184,17184,1,0
432,128,17372,2,0,B|416:64|360:64,1,100.000000596046,0|2
248,64,18122,6,0,B|160:64|160:64|208:120|136:160,1,200.000001192092,0|0
40,216,19247,1,2
40,216,19622,2,0,B|48:272|48:272|96:288,1,100.000000596046,0|2
208,312,20372,2,0,B|240:344|272:344|304:312,2,100.000000596046,0|2|4
256,136,21684,5,0
256,136,21872,2,0,B|320:192,2,75.0000004470345
432,296,23184,2,0,B|416:344,2,50.000000298023
456,240,23747,2,0,B|408:224,1,50.000000298023,2|0
400,168,24122,6,0,B|336:88,1,100.000000596046,0|2
216,96,24872,2,0,B|280:184,1,100.000000596046,0|2
152,176,25622,2,0,B|88:96,1,100.000000596046,0|2
48,208,26372,1,0
80,256,26559,1,0
112,304,26747,2,0,B|144:344,2,50.000000298023,8|8|4
232,296,27497,6,0,B|208:240|232:192,2,100.000000596046,2|0|2
352,328,28622,1,0
464,296,28997,2,0,B|488:240|464:192,1,100.000000596046,2|0
432,80,29747,1,2
432,80,29934,1,0
432,80,30122,6,0,B|376:48|336:96,1,100.000000596046,0|2
248,160,30872,2,0,B|216:144|176:144|144:160,2,100.000000596046,0|2|0
208,272,31997,2,0,B|240:288|280:288|312:272,1,100.000000596046,2|0
356,244,32559,1,0
384,192,32747,1,2
364,72,33122,5,0
252,40,33497,1,2
220,152,33872,1,0
332,184,34247,2,0,B|316:232,1,50.000000298023,2|0
292,288,34622,2,0,B|260:336|196:320,1,100.000000596046,0|2
172,208,35372,2,0,B|204:160|268:176,1,100.000000596046,0|2
376,208,36122,6,0,B|376:312,2,100.000000596046,0|2|0
288,128,37247,2,0,B|288:232,1,100.000000596046,2|0
364,136,37997,1,2
416,244,38372,2,0,B|456:272,1,50.000000298023,2|0
404,300,38747,2,0,B|388:356,1,50.000000298023,0|2
332,328,39122,6,0,B|284:320|248:276,1,100.000000596046,4|8
212,324,39684,2,0,B|172:356|116:328,1,100.000000596046,4|8
104,268,40247,1,4
184,180,40622,1,0
240,76,40997,1,2
300,68,41184,1,0
360,76,41372,1,0
452,160,41747,1,2
360,236,42122,6,0,B|344:276|296:316,1,100.000000596046,4|8
256,272,42684,2,0,B|228:232|228:176,1,100.000000596046,4|8
228,177,43247,1,4
324,248,43622,1,0
216,304,43997,1,2
160,284,44184,1,0
108,256,44372,2,0,B|88:232|92:200,1,50.000000298023
92,148,44747,2,2,B|120:136|144:144,1,50.000000298023,2|0
192,176,45122,6,0,B|224:192|224:192|264:176,2,75.0000004470345,4|8|4
248,104,45965,1,8
296,28,46247,2,8,B|264:12|264:12|224:28,2,75.0000004470345
416,168,47372,1,4
328,248,47747,1,2
280,288,47934,1,0
224,312,48122,6,0,B|160:312|160:248,1,100.000000596046,4|8
160,192,48684,1,0
160,128,48872,2,0,B|160:64|232:64,1,100.000000596046,0|10
288,64,49434,1,2
352,64,49622,2,4,B|352:120,2,50.000000298023
8,144,51122,6,0,B|56:104|104:144,1,100.000000596046,4|8
212,184,51872,1,0
316,240,52247,2,0,B|372:240,2,50.000000298023,8|0|0
208,292,52997,1,8
92,268,53372,1,0
48,156,53747,1,8
48,156,53934,1,0
48,156,54122,5,2
156,100,54497,2,0,B|164:36|220:36|228:60,1,100.000000596046,8|0
288,152,55247,2,0,B|320:192,2,50.000000298023,8|0|0
224,52,55997,2,0,B|200:148,1,100.000000596046,8|0
184,208,56559,1,0
168,268,56747,2,0,B|152:324,2,50.000000298023,8|8|4
284,304,57497,6,0,B|380:280,1,100.000000596046,8|0
296,196,58247,2,0,B|192:220,1,100.000000596046,8|0
224,100,58997,2,0,B|328:76,1,100.000000596046,8|0
440,80,59747,1,8
404,128,59934,1,0
372,180,60122,6,0,B|348:228|388:284,1,100.000000596046,2|8
381,274,60684,1,0
381,274,60872,2,0,B|352:320|292:316,1,100.000000596046,0|8
216,260,61622,2,0,B|248:212|240:156,1,100.000000596046,2|8
224,48,62372,2,0,B|272:24,1,50.000000298023,8|0
268,84,62747,2,0,B|324:84,1,50.000000298023,8|8
300,140,63122,1,4
180,124,63497,6,0,B|180:228,1,100.000000596046,8|0
180,344,64247,1,8
296,308,64622,2,0,B|296:108,1,200.000001192092
412,84,65747,1,8
412,204,66122,5,2
324,284,66497,2,0,B|284:332|284:332|244:332,2,100.000000596046,8|0|8
412,204,67622,1,0
324,124,67997,2,0,B|284:76|284:76|244:76,1,100.000000596046,8|0
128,96,68747,1,8
128,156,68934,1,0
128,216,69122,5,4
128,336,69497,2,0,B|176:352|220:312,1,100.000000596046,8|0
280,216,70247,2,0,B|236:164|188:188,1,100.000000596046,8|0
128,96,70997,2,0,B|144:40|200:40,1,100.000000596046,8|0
320,40,71747,1,8
232,120,72122,6,0,B|252:216,1,100.000000596046,4|8
264,276,72684,2,0,B|268:336|344:300,1,100.000000596046
338,302,73247,1,8
256,192,73622,12,4,75122
72,128,75872,6,0,B|56:80|144:72,1,100.000000596046,0|8
256,64,76622,1,0
256,192,76997,1,8
256,312,77372,1,0
368,280,77747,1,8
368,160,78122,2,0,B|416:136|464:160|464:160|440:112|464:64|464:64,1,200.000001192092,0|0
344,64,79247,1,8
224,64,79622,2,0,B|120:64,1,100.000000596046,0|8
56,168,80372,2,0,B|24:208,2,50.000000298023,8|0|8
56,168,81122,1,4
152,240,81497,5,0
152,240,81684,2,0,B|256:240,1,100.000000596046,4|0
312,240,82247,2,0,B|368:240,2,50.000000298023,2|0|4
336,120,82997,1,0
336,120,83184,2,0,B|232:120,1,100.000000596046,4|0
176,120,83747,2,0,B|120:120,1,50.000000298023,2|0
256,192,84122,12,0,86372
192,104,87122,6,0,B|176:152|200:184,1,75.0000004470345,4|0
276,216,87684,2,0,B|292:168|268:136,1,75.0000004470345,4|0
256,68,88247,2,0,B|304:52|336:76,1,75.0000004470345,4|0
360,156,88809,1,4
