osu file format v9

[General]
AudioFilename: School Food Punishment - Un-Go OP - How to go (Tv size).mp3
AudioLeadIn: 1963
PreviewTime: 51134
Countdown: 0
SampleSet: Soft
StackLeniency: 0.4
Mode: 0
LetterboxInBreaks: 0

[Editor]
Bookmarks: 122,3122,15122,27122,39122,45122,51122,63122,75122,87122
DistanceSpacing: 1
BeatDivisor: 8
GridSize: 4

[Metadata]
Title:How to go (TV Size)
Artist:School Food Punishment
Creator:hipster3000
Version:Hard
Source:UN-GO
Tags:sfp noitamina opening kogure xcherry xakyrie Sweet_Serenitee Haruka

[Difficulty]
HPDrainRate:6
CircleSize:4
OverallDifficulty:6
ApproachRate:7
SliderMultiplier:1.60000000596046
SliderTickRate:0.5

[Events]
//Background and Video events
0,0,"UN-GO_1.png"
Video,0,"un-go.avi"
//Break Periods
//Storyboard Layer 0 (Background)
//Storyboard Layer 1 (Fail)
//Storyboard Layer 2 (Pass)
//Storyboard Layer 3 (Foreground)
//Storyboard Sound Samples
//Background Colour Transformations
3,100,163,162,255

[TimingPoints]
122,375,4,2,1,63,1,0
122,-100,4,2,1,40,0,0
403,-100,4,2,1,15,0,0
684,-100,4,2,1,40,0,0
965,-100,4,2,1,15,0,0
1247,-100,4,2,1,40,0,0
1528,-100,4,2,1,15,0,0
1809,-100,4,2,1,40,0,0
2090,-100,4,2,1,15,0,0
3122,-100,4,2,1,63,0,0
50372,-100,4,2,1,10,0,0
50465,-100,4,2,1,12,0,0
50559,-100,4,2,1,16,0,0
50653,-100,4,2,1,22,0,0
50747,-100,4,2,1,27,0,0
50840,-100,4,2,1,32,0,0
50934,-100,4,2,1,44,0,0
51028,-100,4,2,1,48,0,0
51122,-100,4,2,1,63,0,1
75122,-100,4,2,1,63,0,0

[Colours]
Combo1 : 28,170,35
Combo2 : 57,133,179
Combo3 : 245,197,245
Combo4 : 200,38,38
Combo5 : 255,150,0

[HitObjects]
384,144,122,6,0,B|376:64|304:64,1,120.00000089407,4|8
128,240,684,2,0,B|136:320|208:320,1,120.00000089407,8|8
201,64,1247,2,0,B|136:64|128:144,1,120.00000089407,8|8
310,319,1809,2,0,B|376:320|384:240,1,120.00000089407,8|8
256,192,2372,1,0
120,104,3122,5,4
88,192,3309,1,0
120,280,3497,1,8
176,360,3684,2,0,B|232:384|256:384|280:384|344:352,1,160.000001192093
392,280,4247,1,8
424,191,4434,1,0
392,100,4622,1,0
308,52,4809,1,0
308,52,4903,1,0
308,52,4997,2,0,B|220:52,1,80.0000005960464,8|0
132,72,5372,1,0
48,120,5559,1,0
36,216,5747,1,8
112,280,5934,1,0
176,328,6122,6,2,B|200:360|248:344,1,80.0000005960464,2|0
320,312,6497,1,8
264,248,6684,2,0,B|224:256|176:232,1,80.0000005960464,0|0
144,168,7059,1,0
208,128,7247,2,0,B|240:136|288:144,1,80.0000005960464,8|0
360,120,7622,1,0
328,48,7809,1,0
248,48,7997,1,8
248,128,8184,1,0
248,128,8278,1,0
248,128,8372,2,0,B|248:168,3,40.0000002980232
248,128,8747,2,0,B|304:128,3,40.0000002980232,2|0|0|0
248,128,9122,5,4
148,120,9356,2,0,B|84:120|76:192,1,106.666667461395
104,288,9872,1,2
200,328,10106,1,0
280,264,10387,1,0
360,336,10622,2,0,B|328:396|256:360,1,106.666667064031,2|0
280,264,11137,1,0
204,188,11372,2,0,B|236:128|308:164,1,106.666667064031,2|0
280,264,11887,1,0
256,192,12122,12,0,13997
248,88,14372,6,0,B|272:72|304:88|312:128,1,80.0000005960464,8|0
320,200,14747,1,8
320,200,14840,1,8
320,200,14934,2,0,B|320:248|296:288,2,80.0000005960464,0|4|0
384,152,15497,5,0
456,120,15684,2,0,B|496:248|496:248|452:232|404:252|400:280,1,240.00000089407,0|2
460,328,16434,2,0,B|404:360|364:360|308:328,1,160.000001192093
240,288,16997,1,2
164,260,17184,2,0,B|132:220|164:188,2,80.0000005960464
236,220,17747,2,0,B|260:172|220:148,1,80.0000005960464,2|0
148,116,18122,6,0,B|180:68|212:68|252:68|260:84,2,120.00000089407
124,192,18872,2,0,B|124:240|108:288,1,80.0000005960464
8,296,19247,2,0,B|0:264|16:216,1,80.0000005960464,2|0
40,144,19622,2,0,B|40:56|96:48,1,120.00000089407
216,48,20184,1,0
296,72,20372,2,0,B|336:104,2,40.0000002980232
224,112,20747,2,0,B|224:160,2,40.0000002980232
304,136,21122,1,2
184,56,21403,1,0
84,120,21684,1,0
84,120,21872,6,0,B|44:160|84:200,1,80.0000005960464
192,124,22247,2,0,B|232:164|192:204,1,80.0000005960464,2|0
136,244,22622,1,0
136,244,22715,1,0
136,244,22809,2,0,B|96:276|104:316,1,80.0000005960464,0|2
184,308,23184,2,0,B|232:316|272:300,1,80.0000005960464
260,224,23559,2,0,B|220:208|172:232,2,80.0000005960464,0|2|0
332,260,24122,6,0,B|372:316|348:348,2,80.0000005960464,0|0|2
408,232,24684,2,0,B|360:160|288:104,1,160.000001192093
296,196,25247,2,0,B|304:244|280:276,1,80.0000005960464,2|0
204,284,25622,2,0,B|148:252|148:212,1,80.0000005960464,0|2
212,176,25997,1,0
264,116,26184,1,0
340,88,26372,2,0,B|372:120,3,40.0000002980232,2|0|2|2
380,128,26747,1,8
388,136,26840,1,8
396,144,26934,1,8
404,152,27028,1,8
412,160,27122,1,4
56,256,27684,6,0,B|128:288|216:280,1,160.000001192093
168,212,28247,1,2
112,156,28434,2,0,B|184:124|272:140,1,160.000001192093
348,144,28997,1,2
348,144,29184,2,0,B|420:224|332:280,1,160.000001192093
256,360,29747,1,2
180,280,29934,1,0
184,200,30122,6,0,B|256:128|328:200,1,160.000001192093,0|2
256,232,30684,1,0
184,264,30872,2,0,B|256:336|328:264,1,160.000001192093,0|2
384,328,31434,2,0,B|344:360|288:376|232:376,1,160.000001192093
160,336,31997,1,2
56,296,32184,1,0
144,232,32372,1,0
40,192,32559,1,0
128,128,32747,1,2
24,88,32934,1,0
96,56,33122,6,0,B|192:40,2,80.0000005960464,0|0|2
128,128,33684,1,0
96,200,33872,2,0,B|184:216,2,80.0000005960464,0|0|2
128,128,34434,1,0
204,100,34622,1,0
284,112,34809,2,0,B|356:152,1,80.0000005960464,0|2
404,212,35184,1,0
256,248,35559,2,0,B|256:336,2,80.0000005960464,0|2|0
200,192,36122,6,0,B|104:192,2,80.0000005960464,0|0|2
256,136,36684,2,0,B|256:56,2,80.0000005960464
312,192,37247,2,0,B|408:192,2,80.0000005960464,2|0|0
232,192,37809,1,0
160,160,37997,2,0,B|80:136,2,80.0000005960464,2|0|2
224,120,38559,1,0
256,192,38747,1,2
256,192,38840,1,2
256,192,38934,1,0
160,96,39122,5,4
352,96,39403,1,8
352,288,39684,1,4
160,288,39965,1,8
256,192,40247,1,4
256,112,40434,2,0,B|192:112|192:160,2,80.0000005960464
336,112,40997,2,0,B|400:136|400:168,1,80.0000005960464
320,240,41372,1,0
400,240,41559,2,0,B|432:192,2,40.0000002980232,2|0|2
256,192,41934,1,0
256,72,42122,5,4
376,192,42403,1,8
256,312,42684,1,4
136,192,42965,1,8
256,192,43247,1,4
192,152,43434,2,0,B|208:112|208:112|248:104,1,80.0000005960464
328,104,43809,1,0
328,232,43997,1,0
408,104,44184,1,2
408,232,44372,1,0
256,192,44559,2,0,B|256:152,2,40.0000002980232,2|0|2
136,56,45122,5,4
376,96,45403,1,8
160,144,45684,1,4
352,184,45965,1,8
184,232,46247,1,8
328,272,46528,1,8
216,320,46809,1,8
296,324,46997,2,0,B|336:348|384:316,1,80.0000005960464,0|0
440,280,47372,1,2
296,324,47559,1,0
296,324,47653,1,0
296,324,47747,2,0,B|248:292|212:332,1,80.000000298023,2|0
192,256,48122,6,4,B|200:184|256:152,1,120.00000089407,12|8
320,256,48684,2,4,B|312:184|256:152,1,120.00000089407,12|10
256,32,49247,1,6
256,152,49434,1,2
184,224,49622,1,4
328,224,49809,1,4
256,152,49997,1,4
256,264,50372,1,8
256,272,50465,1,8
256,280,50559,1,8
256,288,50653,1,8
256,296,50747,1,8
256,304,50840,1,8
256,312,50934,1,8
256,320,51028,1,8
256,328,51122,1,4
160,200,51497,6,0,B|96:208|80:160,1,80.0000005960464,8|0
88,176,51778,1,8
88,176,51872,1,0
96,96,52059,1,0
96,16,52247,2,0,B|0:8,2,80.0000005960464,8|0|0
176,24,52809,1,0
256,48,52997,1,8
320,104,53184,1,0
320,104,53278,1,8
320,104,53372,2,0,B|344:152|328:192,1,80.0000005960464
304,256,53747,2,0,B|216:256,1,80.0000005960464,8|0
72,232,54122,5,2
64,152,54309,1,0
120,96,54497,2,0,B|152:144|144:224,1,120.00000089407,8|8
145,211,54872,1,0
212,256,55059,1,0
292,264,55247,2,0,B|292:168,1,80.0000005960464,8|0
248,116,55622,1,0
184,68,55809,1,0
108,40,55997,2,0,B|44:32|20:56,2,80.0000005960464,8|0|8
108,120,56559,1,0
108,160,56653,1,0
108,200,56747,2,8,B|108:240,4,40.0000002980232,8|8|8|8|4
416,160,57497,6,2,B|416:96|360:96,1,80.0000005960464,8|0
296,96,57872,1,0
216,96,58059,1,0
136,96,58247,2,0,B|96:96|96:168,1,80.0000005960464,8|0
120,232,58622,1,0
168,296,58809,2,0,B|264:352|336:320,2,160.000001192093,0|0|0
160,152,59747,1,8
224,104,59934,1,0
304,104,60122,6,0,B|320:136|312:200,1,80.0000005960464,0|0
280,256,60497,1,8
128,320,60872,1,0
80,192,61059,1,0
128,64,61247,1,8
416,64,61622,1,4
416,144,61809,2,2,B|416:192,4,40.0000002980232,8|0|8|8|8
280,224,62372,1,4
280,304,62559,2,0,B|280:352,6,40.0000002980232,8|0|8|0|8|8|4
288,56,63497,6,0,B|352:48|376:72,1,80.0000005960464,8|0
288,224,63872,2,0,B|224:232|200:208,1,80.0000005960464
248,136,64247,2,0,B|312:128|336:152,1,80.0000005960464,8|0
464,176,64622,1,0
408,312,64809,1,0
264,328,64997,2,0,B|200:336|176:312,1,80.0000005960464,8|0
264,160,65372,2,0,B|328:152|352:176,1,80.0000005960464
304,240,65747,2,0,B|240:248|216:224,1,80.0000005960464,8|0
104,312,66122,6,0,B|64:296|48:248,1,80.0000005960464
72,136,66497,2,0,B|88:192|120:216,1,80.0000005960464,8|0
184,232,66872,1,0
264,232,67059,1,0
344,224,67247,2,0,B|392:224|408:160,1,80.0000005960464,8|0
400,88,67622,1,0
328,128,67809,1,0
296,56,67997,2,0,B|216:56,1,80.0000005960464,8|0
184,128,68372,1,0
112,88,68559,2,0,B|96:136,5,40.0000002980232,8|0|8|8|8|8
88,168,69122,1,4
264,360,69497,6,0,B|264:296|208:296,1,80.0000005960464,8|0
208,224,69872,1,0
248,152,70059,1,0
200,88,70247,2,0,B|200:24|256:24,1,80.0000005960464,8|0
56,160,70809,1,0
104,224,70997,1,8
176,144,71184,1,0
224,240,71372,1,0
296,128,71559,1,0
352,256,71747,1,8
416,104,71934,1,0
256,192,72122,12,4,75122
64,104,75497,6,0,B|136:72|232:112,1,160.000001192093,8|0
296,128,76059,1,0
408,160,76247,1,8
296,200,76434,1,0
224,232,76622,2,0,B|192:272|144:256,1,80.0000005960464
128,336,76997,2,0,B|88:264|128:168,1,160.000001192093,8|0
160,112,77559,2,0,B|192:80|232:80,2,80.0000005960464,0|8|0
128,248,78122,6,0,B|136:312|168:344|240:360,1,160.000001192093,0|8
328,312,78684,1,0
400,216,78872,2,0,B|392:152|360:120|288:104,1,160.000001192093,0|8
144,56,79622,2,0,B|104:64|64:168|72:200,1,160.000001192093,0|8
72,272,80184,1,0
136,320,80372,2,0,B|160:360|208:360,1,80.0000005960464,8|0
280,364,80747,2,0,B|336:364,3,40.0000001490115,8|8|8|0
280,364,81122,1,4
200,144,81497,5,0
272,104,81684,2,0,B|256:72|200:56|144:72|120:112,1,160.000001192093,4|0
96,176,82247,1,2
96,176,82340,1,2
96,176,82434,1,2
120,256,82622,2,0,B|176:272|240:264,1,120.00000089407,4|0
280,256,82997,2,0,B|368:232,2,80.0000005960464,2|4|2
280,256,83559,1,0
200,272,83747,1,2
200,272,83840,1,2
200,272,83934,1,2
256,192,84122,12,0,85997
408,104,86372,5,0
360,168,86559,1,0
352,176,86653,1,0
344,184,86747,2,0,B|320:224|272:208,1,80.0000005960464,2|0
128,144,87122,6,0,B|136:64|208:64,1,120.00000089407,4|8
384,240,87684,2,0,B|376:320|304:320,1,120.00000089407,4|8
384,144,88247,2,0,B|376:64|304:64,1,120.00000089407,4|8
