osu file format v14

[General]
AudioFilename: Jabba the Hutt (PewDiePie Song).mp3
AudioLeadIn: 0
PreviewTime: 30401
Countdown: 0
SampleSet: Normal
StackLeniency: 0.7
Mode: 3
LetterboxInBreaks: 0
SpecialStyle: 0
WidescreenStoryboard: 0

[Editor]
DistanceSpacing: 0.8
BeatDivisor: 4
GridSize: 4
TimelineZoom: 1.7

[Metadata]
Title:Jabba the Hutt
TitleUnicode:Jabba the Hutt
Artist:Schmoyoho
ArtistUnicode:Schmoyoho
Creator:DrawdeX
Version:NM
Source:PewDiePie
Tags:[B l a n k]
BeatmapID:688043
BeatmapSetID:307556

[Difficulty]
HPDrainRate:7
CircleSize:4
OverallDifficulty:7
ApproachRate:5
SliderMultiplier:1.4
SliderTickRate:1

[Events]
//Background and Video events
0,0,"maxresdefault.jpg",0,0
Video,0,"video.wmv"
//Break Periods
//Storyboard Layer 0 (Background)
//Storyboard Layer 1 (Fail)
//Storyboard Layer 2 (Pass)
//Storyboard Layer 3 (Foreground)
//Storyboard Sound Samples

[TimingPoints]
3343,588.235294117647,4,1,1,30,1,0
31578,-100,4,1,1,30,0,1
50401,-100,4,1,1,30,0,0
88048,-100,4,1,1,30,0,1
97460,-100,4,1,1,30,0,0
106872,-100,4,1,1,30,0,1
116284,-100,4,1,1,30,0,0

[HitObjects]
64,192,3343,5,0,0:0:0:0:
320,192,4078,1,0,0:0:0:0:
192,192,4519,1,0,0:0:0:0:
448,192,5254,1,0,0:0:0:0:
64,192,5695,1,0,0:0:0:0:
192,192,5695,1,0,0:0:0:0:
448,192,6137,1,0,0:0:0:0:
320,192,6137,1,0,0:0:0:0:
64,192,6578,1,0,0:0:0:0:
192,192,6578,1,0,0:0:0:0:
448,192,6872,1,0,0:0:0:0:
192,192,7166,1,0,0:0:0:0:
320,192,7460,128,0,7754:0:0:0:0:
64,192,7460,1,0,0:0:0:0:
64,192,8048,1,0,0:0:0:0:
192,192,8048,1,0,0:0:0:0:
448,192,8490,1,0,0:0:0:0:
320,192,8490,1,0,0:0:0:0:
64,192,8931,1,0,0:0:0:0:
192,192,8931,1,0,0:0:0:0:
320,192,9225,1,0,0:0:0:0:
448,192,9225,1,0,0:0:0:0:
64,192,9519,1,0,0:0:0:0:
192,192,9813,128,0,10107:0:0:0:0:
448,192,9813,1,0,0:0:0:0:
320,192,10401,1,0,0:0:0:0:
192,192,10695,1,0,0:0:0:0:
448,192,10843,1,0,0:0:0:0:
64,192,10990,1,0,0:0:0:0:
320,192,11137,1,0,0:0:0:0:
192,192,11284,1,0,0:0:0:0:
448,192,11431,1,0,0:0:0:0:
64,192,11578,1,0,0:0:0:0:
64,192,12754,1,0,0:0:0:0:
448,192,12754,128,0,15107:0:0:0:0:
320,192,13048,1,0,0:0:0:0:
192,192,13342,1,0,0:0:0:0:
64,192,13637,1,0,0:0:0:0:
320,192,13931,1,0,0:0:0:0:
192,192,14225,1,0,0:0:0:0:
320,192,14519,1,0,0:0:0:0:
64,192,14813,1,0,0:0:0:0:
192,192,15107,128,0,17460:0:0:0:0:
320,192,15107,1,0,0:0:0:0:
448,192,15401,1,0,0:0:0:0:
64,192,15695,1,0,0:0:0:0:
320,192,15990,1,0,0:0:0:0:
448,192,16284,1,0,0:0:0:0:
64,192,16578,1,0,0:0:0:0:
320,192,16872,1,0,0:0:0:0:
448,192,17166,1,0,0:0:0:0:
64,192,17460,1,0,0:0:0:0:
320,192,17460,128,0,19813:0:0:0:0:
448,192,17754,1,0,0:0:0:0:
192,192,18048,1,0,0:0:0:0:
64,192,18342,1,0,0:0:0:0:
448,192,18637,1,0,0:0:0:0:
192,192,18931,1,0,0:0:0:0:
448,192,19225,1,0,0:0:0:0:
64,192,19519,1,0,0:0:0:0:
192,192,19813,128,0,20401:0:0:0:0:
448,192,19813,1,0,0:0:0:0:
320,192,20107,1,0,0:0:0:0:
64,192,20401,128,0,20990:0:0:0:0:
448,192,20401,1,0,0:0:0:0:
320,192,20695,1,0,0:0:0:0:
192,192,20990,1,0,0:0:0:0:
320,192,21578,128,0,21872:0:0:0:0:
64,192,21578,1,0,0:0:0:0:
64,192,22166,1,0,0:0:0:0:
192,192,22166,1,0,0:0:0:0:
448,192,22460,1,0,0:0:0:0:
320,192,22754,1,0,0:0:0:0:
64,192,23048,1,0,0:0:0:0:
192,192,23342,1,0,0:0:0:0:
320,192,23637,1,0,0:0:0:0:
448,192,23931,1,0,0:0:0:0:
192,192,24225,1,0,0:0:0:0:
64,192,24519,1,0,0:0:0:0:
448,192,24519,1,0,0:0:0:0:
320,192,24813,1,0,0:0:0:0:
192,192,25107,1,0,0:0:0:0:
64,192,25401,1,0,0:0:0:0:
448,192,25695,1,0,0:0:0:0:
192,192,25990,1,0,0:0:0:0:
320,192,26284,1,0,0:0:0:0:
448,192,26578,1,0,0:0:0:0:
64,192,26872,1,0,0:0:0:0:
192,192,26872,1,0,0:0:0:0:
320,192,27166,1,0,0:0:0:0:
192,192,27460,1,0,0:0:0:0:
448,192,27754,1,0,0:0:0:0:
320,192,28048,1,0,0:0:0:0:
64,192,28342,1,0,0:0:0:0:
448,192,28637,1,0,0:0:0:0:
320,192,28931,1,0,0:0:0:0:
192,192,29225,128,0,29813:0:0:0:0:
448,192,29225,1,0,0:0:0:0:
320,192,29519,1,0,0:0:0:0:
64,192,29813,128,0,30401:0:0:0:0:
448,192,29813,1,0,0:0:0:0:
320,192,30107,1,0,0:0:0:0:
448,192,30401,1,0,0:0:0:0:
64,192,30695,1,0,0:0:0:0:
320,192,30990,128,0,31578:0:0:0:0:
192,192,30990,1,0,0:0:0:0:
192,192,31284,1,0,0:0:0:0:
64,192,31578,1,0,0:0:0:0:
448,192,31578,1,0,0:0:0:0:
448,192,32166,1,0,0:0:0:0:
192,192,32166,1,0,0:0:0:0:
192,192,32754,1,0,0:0:0:0:
320,192,33342,1,0,0:0:0:0:
448,192,33342,1,0,0:0:0:0:
64,192,33931,1,0,0:0:0:0:
320,192,34519,1,0,0:0:0:0:
192,192,34519,1,0,0:0:0:0:
448,192,35107,1,0,0:0:0:0:
192,192,35695,1,0,0:0:0:0:
64,192,35695,1,0,0:0:0:0:
448,192,36284,1,0,0:0:0:0:
320,192,36872,1,0,0:0:0:0:
64,192,36872,1,0,0:0:0:0:
64,192,37460,1,0,0:0:0:0:
192,192,38048,1,0,0:0:0:0:
320,192,38048,1,0,0:0:0:0:
448,192,38637,1,0,0:0:0:0:
64,192,39225,1,0,0:0:0:0:
320,192,39225,1,0,0:0:0:0:
320,192,39813,1,0,0:0:0:0:
192,192,40401,1,0,0:0:0:0:
448,192,40401,1,0,0:0:0:0:
448,192,40990,1,0,0:0:0:0:
320,192,41578,1,0,0:0:0:0:
64,192,41578,1,0,0:0:0:0:
192,192,42166,1,0,0:0:0:0:
64,192,42754,1,0,0:0:0:0:
448,192,42754,1,0,0:0:0:0:
320,192,43342,1,0,0:0:0:0:
192,192,43931,1,0,0:0:0:0:
448,192,43931,1,0,0:0:0:0:
448,192,44519,1,0,0:0:0:0:
64,192,45107,1,0,0:0:0:0:
192,192,45107,1,0,0:0:0:0:
320,192,45695,1,0,0:0:0:0:
448,192,46284,1,0,0:0:0:0:
64,192,46284,1,0,0:0:0:0:
192,192,46872,1,0,0:0:0:0:
64,192,47460,1,0,0:0:0:0:
320,192,47460,1,0,0:0:0:0:
448,192,48048,1,0,0:0:0:0:
320,192,48637,1,0,0:0:0:0:
192,192,48637,1,0,0:0:0:0:
192,192,49225,1,0,0:0:0:0:
64,192,49813,1,0,0:0:0:0:
320,192,49813,1,0,0:0:0:0:
448,192,50401,128,0,52754:0:0:0:0:
192,192,50401,1,0,0:0:0:0:
320,192,50842,1,0,0:0:0:0:
64,192,50990,1,0,0:0:0:0:
192,192,51284,1,0,0:0:0:0:
64,192,51431,1,0,0:0:0:0:
192,192,51578,1,0,0:0:0:0:
320,192,52019,1,0,0:0:0:0:
64,192,52166,1,0,0:0:0:0:
192,192,52313,1,0,0:0:0:0:
192,192,52754,128,0,55107:0:0:0:0:
320,192,52754,1,0,0:0:0:0:
448,192,53195,1,0,0:0:0:0:
320,192,53342,1,0,0:0:0:0:
64,192,53637,1,0,0:0:0:0:
448,192,53784,1,0,0:0:0:0:
320,192,53931,1,0,0:0:0:0:
448,192,54666,1,0,0:0:0:0:
320,192,55107,128,0,57460:0:0:0:0:
64,192,55107,1,0,0:0:0:0:
192,192,55548,1,0,0:0:0:0:
64,192,55695,1,0,0:0:0:0:
192,192,55990,1,0,0:0:0:0:
448,192,56284,1,0,0:0:0:0:
192,192,56872,1,0,0:0:0:0:
64,192,57019,1,0,0:0:0:0:
448,192,57460,128,0,58048:0:0:0:0:
64,192,57460,1,0,0:0:0:0:
192,192,57901,1,0,0:0:0:0:
64,192,58048,128,0,59813:0:0:0:0:
320,192,58048,1,0,0:0:0:0:
192,192,58342,1,0,0:0:0:0:
448,192,58490,1,0,0:0:0:0:
320,192,59372,1,0,0:0:0:0:
192,192,59813,1,0,0:0:0:0:
320,192,59813,1,0,0:0:0:0:
448,192,60107,1,0,0:0:0:0:
320,192,60401,1,0,0:0:0:0:
64,192,60695,1,0,0:0:0:0:
192,192,60990,1,0,0:0:0:0:
320,192,61284,1,0,0:0:0:0:
448,192,61578,1,0,0:0:0:0:
192,192,61872,1,0,0:0:0:0:
64,192,62166,1,0,0:0:0:0:
320,192,62166,1,0,0:0:0:0:
448,192,62460,1,0,0:0:0:0:
320,192,62754,1,0,0:0:0:0:
64,192,63048,1,0,0:0:0:0:
448,192,63342,1,0,0:0:0:0:
320,192,63637,1,0,0:0:0:0:
192,192,63931,1,0,0:0:0:0:
320,192,64225,1,0,0:0:0:0:
448,192,64519,1,0,0:0:0:0:
192,192,64519,1,0,0:0:0:0:
64,192,64813,1,0,0:0:0:0:
320,192,65107,1,0,0:0:0:0:
448,192,65401,1,0,0:0:0:0:
192,192,65695,1,0,0:0:0:0:
320,192,65990,1,0,0:0:0:0:
64,192,66284,1,0,0:0:0:0:
192,192,66578,1,0,0:0:0:0:
448,192,66872,128,0,67460:0:0:0:0:
64,192,66872,1,0,0:0:0:0:
192,192,67166,1,0,0:0:0:0:
192,192,67460,1,0,0:0:0:0:
320,192,67460,128,0,68048:0:0:0:0:
64,192,67754,1,0,0:0:0:0:
64,192,68048,1,0,0:0:0:0:
64,192,69225,1,0,0:0:0:0:
448,192,69813,1,0,0:0:0:0:
320,192,69813,1,0,0:0:0:0:
192,192,70401,1,0,0:0:0:0:
320,192,70990,1,0,0:0:0:0:
64,192,70990,1,0,0:0:0:0:
64,192,71578,1,0,0:0:0:0:
192,192,72166,1,0,0:0:0:0:
448,192,72166,1,0,0:0:0:0:
448,192,72754,1,0,0:0:0:0:
320,192,73342,1,0,0:0:0:0:
192,192,73342,1,0,0:0:0:0:
64,192,73931,1,0,0:0:0:0:
320,192,74519,1,0,0:0:0:0:
448,192,74519,1,0,0:0:0:0:
192,192,75107,1,0,0:0:0:0:
64,192,75695,1,0,0:0:0:0:
320,192,75695,1,0,0:0:0:0:
320,192,76284,1,0,0:0:0:0:
192,192,76284,1,0,0:0:0:0:
192,192,76872,1,0,0:0:0:0:
448,192,76872,1,0,0:0:0:0:
448,192,77460,1,0,0:0:0:0:
64,192,78048,1,0,0:0:0:0:
320,192,78048,1,0,0:0:0:0:
448,192,78637,1,0,0:0:0:0:
192,192,79225,1,0,0:0:0:0:
64,192,79225,1,0,0:0:0:0:
320,192,79813,1,0,0:0:0:0:
64,192,80401,1,0,0:0:0:0:
448,192,80401,1,0,0:0:0:0:
192,192,80990,1,0,0:0:0:0:
448,192,81578,1,0,0:0:0:0:
320,192,81578,1,0,0:0:0:0:
64,192,82166,1,0,0:0:0:0:
192,192,82754,1,0,0:0:0:0:
448,192,82754,1,0,0:0:0:0:
320,192,83342,1,0,0:0:0:0:
64,192,83931,1,0,0:0:0:0:
192,192,83931,1,0,0:0:0:0:
448,192,84519,1,0,0:0:0:0:
192,192,85107,1,0,0:0:0:0:
320,192,85107,1,0,0:0:0:0:
64,192,85695,1,0,0:0:0:0:
320,192,85990,1,0,0:0:0:0:
448,192,86284,1,0,0:0:0:0:
64,192,86284,1,0,0:0:0:0:
192,192,86578,1,0,0:0:0:0:
320,192,86872,1,0,0:0:0:0:
64,192,87166,1,0,0:0:0:0:
192,192,87460,1,0,0:0:0:0:
448,192,87460,1,0,0:0:0:0:
64,192,88048,128,0,90401:0:0:0:0:
320,192,88048,1,0,0:0:0:0:
320,192,88637,1,0,0:0:0:0:
448,192,89225,1,0,0:0:0:0:
448,192,89813,1,0,0:0:0:0:
320,192,90401,128,0,92754:0:0:0:0:
192,192,90401,1,0,0:0:0:0:
64,192,90990,1,0,0:0:0:0:
64,192,91578,1,0,0:0:0:0:
192,192,92166,1,0,0:0:0:0:
192,192,92754,128,0,95107:0:0:0:0:
448,192,92754,1,0,0:0:0:0:
320,192,93342,1,0,0:0:0:0:
448,192,93931,1,0,0:0:0:0:
448,192,94519,1,0,0:0:0:0:
320,192,94666,1,0,0:0:0:0:
448,192,95107,128,0,97460:0:0:0:0:
64,192,95107,1,0,0:0:0:0:
64,192,95548,1,0,0:0:0:0:
192,192,95990,1,0,0:0:0:0:
192,192,96872,1,0,0:0:0:0:
64,192,96872,1,0,0:0:0:0:
64,192,97460,128,0,98048:0:0:0:0:
192,192,98048,128,0,98637:0:0:0:0:
448,192,98637,128,0,99225:0:0:0:0:
320,192,99225,128,0,99813:0:0:0:0:
64,192,99813,128,0,100401:0:0:0:0:
320,192,100401,128,0,100990:0:0:0:0:
192,192,100990,128,0,101578:0:0:0:0:
448,192,101578,128,0,102166:0:0:0:0:
64,192,102166,128,0,102754:0:0:0:0:
192,192,102754,128,0,103342:0:0:0:0:
320,192,103342,128,0,103931:0:0:0:0:
448,192,103931,128,0,104519:0:0:0:0:
64,192,104519,128,0,105107:0:0:0:0:
448,192,105107,128,0,105695:0:0:0:0:
192,192,105695,128,0,106284:0:0:0:0:
320,192,106284,128,0,106872:0:0:0:0:
64,192,106872,128,0,107460:0:0:0:0:
448,192,106872,1,0,0:0:0:0:
320,192,107166,1,0,0:0:0:0:
192,192,107460,1,0,0:0:0:0:
448,192,107460,1,0,0:0:0:0:
320,192,108048,128,0,108637:0:0:0:0:
192,192,108048,1,0,0:0:0:0:
64,192,108342,1,0,0:0:0:0:
448,192,108637,1,0,0:0:0:0:
64,192,108637,1,0,0:0:0:0:
448,192,109225,128,0,109813:0:0:0:0:
192,192,109225,1,0,0:0:0:0:
64,192,109519,1,0,0:0:0:0:
192,192,109813,1,0,0:0:0:0:
64,192,109813,1,0,0:0:0:0:
192,192,110401,128,0,110990:0:0:0:0:
448,192,110401,1,0,0:0:0:0:
64,192,110695,1,0,0:0:0:0:
448,192,110990,1,0,0:0:0:0:
320,192,110990,1,0,0:0:0:0:
64,192,111578,128,0,112166:0:0:0:0:
320,192,111578,1,0,0:0:0:0:
448,192,111872,1,0,0:0:0:0:
320,192,112166,1,0,0:0:0:0:
448,192,112166,1,0,0:0:0:0:
192,192,112754,128,0,113342:0:0:0:0:
448,192,112754,1,0,0:0:0:0:
64,192,113048,1,0,0:0:0:0:
448,192,113342,1,0,0:0:0:0:
320,192,113342,1,0,0:0:0:0:
320,192,113931,128,0,114519:0:0:0:0:
64,192,113931,1,0,0:0:0:0:
192,192,114225,1,0,0:0:0:0:
448,192,114519,1,0,0:0:0:0:
192,192,114519,1,0,0:0:0:0:
192,192,115107,128,0,115695:0:0:0:0:
320,192,115107,1,0,0:0:0:0:
448,192,115401,1,0,0:0:0:0:
448,192,115695,1,0,0:0:0:0:
64,192,115695,1,0,0:0:0:0:
64,192,116284,128,0,117460:0:0:0:0:
448,192,116284,1,0,0:0:0:0:
320,192,116725,1,0,0:0:0:0:
448,192,116872,1,0,0:0:0:0:
448,192,117460,1,0,0:0:0:0:
320,192,117460,1,0,0:0:0:0:
192,192,117901,1,0,0:0:0:0:
64,192,117901,1,0,0:0:0:0:
320,192,118342,1,0,0:0:0:0:
448,192,118342,1,0,0:0:0:0:
64,192,118637,128,0,118931:0:0:0:0:
448,192,118637,1,0,0:0:0:0:
448,192,119850,1,0,0:0:0:0:
320,192,119850,1,0,0:0:0:0:
192,192,120291,1,0,0:0:0:0:
64,192,120291,1,0,0:0:0:0:
320,192,120695,1,0,0:0:0:0:
448,192,120695,1,0,0:0:0:0:
64,192,120990,1,0,0:0:0:0:
