osu file format v14

[General]
AudioFilename: Jabba the Hutt (PewDiePie Song).mp3
AudioLeadIn: 0
PreviewTime: 30401
Countdown: 0
SampleSet: Normal
StackLeniency: 0.7
Mode: 3
LetterboxInBreaks: 0
SpecialStyle: 0
WidescreenStoryboard: 0

[Editor]
DistanceSpacing: 0.8
BeatDivisor: 4
GridSize: 4
TimelineZoom: 1.9

[Metadata]
Title:Jabba the Hutt
TitleUnicode:Jabba the Hutt
Artist:Schmoyoho
ArtistUnicode:Schmoyoho
Creator:DrawdeX
Version:MX
Source:PewDiePie
Tags:[B l a n k]
BeatmapID:688108
BeatmapSetID:307556

[Difficulty]
HPDrainRate:8
CircleSize:4
OverallDifficulty:8
ApproachRate:5
SliderMultiplier:1.4
SliderTickRate:1

[Events]
//Background and Video events
0,0,"maxresdefault.jpg",0,0
Video,0,"video.wmv"
//Break Periods
//Storyboard Layer 0 (Background)
//Storyboard Layer 1 (Fail)
//Storyboard Layer 2 (Pass)
//Storyboard Layer 3 (Foreground)
//Storyboard Sound Samples

[TimingPoints]
3343,588.235294117647,4,1,1,30,1,0
5695,-66.6666666666667,4,1,1,30,0,0
5769,-142.857142857143,4,1,1,30,0,0
6137,-66.6666666666667,4,1,1,30,0,0
6210,-142.857142857143,4,1,1,30,0,0
6504,-100,4,1,1,30,0,0
7460,-66.6666666666667,4,1,1,30,0,0
7681,-142.857142857143,4,1,1,30,0,0
7754,-100,4,1,1,30,0,0
8048,-66.6666666666667,4,1,1,30,0,0
8122,-142.857142857143,4,1,1,30,0,0
8490,-66.6666666666667,4,1,1,30,0,0
8563,-142.857142857143,4,1,1,30,0,0
8857,-100,4,1,1,30,0,0
9813,-66.6666666666667,4,1,1,30,0,0
10034,-142.857142857143,4,1,1,30,0,0
10107,-100,4,1,1,30,0,0
11578,-200,4,1,1,30,0,0
12460,-125,4,1,1,30,0,0
12754,-100,4,1,1,30,0,0
21578,-66.6666666666667,4,1,1,30,0,0
21872,-142.857142857143,4,1,1,30,0,0
22092,-100,4,1,1,30,0,0
31578,-100,4,1,1,30,0,1
49960,-66.6666666666667,4,1,1,30,0,1
50107,-142.857142857143,4,1,1,30,0,1
50328,-100,4,1,1,30,0,1
50401,-100,4,1,1,30,0,0
68048,-200,4,1,1,30,0,0
68931,-125,4,1,1,30,0,0
69151,-100,4,1,1,30,0,0
88048,-100,4,1,1,30,0,1
96872,-66.6666666666667,4,1,1,30,0,1
97019,-142.857142857143,4,1,1,30,0,1
97387,-100,4,1,1,30,0,1
97460,-100,4,1,1,30,0,0
106578,-66.6666666666667,4,1,1,30,0,0
106798,-142.857142857143,4,1,1,30,0,0
106872,-100,4,1,1,30,0,1
115842,-66.6666666666667,4,1,1,30,0,1
115990,-142.857142857143,4,1,1,30,0,1
116210,-100,4,1,1,30,0,1
116284,-100,4,1,1,30,0,0
118637,-66.6666666666667,4,1,1,30,0,0
118857,-142.857142857143,4,1,1,30,0,0
118931,-100,4,1,1,30,0,0

[HitObjects]
192,192,3343,5,0,0:0:0:0:
448,192,3343,1,0,0:0:0:0:
64,192,3637,1,0,0:0:0:0:
320,192,3784,1,0,0:0:0:0:
448,192,3931,1,0,0:0:0:0:
192,192,4078,1,0,0:0:0:0:
64,192,4078,1,0,0:0:0:0:
64,192,4372,1,0,0:0:0:0:
320,192,4519,1,0,0:0:0:0:
192,192,4519,1,0,0:0:0:0:
448,192,4813,1,0,0:0:0:0:
320,192,4960,1,0,0:0:0:0:
192,192,5107,1,0,0:0:0:0:
64,192,5254,1,0,0:0:0:0:
320,192,5254,1,0,0:0:0:0:
64,192,5695,1,0,0:0:0:0:
192,192,5695,1,0,0:0:0:0:
448,192,5695,1,0,0:0:0:0:
64,192,6137,1,0,0:0:0:0:
192,192,6137,1,0,0:0:0:0:
448,192,6137,1,0,0:0:0:0:
448,192,6578,1,0,0:0:0:0:
320,192,6578,1,0,0:0:0:0:
64,192,6578,1,0,0:0:0:0:
64,192,6872,1,0,0:0:0:0:
448,192,6872,1,0,0:0:0:0:
320,192,7166,1,0,0:0:0:0:
64,192,7313,1,0,0:0:0:0:
192,192,7460,128,0,7754:0:0:0:0:
448,192,7460,128,0,7754:0:0:0:0:
320,192,7460,1,0,0:0:0:0:
448,192,8048,1,0,0:0:0:0:
320,192,8048,1,0,0:0:0:0:
64,192,8048,1,0,0:0:0:0:
64,192,8490,1,0,0:0:0:0:
192,192,8490,1,0,0:0:0:0:
320,192,8490,1,0,0:0:0:0:
448,192,8931,1,0,0:0:0:0:
320,192,8931,1,0,0:0:0:0:
192,192,8931,1,0,0:0:0:0:
64,192,9078,1,0,0:0:0:0:
192,192,9225,1,0,0:0:0:0:
64,192,9225,1,0,0:0:0:0:
448,192,9225,1,0,0:0:0:0:
320,192,9372,1,0,0:0:0:0:
448,192,9519,1,0,0:0:0:0:
320,192,9519,1,0,0:0:0:0:
192,192,9666,1,0,0:0:0:0:
320,192,9813,128,0,10107:0:0:0:0:
64,192,9813,128,0,10107:0:0:0:0:
192,192,9813,1,0,0:0:0:0:
448,192,9960,1,0,0:0:0:0:
448,192,10107,1,0,0:0:0:0:
64,192,10401,1,0,0:0:0:0:
448,192,10401,1,0,0:0:0:0:
320,192,10548,1,0,0:0:0:0:
448,192,10695,1,0,0:0:0:0:
320,192,10843,1,0,0:0:0:0:
192,192,10990,1,0,0:0:0:0:
320,192,11137,1,0,0:0:0:0:
64,192,11137,1,0,0:0:0:0:
192,192,11284,1,0,0:0:0:0:
448,192,11431,1,0,0:0:0:0:
64,192,11578,1,0,0:0:0:0:
320,192,11578,1,0,0:0:0:0:
64,192,12754,128,0,15107:0:0:0:0:
448,192,12754,1,0,0:0:0:0:
192,192,12754,1,0,0:0:0:0:
192,192,13048,1,0,0:0:0:0:
448,192,13195,1,0,0:0:0:0:
320,192,13342,1,0,0:0:0:0:
192,192,13490,1,0,0:0:0:0:
448,192,13490,1,0,0:0:0:0:
448,192,13637,1,0,0:0:0:0:
320,192,13784,1,0,0:0:0:0:
192,192,13931,1,0,0:0:0:0:
448,192,13931,1,0,0:0:0:0:
320,192,14225,1,0,0:0:0:0:
192,192,14225,1,0,0:0:0:0:
320,192,14372,1,0,0:0:0:0:
448,192,14519,1,0,0:0:0:0:
192,192,14519,1,0,0:0:0:0:
320,192,14666,1,0,0:0:0:0:
448,192,14813,1,0,0:0:0:0:
320,192,14813,1,0,0:0:0:0:
320,192,15107,128,0,17460:0:0:0:0:
192,192,15107,1,0,0:0:0:0:
64,192,15401,1,0,0:0:0:0:
192,192,15548,1,0,0:0:0:0:
448,192,15695,1,0,0:0:0:0:
64,192,15842,1,0,0:0:0:0:
448,192,15842,1,0,0:0:0:0:
192,192,15990,1,0,0:0:0:0:
64,192,16137,1,0,0:0:0:0:
64,192,16284,1,0,0:0:0:0:
192,192,16284,1,0,0:0:0:0:
448,192,16578,1,0,0:0:0:0:
64,192,16578,1,0,0:0:0:0:
192,192,16725,1,0,0:0:0:0:
448,192,17019,1,0,0:0:0:0:
64,192,17019,1,0,0:0:0:0:
64,192,17166,1,0,0:0:0:0:
192,192,17460,128,0,19813:0:0:0:0:
448,192,17460,1,0,0:0:0:0:
64,192,17754,1,0,0:0:0:0:
448,192,17901,1,0,0:0:0:0:
320,192,18048,1,0,0:0:0:0:
64,192,18195,1,0,0:0:0:0:
448,192,18195,1,0,0:0:0:0:
448,192,18342,1,0,0:0:0:0:
320,192,18490,1,0,0:0:0:0:
64,192,18637,1,0,0:0:0:0:
448,192,18637,1,0,0:0:0:0:
320,192,18784,1,0,0:0:0:0:
448,192,18931,1,0,0:0:0:0:
64,192,18931,1,0,0:0:0:0:
448,192,19078,1,0,0:0:0:0:
64,192,19225,1,0,0:0:0:0:
320,192,19225,1,0,0:0:0:0:
448,192,19372,1,0,0:0:0:0:
64,192,19519,1,0,0:0:0:0:
320,192,19813,128,0,20401:0:0:0:0:
64,192,19813,1,0,0:0:0:0:
192,192,20107,1,0,0:0:0:0:
64,192,20254,1,0,0:0:0:0:
448,192,20401,128,0,20990:0:0:0:0:
64,192,20401,1,0,0:0:0:0:
192,192,20695,1,0,0:0:0:0:
64,192,20842,1,0,0:0:0:0:
320,192,20990,1,0,0:0:0:0:
192,192,20990,1,0,0:0:0:0:
320,192,21137,1,0,0:0:0:0:
64,192,21284,1,0,0:0:0:0:
448,192,21431,1,0,0:0:0:0:
192,192,21578,128,0,21872:0:0:0:0:
448,192,21578,1,0,0:0:0:0:
320,192,21578,128,0,21872:0:0:0:0:
64,192,21578,1,0,0:0:0:0:
448,192,22166,1,0,0:0:0:0:
320,192,22166,1,0,0:0:0:0:
64,192,22166,1,0,0:0:0:0:
64,192,22460,1,0,0:0:0:0:
320,192,22607,1,0,0:0:0:0:
192,192,22754,1,0,0:0:0:0:
448,192,23048,1,0,0:0:0:0:
64,192,23048,1,0,0:0:0:0:
320,192,23048,1,0,0:0:0:0:
192,192,23195,1,0,0:0:0:0:
64,192,23342,1,0,0:0:0:0:
192,192,23637,1,0,0:0:0:0:
320,192,23784,1,0,0:0:0:0:
64,192,23931,1,0,0:0:0:0:
448,192,24078,1,0,0:0:0:0:
320,192,24225,1,0,0:0:0:0:
448,192,24519,1,0,0:0:0:0:
64,192,24519,1,0,0:0:0:0:
192,192,24519,1,0,0:0:0:0:
320,192,24813,1,0,0:0:0:0:
448,192,24813,1,0,0:0:0:0:
64,192,24960,1,0,0:0:0:0:
192,192,25107,1,0,0:0:0:0:
448,192,25401,1,0,0:0:0:0:
64,192,25401,1,0,0:0:0:0:
320,192,25401,1,0,0:0:0:0:
192,192,25548,1,0,0:0:0:0:
64,192,25695,1,0,0:0:0:0:
320,192,25990,1,0,0:0:0:0:
192,192,25990,1,0,0:0:0:0:
448,192,26137,1,0,0:0:0:0:
192,192,26284,1,0,0:0:0:0:
320,192,26431,1,0,0:0:0:0:
64,192,26578,1,0,0:0:0:0:
192,192,26578,1,0,0:0:0:0:
448,192,26872,1,0,0:0:0:0:
320,192,26872,1,0,0:0:0:0:
64,192,26872,1,0,0:0:0:0:
192,192,27166,1,0,0:0:0:0:
448,192,27313,1,0,0:0:0:0:
320,192,27460,1,0,0:0:0:0:
64,192,27754,1,0,0:0:0:0:
448,192,27754,1,0,0:0:0:0:
192,192,27754,1,0,0:0:0:0:
320,192,27901,1,0,0:0:0:0:
192,192,28048,1,0,0:0:0:0:
448,192,28195,1,0,0:0:0:0:
64,192,28342,1,0,0:0:0:0:
320,192,28490,1,0,0:0:0:0:
64,192,28637,1,0,0:0:0:0:
448,192,28784,1,0,0:0:0:0:
192,192,28931,1,0,0:0:0:0:
320,192,29225,128,0,29813:0:0:0:0:
64,192,29225,1,0,0:0:0:0:
448,192,29225,1,0,0:0:0:0:
192,192,29519,1,0,0:0:0:0:
64,192,29666,1,0,0:0:0:0:
448,192,29813,128,0,30401:0:0:0:0:
64,192,29813,1,0,0:0:0:0:
192,192,30107,1,0,0:0:0:0:
64,192,30254,1,0,0:0:0:0:
64,192,30401,1,0,0:0:0:0:
448,192,30695,128,0,30990:0:0:0:0:
64,192,30695,1,0,0:0:0:0:
192,192,30990,128,0,31578:0:0:0:0:
320,192,30990,1,0,0:0:0:0:
448,192,31137,1,0,0:0:0:0:
64,192,31284,1,0,0:0:0:0:
320,192,31431,1,0,0:0:0:0:
64,192,31578,1,0,0:0:0:0:
448,192,31578,128,0,33931:0:0:0:0:
192,192,32019,1,0,0:0:0:0:
64,192,32166,1,0,0:0:0:0:
192,192,32166,1,0,0:0:0:0:
320,192,32166,1,0,0:0:0:0:
192,192,32607,1,0,0:0:0:0:
320,192,32754,1,0,0:0:0:0:
64,192,32754,1,0,0:0:0:0:
64,192,33195,1,0,0:0:0:0:
64,192,33342,1,0,0:0:0:0:
192,192,33342,128,0,33637:0:0:0:0:
320,192,33342,128,0,33637:0:0:0:0:
320,192,33931,128,0,36284:0:0:0:0:
192,192,33931,128,0,34225:0:0:0:0:
64,192,33931,128,0,34225:0:0:0:0:
448,192,34372,1,0,0:0:0:0:
192,192,34519,1,0,0:0:0:0:
448,192,34519,1,0,0:0:0:0:
64,192,34519,1,0,0:0:0:0:
448,192,34813,128,0,34960:0:0:0:0:
64,192,34813,1,0,0:0:0:0:
64,192,34960,128,0,35107:0:0:0:0:
192,192,34960,1,0,0:0:0:0:
448,192,35107,1,0,0:0:0:0:
192,192,35548,1,0,0:0:0:0:
448,192,35695,1,0,0:0:0:0:
192,192,35695,1,0,0:0:0:0:
64,192,35695,1,0,0:0:0:0:
192,192,36137,1,0,0:0:0:0:
64,192,36284,1,0,0:0:0:0:
448,192,36284,1,0,0:0:0:0:
320,192,36725,1,0,0:0:0:0:
192,192,36872,1,0,0:0:0:0:
448,192,36872,1,0,0:0:0:0:
64,192,36872,1,0,0:0:0:0:
192,192,37313,128,0,37460:0:0:0:0:
320,192,37313,1,0,0:0:0:0:
448,192,37460,1,0,0:0:0:0:
64,192,37460,128,0,37607:0:0:0:0:
320,192,37607,128,0,37754:0:0:0:0:
192,192,37754,128,0,37901:0:0:0:0:
64,192,37754,1,0,0:0:0:0:
448,192,37901,128,0,38048:0:0:0:0:
192,192,38048,1,0,0:0:0:0:
64,192,38048,128,0,38342:0:0:0:0:
320,192,38048,128,0,38342:0:0:0:0:
448,192,38342,128,0,38490:0:0:0:0:
192,192,38490,128,0,38637:0:0:0:0:
320,192,38637,128,0,38784:0:0:0:0:
64,192,38637,128,0,38784:0:0:0:0:
448,192,38637,1,0,0:0:0:0:
448,192,38784,128,0,38931:0:0:0:0:
192,192,38931,128,0,39078:0:0:0:0:
320,192,39078,128,0,39225:0:0:0:0:
448,192,39225,1,0,0:0:0:0:
192,192,39225,1,0,0:0:0:0:
64,192,39225,128,0,39372:0:0:0:0:
320,192,39519,128,0,39666:0:0:0:0:
448,192,39519,128,0,39666:0:0:0:0:
64,192,39666,128,0,39813:0:0:0:0:
192,192,39666,128,0,39813:0:0:0:0:
448,192,39813,128,0,39960:0:0:0:0:
320,192,39813,1,0,0:0:0:0:
64,192,39960,128,0,40107:0:0:0:0:
320,192,40107,128,0,40254:0:0:0:0:
448,192,40107,128,0,40401:0:0:0:0:
192,192,40254,128,0,40401:0:0:0:0:
320,192,40401,128,0,40548:0:0:0:0:
64,192,40401,128,0,40695:0:0:0:0:
192,192,40548,128,0,40695:0:0:0:0:
448,192,40695,128,0,40842:0:0:0:0:
64,192,40842,128,0,40990:0:0:0:0:
192,192,40990,1,0,0:0:0:0:
320,192,40990,1,0,0:0:0:0:
192,192,41431,1,0,0:0:0:0:
448,192,41578,1,0,0:0:0:0:
64,192,41578,1,0,0:0:0:0:
320,192,41578,1,0,0:0:0:0:
64,192,41872,128,0,42019:0:0:0:0:
320,192,41872,1,0,0:0:0:0:
448,192,42019,128,0,42166:0:0:0:0:
64,192,42166,1,0,0:0:0:0:
320,192,42166,128,0,42313:0:0:0:0:
192,192,42313,128,0,42460:0:0:0:0:
448,192,42460,1,0,0:0:0:0:
64,192,42460,128,0,42607:0:0:0:0:
320,192,42607,128,0,42754:0:0:0:0:
64,192,42754,1,0,0:0:0:0:
192,192,42754,128,0,43048:0:0:0:0:
448,192,42754,128,0,43048:0:0:0:0:
192,192,43195,128,0,43342:0:0:0:0:
64,192,43342,128,0,43637:0:0:0:0:
320,192,43342,128,0,43637:0:0:0:0:
448,192,43342,1,0,0:0:0:0:
448,192,43784,128,0,43931:0:0:0:0:
320,192,43931,1,0,0:0:0:0:
64,192,43931,1,0,0:0:0:0:
192,192,43931,1,0,0:0:0:0:
448,192,44225,128,0,44372:0:0:0:0:
192,192,44225,128,0,44372:0:0:0:0:
64,192,44225,1,0,0:0:0:0:
64,192,44372,128,0,44519:0:0:0:0:
320,192,44372,128,0,44519:0:0:0:0:
448,192,44519,128,0,44666:0:0:0:0:
192,192,44666,128,0,44813:0:0:0:0:
320,192,44813,128,0,44960:0:0:0:0:
64,192,44960,128,0,45107:0:0:0:0:
448,192,45107,1,0,0:0:0:0:
320,192,45107,1,0,0:0:0:0:
192,192,45107,128,0,45254:0:0:0:0:
448,192,45254,128,0,45401:0:0:0:0:
64,192,45401,128,0,45548:0:0:0:0:
320,192,45548,128,0,45695:0:0:0:0:
192,192,45695,1,0,0:0:0:0:
448,192,45695,1,0,0:0:0:0:
192,192,46137,1,0,0:0:0:0:
64,192,46284,1,0,0:0:0:0:
448,192,46284,1,0,0:0:0:0:
320,192,46284,1,0,0:0:0:0:
192,192,46578,128,0,46725:0:0:0:0:
448,192,46725,128,0,46872:0:0:0:0:
320,192,46872,1,0,0:0:0:0:
64,192,46872,128,0,47019:0:0:0:0:
192,192,47019,128,0,47166:0:0:0:0:
448,192,47166,128,0,47313:0:0:0:0:
64,192,47166,1,0,0:0:0:0:
320,192,47313,128,0,47460:0:0:0:0:
192,192,47460,128,0,47607:0:0:0:0:
64,192,47460,128,0,47901:0:0:0:0:
448,192,47460,128,0,47901:0:0:0:0:
320,192,47607,128,0,47754:0:0:0:0:
192,192,47754,128,0,47901:0:0:0:0:
320,192,47901,128,0,48048:0:0:0:0:
64,192,48048,1,0,0:0:0:0:
192,192,48048,128,0,48342:0:0:0:0:
448,192,48048,128,0,48342:0:0:0:0:
64,192,48195,128,0,48342:0:0:0:0:
320,192,48342,128,0,48490:0:0:0:0:
64,192,48490,128,0,48637:0:0:0:0:
192,192,48637,1,0,0:0:0:0:
320,192,48637,1,0,0:0:0:0:
448,192,48637,128,0,48784:0:0:0:0:
64,192,48784,128,0,48931:0:0:0:0:
320,192,48931,128,0,49078:0:0:0:0:
448,192,48931,128,0,49078:0:0:0:0:
192,192,49078,128,0,49225:0:0:0:0:
64,192,49078,128,0,49225:0:0:0:0:
448,192,49225,128,0,49372:0:0:0:0:
320,192,49225,1,0,0:0:0:0:
64,192,49372,128,0,49519:0:0:0:0:
320,192,49519,128,0,49666:0:0:0:0:
192,192,49666,128,0,49813:0:0:0:0:
448,192,49813,1,0,0:0:0:0:
64,192,49813,1,0,0:0:0:0:
320,192,49813,128,0,49960:0:0:0:0:
448,192,49960,128,0,50107:0:0:0:0:
64,192,50401,128,0,52754:0:0:0:0:
320,192,50401,1,0,0:0:0:0:
448,192,50401,1,0,0:0:0:0:
192,192,50695,1,0,0:0:0:0:
448,192,50842,1,0,0:0:0:0:
192,192,50990,1,0,0:0:0:0:
320,192,51284,1,0,0:0:0:0:
448,192,51431,1,0,0:0:0:0:
192,192,51578,1,0,0:0:0:0:
320,192,51872,1,0,0:0:0:0:
448,192,52019,1,0,0:0:0:0:
192,192,52166,1,0,0:0:0:0:
448,192,52313,1,0,0:0:0:0:
320,192,52460,1,0,0:0:0:0:
320,192,52754,128,0,55107:0:0:0:0:
192,192,52754,1,0,0:0:0:0:
448,192,52754,1,0,0:0:0:0:
64,192,52901,1,0,0:0:0:0:
192,192,53048,1,0,0:0:0:0:
448,192,53195,1,0,0:0:0:0:
64,192,53342,1,0,0:0:0:0:
192,192,53490,1,0,0:0:0:0:
448,192,53637,1,0,0:0:0:0:
64,192,53784,1,0,0:0:0:0:
192,192,53931,1,0,0:0:0:0:
448,192,53931,1,0,0:0:0:0:
64,192,54225,1,0,0:0:0:0:
192,192,54372,1,0,0:0:0:0:
448,192,54519,1,0,0:0:0:0:
64,192,54666,1,0,0:0:0:0:
192,192,55107,128,0,57460:0:0:0:0:
448,192,55107,1,0,0:0:0:0:
64,192,55107,1,0,0:0:0:0:
448,192,55254,1,0,0:0:0:0:
64,192,55401,1,0,0:0:0:0:
320,192,55548,1,0,0:0:0:0:
64,192,55695,1,0,0:0:0:0:
320,192,55990,1,0,0:0:0:0:
448,192,56137,1,0,0:0:0:0:
64,192,56284,1,0,0:0:0:0:
320,192,56284,1,0,0:0:0:0:
448,192,56431,1,0,0:0:0:0:
320,192,56578,1,0,0:0:0:0:
64,192,56725,1,0,0:0:0:0:
320,192,56872,1,0,0:0:0:0:
448,192,57019,1,0,0:0:0:0:
64,192,57166,1,0,0:0:0:0:
64,192,57460,128,0,58048:0:0:0:0:
448,192,57460,1,0,0:0:0:0:
320,192,57460,1,0,0:0:0:0:
320,192,57754,1,0,0:0:0:0:
192,192,57901,1,0,0:0:0:0:
448,192,58048,128,0,59813:0:0:0:0:
192,192,58048,1,0,0:0:0:0:
320,192,58048,1,0,0:0:0:0:
192,192,58342,1,0,0:0:0:0:
64,192,58490,1,0,0:0:0:0:
64,192,58637,1,0,0:0:0:0:
320,192,58784,1,0,0:0:0:0:
192,192,58931,1,0,0:0:0:0:
64,192,59078,1,0,0:0:0:0:
192,192,59225,1,0,0:0:0:0:
320,192,59372,1,0,0:0:0:0:
64,192,59519,1,0,0:0:0:0:
320,192,59813,1,0,0:0:0:0:
192,192,59813,1,0,0:0:0:0:
64,192,59813,1,0,0:0:0:0:
320,192,59960,1,0,0:0:0:0:
64,192,60107,1,0,0:0:0:0:
448,192,60254,1,0,0:0:0:0:
192,192,60254,1,0,0:0:0:0:
192,192,60401,1,0,0:0:0:0:
320,192,60548,1,0,0:0:0:0:
448,192,60695,1,0,0:0:0:0:
64,192,60695,1,0,0:0:0:0:
64,192,60842,1,0,0:0:0:0:
320,192,60990,1,0,0:0:0:0:
448,192,61137,1,0,0:0:0:0:
192,192,61284,1,0,0:0:0:0:
448,192,61284,1,0,0:0:0:0:
320,192,61431,1,0,0:0:0:0:
64,192,61578,1,0,0:0:0:0:
448,192,61725,1,0,0:0:0:0:
64,192,61725,1,0,0:0:0:0:
320,192,61872,1,0,0:0:0:0:
192,192,62019,1,0,0:0:0:0:
448,192,62166,1,0,0:0:0:0:
64,192,62166,1,0,0:0:0:0:
320,192,62166,1,0,0:0:0:0:
448,192,62313,1,0,0:0:0:0:
64,192,62460,1,0,0:0:0:0:
320,192,62607,1,0,0:0:0:0:
448,192,62607,1,0,0:0:0:0:
192,192,62754,1,0,0:0:0:0:
64,192,62901,1,0,0:0:0:0:
448,192,63048,1,0,0:0:0:0:
192,192,63048,1,0,0:0:0:0:
192,192,63195,1,0,0:0:0:0:
64,192,63342,1,0,0:0:0:0:
320,192,63490,1,0,0:0:0:0:
192,192,63637,1,0,0:0:0:0:
448,192,63784,1,0,0:0:0:0:
320,192,63931,1,0,0:0:0:0:
64,192,64078,1,0,0:0:0:0:
448,192,64078,1,0,0:0:0:0:
192,192,64225,1,0,0:0:0:0:
448,192,64372,1,0,0:0:0:0:
64,192,64519,1,0,0:0:0:0:
320,192,64519,1,0,0:0:0:0:
192,192,64519,1,0,0:0:0:0:
192,192,64666,1,0,0:0:0:0:
448,192,64813,1,0,0:0:0:0:
320,192,64960,1,0,0:0:0:0:
192,192,64960,1,0,0:0:0:0:
192,192,65107,1,0,0:0:0:0:
448,192,65254,1,0,0:0:0:0:
64,192,65401,1,0,0:0:0:0:
320,192,65401,1,0,0:0:0:0:
192,192,65548,1,0,0:0:0:0:
320,192,65695,1,0,0:0:0:0:
448,192,65842,1,0,0:0:0:0:
64,192,65842,1,0,0:0:0:0:
192,192,65990,1,0,0:0:0:0:
64,192,66137,1,0,0:0:0:0:
448,192,66284,1,0,0:0:0:0:
192,192,66431,1,0,0:0:0:0:
320,192,66431,1,0,0:0:0:0:
320,192,66578,1,0,0:0:0:0:
64,192,66725,1,0,0:0:0:0:
64,192,66872,128,0,67460:0:0:0:0:
448,192,66872,1,0,0:0:0:0:
192,192,66872,1,0,0:0:0:0:
320,192,67166,1,0,0:0:0:0:
448,192,67313,1,0,0:0:0:0:
192,192,67460,128,0,68048:0:0:0:0:
448,192,67460,1,0,0:0:0:0:
320,192,67754,1,0,0:0:0:0:
448,192,67901,1,0,0:0:0:0:
448,192,68048,1,0,0:0:0:0:
64,192,69225,1,0,0:0:0:0:
192,192,69225,1,0,0:0:0:0:
448,192,69225,128,0,69372:0:0:0:0:
320,192,69372,128,0,69519:0:0:0:0:
448,192,69519,1,0,0:0:0:0:
64,192,69519,128,0,69666:0:0:0:0:
192,192,69666,128,0,69813:0:0:0:0:
64,192,69813,1,0,0:0:0:0:
320,192,69813,1,0,0:0:0:0:
448,192,69813,1,0,0:0:0:0:
64,192,70107,128,0,70254:0:0:0:0:
320,192,70254,128,0,70401:0:0:0:0:
448,192,70401,1,0,0:0:0:0:
192,192,70401,128,0,70548:0:0:0:0:
448,192,70548,128,0,70695:0:0:0:0:
320,192,70695,1,0,0:0:0:0:
192,192,70695,128,0,70842:0:0:0:0:
64,192,70842,128,0,70990:0:0:0:0:
192,192,70990,1,0,0:0:0:0:
448,192,70990,1,0,0:0:0:0:
320,192,70990,1,0,0:0:0:0:
448,192,71284,1,0,0:0:0:0:
448,192,71431,1,0,0:0:0:0:
320,192,71578,1,0,0:0:0:0:
64,192,71578,128,0,71725:0:0:0:0:
192,192,71725,128,0,71872:0:0:0:0:
448,192,71872,1,0,0:0:0:0:
320,192,71872,128,0,72019:0:0:0:0:
192,192,72019,128,0,72166:0:0:0:0:
64,192,72166,1,0,0:0:0:0:
320,192,72166,1,0,0:0:0:0:
448,192,72166,1,0,0:0:0:0:
64,192,72460,128,0,72607:0:0:0:0:
320,192,72607,128,0,72754:0:0:0:0:
448,192,72754,1,0,0:0:0:0:
192,192,72754,128,0,72901:0:0:0:0:
448,192,72901,128,0,73048:0:0:0:0:
192,192,73048,128,0,73195:0:0:0:0:
320,192,73048,1,0,0:0:0:0:
64,192,73195,128,0,73342:0:0:0:0:
192,192,73342,1,0,0:0:0:0:
320,192,73342,1,0,0:0:0:0:
448,192,73342,1,0,0:0:0:0:
448,192,73637,1,0,0:0:0:0:
448,192,73784,1,0,0:0:0:0:
192,192,73931,1,0,0:0:0:0:
64,192,73931,128,0,74078:0:0:0:0:
448,192,74078,128,0,74225:0:0:0:0:
320,192,74225,1,0,0:0:0:0:
192,192,74225,128,0,74372:0:0:0:0:
320,192,74372,128,0,74519:0:0:0:0:
192,192,74519,1,0,0:0:0:0:
448,192,74519,1,0,0:0:0:0:
64,192,74519,1,0,0:0:0:0:
448,192,74813,128,0,74960:0:0:0:0:
192,192,74960,1,0,0:0:0:0:
320,192,74960,128,0,75107:0:0:0:0:
64,192,75107,128,0,75254:0:0:0:0:
448,192,75107,1,0,0:0:0:0:
192,192,75254,128,0,75401:0:0:0:0:
448,192,75401,128,0,75548:0:0:0:0:
64,192,75401,1,0,0:0:0:0:
320,192,75548,128,0,75695:0:0:0:0:
192,192,75695,1,0,0:0:0:0:
64,192,75695,1,0,0:0:0:0:
448,192,75695,1,0,0:0:0:0:
64,192,75990,1,0,0:0:0:0:
64,192,76137,1,0,0:0:0:0:
448,192,76284,128,0,76725:0:0:0:0:
192,192,76284,128,0,76872:0:0:0:0:
320,192,76284,1,0,0:0:0:0:
64,192,76578,1,0,0:0:0:0:
64,192,76725,1,0,0:0:0:0:
64,192,76872,128,0,77460:0:0:0:0:
320,192,76872,128,0,77313:0:0:0:0:
448,192,76872,1,0,0:0:0:0:
192,192,77166,1,0,0:0:0:0:
192,192,77313,1,0,0:0:0:0:
448,192,77460,128,0,78048:0:0:0:0:
192,192,77460,128,0,77901:0:0:0:0:
320,192,77460,1,0,0:0:0:0:
320,192,77754,1,0,0:0:0:0:
320,192,77901,1,0,0:0:0:0:
64,192,78048,128,0,78342:0:0:0:0:
320,192,78048,128,0,78342:0:0:0:0:
192,192,78048,1,0,0:0:0:0:
448,192,78342,1,0,0:0:0:0:
320,192,78490,1,0,0:0:0:0:
320,192,78637,1,0,0:0:0:0:
448,192,78637,1,0,0:0:0:0:
64,192,78637,128,0,78784:0:0:0:0:
192,192,78784,128,0,78931:0:0:0:0:
64,192,78931,1,0,0:0:0:0:
448,192,78931,128,0,79078:0:0:0:0:
320,192,79078,128,0,79225:0:0:0:0:
448,192,79225,1,0,0:0:0:0:
64,192,79225,1,0,0:0:0:0:
192,192,79225,1,0,0:0:0:0:
448,192,79519,128,0,79666:0:0:0:0:
192,192,79666,128,0,79813:0:0:0:0:
320,192,79813,128,0,79960:0:0:0:0:
64,192,79813,1,0,0:0:0:0:
64,192,79960,128,0,80107:0:0:0:0:
320,192,80107,128,0,80254:0:0:0:0:
192,192,80107,1,0,0:0:0:0:
448,192,80254,128,0,80401:0:0:0:0:
192,192,80401,1,0,0:0:0:0:
320,192,80401,1,0,0:0:0:0:
64,192,80401,1,0,0:0:0:0:
64,192,80695,1,0,0:0:0:0:
64,192,80842,1,0,0:0:0:0:
448,192,80990,128,0,81137:0:0:0:0:
192,192,80990,1,0,0:0:0:0:
320,192,81137,128,0,81284:0:0:0:0:
64,192,81284,1,0,0:0:0:0:
192,192,81284,128,0,81431:0:0:0:0:
320,192,81431,128,0,81578:0:0:0:0:
192,192,81578,1,0,0:0:0:0:
64,192,81578,1,0,0:0:0:0:
448,192,81578,1,0,0:0:0:0:
448,192,81872,128,0,82019:0:0:0:0:
192,192,82019,128,0,82166:0:0:0:0:
320,192,82166,128,0,82313:0:0:0:0:
64,192,82166,1,0,0:0:0:0:
64,192,82313,128,0,82460:0:0:0:0:
320,192,82460,128,0,82607:0:0:0:0:
192,192,82460,1,0,0:0:0:0:
448,192,82607,128,0,82754:0:0:0:0:
64,192,82754,1,0,0:0:0:0:
320,192,82754,1,0,0:0:0:0:
192,192,82754,1,0,0:0:0:0:
64,192,83048,1,0,0:0:0:0:
64,192,83195,1,0,0:0:0:0:
320,192,83342,1,0,0:0:0:0:
448,192,83342,128,0,83490:0:0:0:0:
64,192,83490,128,0,83637:0:0:0:0:
320,192,83637,128,0,83784:0:0:0:0:
192,192,83637,1,0,0:0:0:0:
192,192,83784,128,0,83931:0:0:0:0:
448,192,83931,1,0,0:0:0:0:
320,192,83931,1,0,0:0:0:0:
64,192,83931,1,0,0:0:0:0:
64,192,84225,128,0,84372:0:0:0:0:
320,192,84372,1,0,0:0:0:0:
192,192,84372,128,0,84519:0:0:0:0:
64,192,84519,1,0,0:0:0:0:
448,192,84519,128,0,84666:0:0:0:0:
320,192,84666,128,0,84813:0:0:0:0:
64,192,84813,128,0,84960:0:0:0:0:
192,192,84960,128,0,85107:0:0:0:0:
64,192,85107,1,0,0:0:0:0:
448,192,85107,1,0,0:0:0:0:
320,192,85107,1,0,0:0:0:0:
448,192,85401,1,0,0:0:0:0:
448,192,85548,1,0,0:0:0:0:
64,192,85695,128,0,86137:0:0:0:0:
320,192,85695,128,0,86284:0:0:0:0:
192,192,85695,1,0,0:0:0:0:
448,192,85990,1,0,0:0:0:0:
448,192,86137,1,0,0:0:0:0:
192,192,86284,128,0,86725:0:0:0:0:
448,192,86284,128,0,86872:0:0:0:0:
64,192,86284,1,0,0:0:0:0:
320,192,86578,1,0,0:0:0:0:
320,192,86725,1,0,0:0:0:0:
320,192,86872,128,0,87313:0:0:0:0:
192,192,86872,1,0,0:0:0:0:
64,192,86872,128,0,87460:0:0:0:0:
192,192,87166,1,0,0:0:0:0:
192,192,87313,1,0,0:0:0:0:
448,192,87460,128,0,87754:0:0:0:0:
192,192,87460,128,0,87754:0:0:0:0:
320,192,87460,1,0,0:0:0:0:
64,192,87754,1,0,0:0:0:0:
320,192,87901,1,0,0:0:0:0:
320,192,88048,1,0,0:0:0:0:
448,192,88048,128,0,88195:0:0:0:0:
64,192,88048,128,0,88195:0:0:0:0:
64,192,88342,1,0,0:0:0:0:
448,192,88342,1,0,0:0:0:0:
192,192,88490,128,0,88637:0:0:0:0:
320,192,88490,128,0,88637:0:0:0:0:
448,192,88637,1,0,0:0:0:0:
192,192,88784,128,0,88931:0:0:0:0:
320,192,88784,128,0,88931:0:0:0:0:
192,192,89078,128,0,89225:0:0:0:0:
320,192,89078,128,0,89225:0:0:0:0:
448,192,89078,1,0,0:0:0:0:
64,192,89225,1,0,0:0:0:0:
64,192,89372,1,0,0:0:0:0:
448,192,89372,1,0,0:0:0:0:
192,192,89519,128,0,89666:0:0:0:0:
320,192,89519,128,0,89666:0:0:0:0:
64,192,89666,128,0,89813:0:0:0:0:
448,192,89813,128,0,89960:0:0:0:0:
192,192,89813,1,0,0:0:0:0:
192,192,89960,128,0,90107:0:0:0:0:
320,192,90107,128,0,90254:0:0:0:0:
64,192,90254,128,0,90401:0:0:0:0:
320,192,90401,128,0,90548:0:0:0:0:
448,192,90401,128,0,90548:0:0:0:0:
192,192,90401,1,0,0:0:0:0:
448,192,90695,1,0,0:0:0:0:
64,192,90695,1,0,0:0:0:0:
320,192,90842,128,0,90990:0:0:0:0:
448,192,90842,128,0,90990:0:0:0:0:
192,192,90842,1,0,0:0:0:0:
64,192,90990,1,0,0:0:0:0:
320,192,91137,128,0,91284:0:0:0:0:
448,192,91137,128,0,91284:0:0:0:0:
320,192,91431,128,0,91578:0:0:0:0:
448,192,91431,128,0,91578:0:0:0:0:
64,192,91431,1,0,0:0:0:0:
64,192,91578,1,0,0:0:0:0:
192,192,91725,1,0,0:0:0:0:
320,192,91725,1,0,0:0:0:0:
320,192,91872,128,0,92019:0:0:0:0:
448,192,91872,128,0,92019:0:0:0:0:
64,192,91872,1,0,0:0:0:0:
64,192,92019,1,0,0:0:0:0:
192,192,92166,1,0,0:0:0:0:
448,192,92166,1,0,0:0:0:0:
320,192,92313,128,0,92460:0:0:0:0:
448,192,92313,128,0,92460:0:0:0:0:
64,192,92460,1,0,0:0:0:0:
192,192,92607,1,0,0:0:0:0:
320,192,92607,1,0,0:0:0:0:
448,192,92754,1,0,0:0:0:0:
64,192,92754,1,0,0:0:0:0:
192,192,92754,1,0,0:0:0:0:
64,192,92975,1,0,0:0:0:0:
192,192,92975,1,0,0:0:0:0:
320,192,93048,1,0,0:0:0:0:
448,192,93195,1,0,0:0:0:0:
192,192,93195,1,0,0:0:0:0:
64,192,93195,1,0,0:0:0:0:
320,192,93342,1,0,0:0:0:0:
448,192,93342,1,0,0:0:0:0:
64,192,93637,128,0,93784:0:0:0:0:
320,192,93637,1,0,0:0:0:0:
448,192,93784,128,0,93931:0:0:0:0:
192,192,93784,1,0,0:0:0:0:
320,192,93931,1,0,0:0:0:0:
64,192,93931,1,0,0:0:0:0:
192,192,93931,1,0,0:0:0:0:
192,192,94151,1,0,0:0:0:0:
64,192,94151,1,0,0:0:0:0:
448,192,94225,1,0,0:0:0:0:
320,192,94372,1,0,0:0:0:0:
64,192,94372,1,0,0:0:0:0:
192,192,94372,1,0,0:0:0:0:
64,192,94519,1,0,0:0:0:0:
320,192,94519,1,0,0:0:0:0:
448,192,94519,1,0,0:0:0:0:
192,192,94666,1,0,0:0:0:0:
320,192,94666,1,0,0:0:0:0:
64,192,94813,128,0,94960:0:0:0:0:
320,192,94813,1,0,0:0:0:0:
448,192,94960,128,0,95107:0:0:0:0:
192,192,94960,1,0,0:0:0:0:
192,192,95107,1,0,0:0:0:0:
64,192,95107,1,0,0:0:0:0:
320,192,95107,1,0,0:0:0:0:
320,192,95254,128,0,95401:0:0:0:0:
64,192,95254,128,0,95401:0:0:0:0:
448,192,95401,1,0,0:0:0:0:
64,192,95548,128,0,95695:0:0:0:0:
320,192,95548,128,0,95695:0:0:0:0:
192,192,95548,1,0,0:0:0:0:
448,192,95695,1,0,0:0:0:0:
64,192,95842,128,0,95990:0:0:0:0:
320,192,95842,128,0,95990:0:0:0:0:
448,192,95990,1,0,0:0:0:0:
192,192,96137,128,0,96284:0:0:0:0:
448,192,96137,128,0,96284:0:0:0:0:
320,192,96137,1,0,0:0:0:0:
320,192,96431,1,0,0:0:0:0:
448,192,96431,1,0,0:0:0:0:
192,192,96578,128,0,96725:0:0:0:0:
448,192,96578,128,0,96725:0:0:0:0:
64,192,96872,128,0,97019:0:0:0:0:
320,192,96872,128,0,97019:0:0:0:0:
448,192,96872,1,0,0:0:0:0:
192,192,96872,1,0,0:0:0:0:
448,192,97460,128,0,98048:0:0:0:0:
64,192,97460,1,0,0:0:0:0:
192,192,97754,1,0,0:0:0:0:
320,192,98048,128,0,98637:0:0:0:0:
192,192,98048,1,0,0:0:0:0:
64,192,98342,1,0,0:0:0:0:
64,192,98637,128,0,99225:0:0:0:0:
448,192,98637,1,0,0:0:0:0:
448,192,98931,1,0,0:0:0:0:
192,192,99225,128,0,99813:0:0:0:0:
320,192,99225,128,0,99519:0:0:0:0:
448,192,99519,128,0,99666:0:0:0:0:
320,192,99666,128,0,99813:0:0:0:0:
448,192,99813,128,0,100401:0:0:0:0:
64,192,99813,128,0,100107:0:0:0:0:
320,192,100107,1,0,0:0:0:0:
192,192,100401,128,0,100990:0:0:0:0:
320,192,100401,1,0,0:0:0:0:
320,192,100695,128,0,100842:0:0:0:0:
64,192,100695,1,0,0:0:0:0:
448,192,100842,128,0,100990:0:0:0:0:
320,192,100990,128,0,101578:0:0:0:0:
64,192,100990,1,0,0:0:0:0:
448,192,101284,1,0,0:0:0:0:
64,192,101578,128,0,102166:0:0:0:0:
448,192,101578,1,0,0:0:0:0:
320,192,101872,128,0,102019:0:0:0:0:
192,192,102019,128,0,102166:0:0:0:0:
448,192,102166,128,0,102754:0:0:0:0:
320,192,102166,1,0,0:0:0:0:
192,192,102460,1,0,0:0:0:0:
320,192,102754,128,0,103342:0:0:0:0:
192,192,102754,1,0,0:0:0:0:
64,192,103048,1,0,0:0:0:0:
448,192,103048,128,0,103342:0:0:0:0:
192,192,103342,128,0,103931:0:0:0:0:
64,192,103342,1,0,0:0:0:0:
448,192,103637,1,0,0:0:0:0:
64,192,103931,128,0,104519:0:0:0:0:
448,192,103931,128,0,104225:0:0:0:0:
320,192,104225,128,0,104372:0:0:0:0:
192,192,104372,128,0,104519:0:0:0:0:
448,192,104519,128,0,105107:0:0:0:0:
320,192,104519,128,0,104813:0:0:0:0:
192,192,104813,1,0,0:0:0:0:
64,192,105107,128,0,105695:0:0:0:0:
192,192,105107,1,0,0:0:0:0:
448,192,105401,1,0,0:0:0:0:
320,192,105401,128,0,105548:0:0:0:0:
192,192,105548,128,0,105695:0:0:0:0:
320,192,105695,128,0,106284:0:0:0:0:
448,192,105695,1,0,0:0:0:0:
64,192,105990,1,0,0:0:0:0:
64,192,106284,128,0,106872:0:0:0:0:
192,192,106284,1,0,0:0:0:0:
448,192,106431,128,0,106872:0:0:0:0:
320,192,106872,1,0,0:0:0:0:
192,192,106872,1,0,0:0:0:0:
320,192,107313,1,0,0:0:0:0:
192,192,107460,1,0,0:0:0:0:
64,192,107460,1,0,0:0:0:0:
448,192,107460,1,0,0:0:0:0:
192,192,107754,1,0,0:0:0:0:
448,192,107754,128,0,107901:0:0:0:0:
64,192,107901,128,0,108048:0:0:0:0:
192,192,108048,128,0,108195:0:0:0:0:
320,192,108048,1,0,0:0:0:0:
448,192,108195,128,0,108342:0:0:0:0:
320,192,108342,128,0,108490:0:0:0:0:
64,192,108342,1,0,0:0:0:0:
192,192,108490,128,0,108637:0:0:0:0:
320,192,108637,128,0,108931:0:0:0:0:
448,192,108637,1,0,0:0:0:0:
64,192,108637,128,0,108931:0:0:0:0:
320,192,109078,128,0,109225:0:0:0:0:
64,192,109225,1,0,0:0:0:0:
448,192,109225,128,0,109519:0:0:0:0:
192,192,109225,128,0,109519:0:0:0:0:
64,192,109666,128,0,109813:0:0:0:0:
320,192,109666,1,0,0:0:0:0:
448,192,109813,1,0,0:0:0:0:
320,192,109813,1,0,0:0:0:0:
192,192,109813,1,0,0:0:0:0:
320,192,110107,128,0,110254:0:0:0:0:
448,192,110107,1,0,0:0:0:0:
64,192,110107,128,0,110254:0:0:0:0:
448,192,110254,128,0,110401:0:0:0:0:
192,192,110254,128,0,110401:0:0:0:0:
64,192,110401,128,0,110548:0:0:0:0:
320,192,110401,1,0,0:0:0:0:
320,192,110548,128,0,110695:0:0:0:0:
192,192,110695,128,0,110842:0:0:0:0:
448,192,110842,128,0,110990:0:0:0:0:
64,192,110990,1,0,0:0:0:0:
320,192,110990,128,0,111137:0:0:0:0:
192,192,110990,1,0,0:0:0:0:
64,192,111137,128,0,111284:0:0:0:0:
448,192,111284,128,0,111431:0:0:0:0:
192,192,111431,128,0,111578:0:0:0:0:
320,192,111578,1,0,0:0:0:0:
64,192,111578,1,0,0:0:0:0:
320,192,112019,1,0,0:0:0:0:
64,192,112166,1,0,0:0:0:0:
448,192,112166,1,0,0:0:0:0:
192,192,112166,1,0,0:0:0:0:
320,192,112460,128,0,112607:0:0:0:0:
64,192,112607,128,0,112754:0:0:0:0:
192,192,112754,1,0,0:0:0:0:
448,192,112754,128,0,112901:0:0:0:0:
320,192,112901,128,0,113048:0:0:0:0:
64,192,113048,128,0,113195:0:0:0:0:
448,192,113048,1,0,0:0:0:0:
192,192,113195,128,0,113342:0:0:0:0:
320,192,113342,128,0,113490:0:0:0:0:
448,192,113342,128,0,113784:0:0:0:0:
64,192,113342,128,0,113784:0:0:0:0:
192,192,113490,128,0,113637:0:0:0:0:
320,192,113637,128,0,113784:0:0:0:0:
192,192,113784,128,0,113931:0:0:0:0:
320,192,113931,128,0,114225:0:0:0:0:
448,192,113931,1,0,0:0:0:0:
64,192,113931,128,0,114225:0:0:0:0:
448,192,114078,128,0,114225:0:0:0:0:
192,192,114225,128,0,114372:0:0:0:0:
448,192,114372,128,0,114519:0:0:0:0:
64,192,114519,1,0,0:0:0:0:
192,192,114519,1,0,0:0:0:0:
320,192,114519,128,0,114666:0:0:0:0:
64,192,114666,128,0,114813:0:0:0:0:
448,192,114813,128,0,114960:0:0:0:0:
320,192,114813,128,0,114960:0:0:0:0:
192,192,114960,128,0,115107:0:0:0:0:
64,192,114960,128,0,115107:0:0:0:0:
448,192,115107,1,0,0:0:0:0:
320,192,115107,128,0,115254:0:0:0:0:
448,192,115254,128,0,115401:0:0:0:0:
192,192,115401,128,0,115548:0:0:0:0:
320,192,115548,128,0,115695:0:0:0:0:
448,192,115695,1,0,0:0:0:0:
64,192,115695,1,0,0:0:0:0:
192,192,115695,128,0,115842:0:0:0:0:
448,192,115842,128,0,115990:0:0:0:0:
448,192,116284,128,0,120990:0:0:0:0:
64,192,116284,1,0,0:0:0:0:
192,192,116725,5,0,0:0:0:0:
64,192,116872,1,0,0:0:0:0:
320,192,116872,1,0,0:0:0:0:
192,192,117019,1,0,0:0:0:0:
64,192,117460,1,0,0:0:0:0:
192,192,117460,1,0,0:0:0:0:
320,192,117460,1,0,0:0:0:0:
320,192,117901,1,0,0:0:0:0:
192,192,117901,1,0,0:0:0:0:
64,192,117901,1,0,0:0:0:0:
192,192,118342,1,0,0:0:0:0:
64,192,118342,1,0,0:0:0:0:
320,192,118342,1,0,0:0:0:0:
320,192,118637,128,0,118931:0:0:0:0:
64,192,118637,128,0,118931:0:0:0:0:
192,192,118637,1,0,0:0:0:0:
192,192,118931,1,0,0:0:0:0:
320,192,119078,1,0,0:0:0:0:
64,192,119225,1,0,0:0:0:0:
192,192,119372,1,0,0:0:0:0:
64,192,119850,1,0,0:0:0:0:
192,192,119850,1,0,0:0:0:0:
320,192,119850,1,0,0:0:0:0:
320,192,120291,1,0,0:0:0:0:
192,192,120291,1,0,0:0:0:0:
64,192,120291,1,0,0:0:0:0:
192,192,120695,1,0,0:0:0:0:
64,192,120695,1,0,0:0:0:0:
320,192,120695,1,0,0:0:0:0:
64,192,120990,1,0,0:0:0:0:
192,192,120990,1,0,0:0:0:0:
