osu file format v14

[General]
AudioFilename: Schizoid Enthusiast - Going to Birdland.mp3
AudioLeadIn: 0
PreviewTime: -1
Countdown: 0
SampleSet: None
StackLeniency: 0.7
Mode: 0
LetterboxInBreaks: 1
WidescreenStoryboard: 0

[Editor]
DistanceSpacing: 1.65
BeatDivisor: 4
GridSize: 4
TimelineZoom: 1.8

[Metadata]
Title:Going to Birdland
TitleUnicode:Going to Birdland
Artist:Schizoid Enthusiast
ArtistUnicode:Schizoid Enthusiast
Creator:Rikka-
Version:Dream
Source:
Tags:
BeatmapID:739276
BeatmapSetID:334122

[Difficulty]
HPDrainRate:6
CircleSize:4
OverallDifficulty:8
ApproachRate:9
SliderMultiplier:1.59999990463257
SliderTickRate:1

[Events]
//Background and Video events
//Break Periods
2,28008,30859
//Storyboard Layer 0 (Background)
//Storyboard Layer 1 (Fail)
//Storyboard Layer 2 (Pass)
//Storyboard Layer 3 (Foreground)
//Storyboard Sound Samples

[TimingPoints]
22729,317.460317460317,4,2,0,100,1,0
23046,-66.6666666666667,4,2,0,100,0,0
23363,-100,4,2,0,100,0,0
31459,-133.333333333333,4,2,0,100,0,0
31776,-100,4,2,0,100,0,0
32094,-66.6666666666667,4,2,0,100,0,0
32332,-100,4,2,0,100,0,0
35030,-66.6666666666667,4,2,0,100,0,0
35189,-50,4,2,0,100,0,0
35348,-100,4,2,0,100,0,0
42887,-100,4,2,0,100,0,0
43205,-66.6666666666667,4,2,0,100,0,0
43522,-50,4,2,0,100,0,0
43998,-100,4,2,0,100,0,0
45665,-66.6666666666667,4,2,0,100,0,0
45982,-50,4,2,0,100,0,0
46617,-100,4,2,0,100,0,0

[HitObjects]
76,317,22729,6,0,B|42:272|87:209|149:265|98:318,1,159.999990463257
125,318,23046,2,0,B|216:338|314:332|387:316,1,239.999994850159
254,190,23681,1,0,0:0:0:0:
125,86,23998,1,0,0:0:0:0:
100,291,24395,5,0,0:0:0:0:
239,193,24633,1,0,0:0:0:0:
303,134,24792,1,0,0:0:0:0:
356,98,24951,1,0,0:0:0:0:
413,70,25109,1,0,0:0:0:0:
453,52,25268,6,0,P|459:156|448:230,1,159.999990463257
438,215,25586,2,0,L|361:128,1,79.9999952316285
359,229,25903,1,0,0:0:0:0:
274,313,26221,1,0,0:0:0:0:
359,229,26538,1,0,0:0:0:0:
443,313,26855,1,0,0:0:0:0:
359,229,27173,1,0,0:0:0:0:
257,52,27332,1,0,0:0:0:0:
389,52,27490,1,0,0:0:0:0:
314,160,27649,1,0,0:0:0:0:
250,54,27808,1,0,0:0:0:0:
292,324,31459,6,0,L|429:290,1,119.999997425079
423,292,31776,2,0,L|263:192,1,159.999990463257
266,198,32094,2,0,L|452:163,1,179.999996137619
448,178,32332,6,0,L|417:206,1,39.9999976158142
448,178,32490,6,0,L|417:206,1,39.9999976158142
448,178,32649,6,0,L|417:206,1,39.9999976158142
448,178,32808,6,0,L|388:234,1,79.9999952316285
141,202,34871,2,0,L|99:147,1,39.9999976158142
102,186,35030,2,0,L|102:101,1,59.9999987125397
79,160,35189,2,0,L|106:68,1,79.9999952316285
165,195,37808,2,0,L|301:194,1,119.999992847443
165,195,38125,2,0,L|217:196,1,39.9999976158142
165,195,38284,2,0,L|210:194,1,39.9999976158142
165,195,38443,1,0,0:0:0:0:
110,148,42887,2,0,B|99:222|130:254|188:258,1,119.999992847443
175,252,43125,2,0,B|184:122|184:122|246:131,1,179.999996137619
245,135,43443,2,0,B|273:303|287:335|159:339|117:336,1,299.999993562698
181,345,43760,2,0,L|340:252,1,159.999990463257
423,86,45348,6,0,L|356:238,1,159.999990463257
350,230,45665,2,0,B|276:171|357:88|474:151|410:233|372:235,1,239.999994850159
432,233,45982,2,0,L|105:232,1,319.999980926514
112,232,46300,2,0,B|34:229|34:229|45:38,1,239.999985694885
179,67,47887,5,0,0:0:0:0:
253,151,48046,1,0,0:0:0:0:
132,151,48205,1,0,0:0:0:0:
246,155,48363,5,0,0:0:0:0:
330,239,48522,1,0,0:0:0:0:
209,239,48681,1,0,0:0:0:0:
293,323,48840,1,0,0:0:0:0:
412,323,48998,1,0,0:0:0:0:
