osu file format v14

[General]
AudioFilename: sayonara.mp3
AudioLeadIn: 0
PreviewTime: 54106
Countdown: 0
SampleSet: Soft
StackLeniency: 0.7
Mode: 0
LetterboxInBreaks: 0
WidescreenStoryboard: 0

[Editor]
Bookmarks: 23800,44616,64208
DistanceSpacing: 1.1
BeatDivisor: 2
GridSize: 4
TimelineZoom: 2.9

[Metadata]
Title:Sayonara Moon Town
TitleUnicode:サヨナラムーンタウン
Artist:Scenarioart
ArtistUnicode:シナリオアート
Creator:YukiZura-
Version:Easy
Source:BORUTO-ボルト- -NARUTO NEXT GENERATIONS-
Tags:naruto boruto sasuke sarada BORUTO-ボルト- -NARUTO NEXT GENERATIONS- walaowey corinn asuka akitoshi
BeatmapID:1430489
BeatmapSetID:666042

[Difficulty]
HPDrainRate:2
CircleSize:3
OverallDifficulty:2
ApproachRate:3
SliderMultiplier:0.899999999999999
SliderTickRate:1

[Events]
//Background and Video events
0,0,"810556.jpg",0,0
//Break Periods
//Storyboard Layer 0 (Background)
//Storyboard Layer 1 (Fail)
//Storyboard Layer 2 (Pass)
//Storyboard Layer 3 (Foreground)
//Storyboard Sound Samples

[TimingPoints]
534.984924623116,306.122448979592,4,2,1,50,1,0
12779,-100,4,2,1,50,0,0
14004,-100,4,2,1,30,0,0
33290,-100,4,2,1,10,0,0
34667,-100,4,2,1,40,0,0
54106,-100,4,2,1,50,0,0
54412,-100,4,2,1,50,0,1
74004,-100,4,2,1,50,0,0
83800,-100,4,2,1,30,0,0

[Colours]
Combo1 : 255,165,74
Combo2 : 255,255,0
Combo3 : 255,255,128
Combo4 : 255,128,64

[HitObjects]
404,228,535,6,0,P|420:168|400:84,2,135,4|0|8,3:2|0:0|0:0,0:0:0:0:
340,292,1759,2,0,L|192:336,1,135,0|0,3:2|0:0,0:0:0:0:
240,200,2677,1,8,0:0:0:0:
144,208,2983,6,0,P|100:224|-20:192,2,135,0|0|8,3:2|0:0|0:0,0:0:0:0:
168,120,4208,2,0,P|212:104|332:136,1,135,0|0,3:2|0:0,0:0:0:0:
388,236,5126,1,0,0:0:0:0:
448,156,5432,6,0,P|456:112|528:36,2,135,0|0|8,3:2|0:0|0:0,0:0:0:0:
388,236,6657,2,0,P|358:287|276:328,1,135,0|0,3:2|0:0,0:0:0:0:
160,364,7575,1,8,0:0:0:0:
96,308,7881,6,0,P|88:232|68:144,1,135,0|0,3:2|0:0,0:0:0:0:
44,44,8800,1,8,0:0:0:0:
132,76,9106,2,0,P|216:80|272:68,2,135,0|0|8,3:2|0:0|0:0,0:0:0:0:
68,140,10330,6,0,L|108:284,1,135,4|0,3:2|0:0,0:0:0:0:
212,352,11249,1,8,0:0:0:0:
296,320,11555,2,0,P|332:308|408:256,1,89.9999999999999,0|8,3:2|0:0,0:0:0:0:
440,216,12167,2,0,B|440:148|440:148|460:104|460:104|459:16,1,180,0|2,3:0|0:3,0:0:0:0:
208,64,14004,6,0,P|120:100|88:136,1,135,4|0,3:2|3:0,0:0:0:0:
48,204,14769,1,0,0:0:0:0:
72,292,15075,2,0,L|216:308,1,135,8|8,0:0|0:0,0:0:0:0:
296,332,15841,1,0,0:0:0:0:
376,292,16147,1,0,0:0:0:0:
432,220,16453,6,0,P|436:144|416:56,1,135,0|0,3:0|3:0,0:0:0:0:
340,60,17218,1,0,0:0:0:0:
252,68,17524,2,0,B|168:108|208:204|116:236,1,225,8|0,0:0|3:0,0:0:0:0:
32,284,18596,1,0,0:0:0:0:
108,332,18902,6,0,P|184:332|272:296,1,135,0|0,3:0|3:0,0:0:0:0:
292,240,19667,1,0,0:0:0:0:
260,156,19973,2,0,L|96:136,1,135,8|8,0:0|0:0,0:0:0:0:
64,72,20739,2,0,P|112:52|168:60,1,89.9999999999999
240,56,21351,6,0,L|388:76,1,135,0|0,3:0|0:0,0:0:0:0:
460,92,22116,1,0,3:0:0:0:
412,168,22422,2,0,B|328:208|368:304|276:336,1,225,8|0,0:0|3:0,0:0:0:0:
96,348,23800,6,0,P|116:264|168:204,1,135,4|0,3:2|3:0,0:0:0:0:
216,176,24565,1,0,0:0:0:0:
272,92,24871,2,0,L|112:68,1,135,8|8,0:0|0:0,0:0:0:0:
40,72,25637,1,0,0:0:0:0:
52,160,25943,1,0,0:0:0:0:
52,248,26249,6,0,P|100:288|176:296,1,135,0|0,3:0|3:0,0:0:0:0:
256,320,27014,1,0,0:0:0:0:
340,292,27320,2,0,B|352:204|484:208|464:92,1,225,8|0,0:0|3:0,0:0:0:0:
416,36,28392,1,0,0:0:0:0:
372,116,28698,6,0,P|308:88|224:72,1,135,0|0,3:0|3:0,0:0:0:0:
156,68,29463,1,0,0:0:0:0:
84,120,29769,2,0,L|60:280,1,135,8|8,0:0|0:0,0:0:0:0:
108,332,30535,2,0,P|140:300|152:252,1,89.9999999999999
188,176,31147,6,0,L|232:336,1,135,0|0,3:0|0:0,0:0:0:0:
296,360,31912,1,0,3:0:0:0:
368,304,32218,2,0,B|344:212|484:200|448:56,1,270,8|0,0:0|3:0,0:0:0:0:
320,96,33596,5,0,0:0:0:0:
140,88,34208,1,0,0:0:0:0:
68,252,34820,6,0,P|104:304|228:348,2,180,4|8|8,3:2|0:0|0:0,0:0:0:0:
80,72,36657,1,0,0:0:0:0:
220,184,37269,2,0,L|344:48,2,180,8|8|8,0:0|0:0|0:0,0:0:0:0:
80,324,39106,1,0,0:0:0:0:
276,292,39718,6,0,P|336:280|460:284,2,180,12|8|0,0:0|0:0|0:0,0:0:0:0:
80,324,41555,1,0,0:0:0:0:
208,172,42167,2,0,P|136:116|120:12,1,180,8|8,0:0|0:0,0:0:0:0:
312,60,43392,2,0,P|384:116|400:220,1,180,8|8,0:0|0:0,0:0:0:0:
404,288,44310,1,0,0:0:0:0:
316,288,44616,6,0,P|220:324|108:340,2,180,4|8|8,3:2|0:0|0:0,0:0:0:0:
408,132,46453,1,0,0:0:0:0:
236,80,47065,2,0,L|432:16,2,180,8|8|8,0:0|0:0|0:0,0:0:0:0:
72,152,48902,1,0,0:0:0:0:
232,236,49514,6,0,P|260:272|392:312,2,180,12|8|0,0:0|0:0|0:0,0:0:0:0:
380,136,51351,1,0,0:0:0:0:
220,56,51963,6,0,P|164:60|96:144,1,135,8|8,0:0|0:0,0:0:0:0:
80,244,52881,2,0,P|200:225|192:140,1,225,8|2,0:0|0:0,0:0:0:0:
80,80,54106,1,0,0:0:0:0:
164,52,54412,6,0,L|348:68,1,180,4|0,3:2|3:0,0:0:0:0:
424,112,55330,1,0,0:0:0:0:
412,200,55637,2,0,P|388:268|304:352,1,180,0|0,3:0|3:0,0:0:0:0:
228,320,56555,1,0,0:0:0:0:
140,296,56861,6,0,B|72:244|72:244|160:168|96:64,1,270,0|0,3:0|0:0,0:0:0:0:
188,40,58086,2,0,B|276:104|204:208|300:296,1,270
364,328,59310,6,0,P|440:308|492:196,1,180
468,140,60228,1,0,0:0:0:0:
384,108,60534,2,0,P|308:128|256:240,1,180
304,288,61453,1,0,0:0:0:0:
240,348,61759,2,0,L|76:272,1,180,10|10,0:0|0:0,0:0:0:0:
44,188,62677,1,0,0:0:0:0:
72,104,62983,2,0,B|168:96|168:96|276:68,1,180,0|8,3:0|3:2,0:0:0:0:
428,88,64208,6,0,L|416:272,1,180,4|0,3:2|3:0,0:0:0:0:
360,340,65126,1,0,0:0:0:0:
268,344,65433,2,0,B|180:312|180:312|120:244,1,180,0|0,3:0|3:0,0:0:0:0:
136,160,66351,1,0,0:0:0:0:
218,118,66657,6,0,B|268:51|268:51|332:144|424:80,1,225,0|0,3:0|0:0,0:0:0:0:
356,20,67882,2,0,B|268:84|340:188|244:276,1,270
188,308,69106,6,0,P|108:296|52:216,1,180
92,140,70024,1,0,0:0:0:0:
164,192,70330,2,0,P|244:204|300:284,1,180
316,368,71249,1,0,0:0:0:0:
396,328,71555,2,0,L|437:140,1,180,10|10,0:0|0:0,0:0:0:0:
384,80,72473,1,0,0:0:0:0:
296,56,72779,2,0,B|200:64|200:64|92:92,1,180,0|8,3:0|3:2,0:0:0:0:
56,152,73698,1,0,0:0:0:0:
96,232,74004,6,0,P|132:288|152:356,1,135
204,228,74922,2,0,P|264:176|364:168,1,180
452,156,75841,1,0,0:0:0:0:
312,268,76453,6,0,L|248:108,1,135
160,56,77371,2,0,P|148:156|128:216,1,135
60,300,78290,1,0,0:0:0:0:
220,220,78902,6,0,P|268:184|356:188,2,135
332,292,80279,2,0,P|400:276|444:196,1,135
328,84,81351,6,0,L|184:120,1,135
144,240,82269,2,0,P|92:208|60:156,2,89.9999999999999
228,272,83188,2,0,L|332:272,1,89.9999999999999
404,300,83800,5,0,0:0:0:0:
256,192,83953,12,0,86861,0:0:0:0:
