osu file format v14

[General]
AudioFilename: NanaHitsuji.mp3
AudioLeadIn: 0
PreviewTime: 36025
Countdown: 0
SampleSet: Soft
StackLeniency: 0.7
Mode: 0
LetterboxInBreaks: 0
WidescreenStoryboard: 0

[Editor]
Bookmarks: 13537,15747,29010,31221,33431,35958,46062,50388,54904,63431,65957,71010,76282,81334,87273
DistanceSpacing: 0.9
BeatDivisor: 4
GridSize: 32
TimelineZoom: 1.5

[Metadata]
Title:Nana Hitsuji
TitleUnicode:ナナヒツジ
Artist:Scenarioart
ArtistUnicode:シナリオアート
Creator:Milan-
Version:Normal
Source:すべてがFになる THE PERFECT INSIDER
Tags:ending ed Subete ga F ni Naru
BeatmapID:897935
BeatmapSetID:411334

[Difficulty]
HPDrainRate:4
CircleSize:3.5
OverallDifficulty:4
ApproachRate:5
SliderMultiplier:1.1
SliderTickRate:1

[Events]
//Background and Video events
Video,0,"flawedoutsider.avi"
0,0,"52843939_p0.jpg",0,0
//Break Periods
//Storyboard Layer 0 (Background)
//Storyboard Layer 1 (Fail)
//Storyboard Layer 2 (Pass)
//Storyboard Layer 3 (Foreground)
//Storyboard Sound Samples

[TimingPoints]
499,315.789473684211,7,3,1,42,1,0
499,-100,7,3,1,42,0,0
4920,-100,7,3,1,55,0,0
13762,-100,7,3,1,42,0,0
15972,-100,7,3,1,50,0,0
24025,-100,7,3,1,30,0,0
24735,-100,7,3,1,10,0,0
24814,-100,7,3,1,50,0,0
29235,-100,7,3,1,42,0,0
31446,-100,7,3,1,50,0,0
32867,-100,7,3,1,42,0,0
33656,315.789473684211,4,3,1,42,1,0
33813,-100,4,3,1,30,0,0
35550,-100,4,3,1,35,0,0
35629,-100,4,3,1,10,0,0
36182,-100,4,3,1,63,0,1
45656,-100,4,3,0,42,0,0
46288,315.789473684211,7,3,2,50,1,0
55130,-100,7,3,1,50,0,0
55209,-100,7,3,2,50,0,0
63656,315.789473684211,4,3,1,55,1,0
63656,-100,4,3,1,55,0,0
66182,-100,4,3,1,42,0,0
66813,-100,4,3,1,35,0,0
67445,-100,4,3,1,42,0,0
68077,-100,4,3,1,35,0,0
68708,-100,4,3,1,50,0,0
70761,-100,4,3,1,30,0,0
70840,-100,4,3,1,10,0,0
71234,-100,4,3,1,63,0,1
75656,-100,4,3,1,63,0,0
76287,-100,4,3,1,63,0,1
86392,-100,4,3,1,58,0,0
87656,-100,4,3,1,10,0,0
88524,-100,4,2,1,5,0,0

[Colours]
Combo1 : 219,77,101
Combo2 : 198,204,149
Combo3 : 118,108,236
Combo4 : 105,209,159

[HitObjects]
290,34,499,5,6,0:0:0:0:
259,72,656,2,0,L|146:63,1,110,0|0,0:0|0:0,0:0:0:0:
101,77,1130,1,0,0:0:0:0:
24,140,1446,1,8,0:0:0:0:
55,178,1604,2,0,L|168:169,1,110,0|0,0:0|0:0,0:0:0:0:
213,183,2077,1,0,0:0:0:0:
308,155,2393,1,8,0:0:0:0:
371,231,2709,6,0,B|376:268|376:268|375:351,1,110,6|2,0:2|0:2,0:0:0:0:
280,371,3341,2,0,B|279:298|279:298|284:261,1,110,2|10,0:2|0:2,0:0:0:0:
187,239,3972,2,0,B|192:276|192:276|191:359,1,110
151,378,4446,2,0,L|85:377,1,55,8|10,0:0|0:0,0:0:0:0:
29,303,4920,6,0,P|21:272|16:180,1,110,4|8,0:0|0:0,0:0:0:0:
50,160,5393,2,0,P|91:162|173:141,1,110,0|0,0:0|0:0,0:0:0:0:
244,98,6025,1,2,0:0:0:0:
340,119,6341,1,2,0:0:0:0:
430,78,6656,2,0,P|438:108|439:219,1,110,2|8,0:0|0:0,0:0:0:0:
429,234,7130,6,0,L|306:249,1,110,6|8,0:0|0:0,0:0:0:0:
290,287,7604,2,0,L|162:288,1,110
86,320,8235,1,2,0:0:0:0:
41,231,8551,1,2,0:0:0:0:
115,166,8867,2,0,P|141:118|142:64,1,110,2|8,0:0|0:0,0:0:0:0:
113,22,9341,6,0,L|237:15,1,110,6|8,0:0|0:0,0:0:0:0:
258,50,9814,2,0,L|378:49,1,110
465,37,10446,1,2,0:0:0:0:
452,136,10762,1,2,0:0:0:0:
497,223,11077,2,0,P|505:249|510:291,2,55,2|0|8,0:0|0:0|0:0,0:0:0:0:
450,241,11551,6,0,P|375:256|334:247,1,110,4|8,0:0|0:0,0:0:0:0:
297,230,12025,2,0,P|242:224|190:239,1,110,0|0,0:0|0:0,0:0:0:0:
110,298,12656,1,2,0:0:0:0:
43,224,12972,1,2,0:0:0:0:
79,132,13288,2,0,P|80:114|72:67,2,55,2|0|8,0:0|0:0|0:0,0:0:0:0:
29,139,13762,5,6,0:0:0:0:
218,60,14393,2,0,B|253:60|253:60|299:66,2,82.5,8|8|8,0:0|0:0|0:0,0:0:0:0:
211,159,15183,1,8,0:0:0:0:
211,159,15341,2,0,P|217:201|209:284,1,110,8|2,0:0|0:3,0:0:0:0:
195,365,15972,6,0,P|245:344|300:344,1,110,4|8,0:0|0:0,0:0:0:0:
346,362,16446,2,0,P|397:346|432:304,1,110,0|0,0:0|0:0,0:0:0:0:
435,254,16920,2,0,L|423:192,1,55,8|2,0:0|0:0,0:0:0:0:
371,116,17393,2,0,P|343:143|337:245,2,110,2|2|8,0:0|0:0|0:0,0:0:0:0:
418,101,18183,6,0,P|387:67|311:42,1,110,2|8,0:0|0:0,0:0:0:0:
287,70,18656,2,0,P|235:87|181:79,1,110,0|0,0:0|0:0,0:0:0:0:
138,55,19130,2,0,L|107:114,1,55,8|2,0:0|0:0,0:0:0:0:
64,190,19604,1,2,0:0:0:0:
117,273,19920,1,2,0:0:0:0:
89,367,20235,1,8,0:0:0:0:
89,367,20393,6,0,P|159:360|210:304,1,110,2|8,0:0|0:0,0:0:0:0:
218,296,20867,2,0,L|351:278,1,110,0|0,0:0|0:0,0:0:0:0:
363,247,21341,2,0,L|435:257,1,55,8|2,0:0|0:0,0:0:0:0:
497,196,21814,2,0,P|513:249|499:307,2,110,2|2|8,0:0|0:0|0:0,0:0:0:0:
452,176,22604,6,0,P|406:145|380:97,1,110,2|8,0:0|0:0,0:0:0:0:
387,48,23077,2,0,P|321:72|246:57,1,110,0|0,0:0|0:0,0:0:0:0:
232,64,23551,2,0,L|201:140,1,55,8|2,0:0|0:0,0:0:0:0:
130,172,24025,2,0,L|141:246,1,55,0|6,0:0|0:0,0:0:0:0:
271,373,24814,6,0,P|304:330|314:276,1,110,6|8,0:0|0:0,0:0:0:0:
306,227,25288,2,0,P|328:164|381:135,1,110,0|0,0:0|0:0,0:0:0:0:
411,147,25762,2,0,L|490:139,1,55,8|2,0:0|0:0,0:0:0:0:
508,51,26235,1,2,0:0:0:0:
415,14,26551,2,0,L|296:18,1,110,2|0,0:0|0:0,0:0:0:0:
265,47,27025,6,0,L|144:31,1,110,2|8,0:0|0:0,0:0:0:0:
112,7,27499,2,0,P|130:53|121:152,1,110,0|0,0:0|0:0,0:0:0:0:
107,156,27972,2,0,L|118:213,1,55,8|2,0:0|0:0,0:0:0:0:
95,306,28446,1,2,0:0:0:0:
191,328,28762,2,0,P|230:318|325:313,1,110,2|0,0:0|0:0,0:0:0:0:
342,334,29235,6,0,P|394:271|472:246,1,165,4|0,0:0|0:0,0:0:0:0:
510,278,29867,2,0,L|465:101,1,165,8|0,0:0|0:0,0:0:0:0:
393,54,30656,2,0,P|355:40|265:51,1,110,0|0,0:0|0:0,0:0:0:0:
245,71,31130,1,10,0:0:0:0:
187,151,31446,6,0,P|202:204|190:276,1,110,6|8,0:0|0:0,0:0:0:0:
172,301,31920,2,0,L|53:301,1,110,0|0,0:0|0:0,0:0:0:0:
16,320,32393,2,0,L|-1:261,1,55,8|2,0:0|0:0,0:0:0:0:
3,167,32867,1,2,0:0:0:0:
76,101,33183,1,2,0:0:0:0:
174,89,33499,1,2,0:3:0:0:
174,89,33656,5,6,0:0:0:0:
256,192,33814,12,2,35551,0:2:0:0:
340,69,36183,6,0,P|342:102|336:202,1,110,4|8,0:0|0:0,0:0:0:0:
342,228,36656,2,0,P|288:214|224:215,1,110,2|2,0:2|0:2,0:0:0:0:
186,229,37130,1,8,0:0:0:0:
100,178,37446,2,0,L|82:60,1,110,0|8,0:2|0:0,0:0:0:0:
93,20,37919,1,0,0:0:0:0:
176,73,38235,1,0,0:0:0:0:
268,36,38551,1,0,0:0:0:0:
268,36,38709,6,0,P|317:32|378:46,1,110,2|8,0:2|0:0,0:0:0:0:
411,80,39183,2,0,P|399:115|394:197,1,110,2|2,0:2|0:2,0:0:0:0:
420,282,39814,2,0,P|390:297|294:311,1,110,2|0,0:2|0:0,0:0:0:0:
266,300,40288,1,8,0:0:0:0:
181,351,40604,1,0,0:0:0:0:
97,298,40919,1,8,0:0:0:0:
180,244,41235,6,0,P|193:191|192:127,1,110,4|8,0:0|0:0,0:0:0:0:
180,87,41709,2,0,P|139:90|55:76,1,110,0|0,0:0|0:0,0:0:0:0:
26,59,42183,2,0,P|17:86|11:126,1,55,8|0,0:0|0:0,0:0:0:0:
59,199,42656,2,0,P|63:246|53:337,1,110,0|0,0:0|0:0,0:0:0:0:
37,353,43130,2,0,P|70:335|169:338,1,110,0|8,0:0|0:0,0:0:0:0:
232,367,43761,6,0,P|323:372|368:352,1,110,4|8,0:0|0:0,0:0:0:0:
380,338,44235,2,0,L|375:225,1,110,0|0,0:2|0:0,0:0:0:0:
388,180,44709,1,8,0:0:0:0:
345,90,45025,1,10,0:0:0:0:
248,109,45340,1,10,0:0:0:0:
152,84,45656,2,0,B|120:77|120:77|56:76,2,82.5,8|8|4,0:0|0:0|0:0,0:0:0:0:
166,131,46288,5,4,0:0:0:0:
184,227,46603,1,0,0:0:0:0:
204,323,46919,1,0,0:0:0:0:
278,257,47235,1,4,0:0:0:0:
298,161,47551,1,0,0:0:0:0:
316,65,47866,2,0,P|372:47|437:60,1,110,0|0,0:0|0:0,0:0:0:0:
485,129,48498,5,4,0:0:0:0:
396,172,48814,1,0,0:0:0:0:
306,213,49130,1,0,0:0:0:0:
250,131,49445,1,4,0:0:0:0:
151,121,49761,1,0,0:0:0:0:
52,114,50077,2,0,P|64:167|100:207,1,110,0|2,0:0|0:0,0:0:0:0:
190,249,50709,6,0,P|204:290|186:364,2,110,4|0|8,0:0|0:0|0:0,0:0:0:0:
180,150,51656,2,0,P|166:109|184:35,1,110,4|0,0:0|0:0,0:0:0:0:
267,0,52288,1,8,0:0:0:0:
360,30,52603,1,0,0:0:0:0:
441,90,52919,6,0,P|398:123|344:130,1,110,4|0,0:0|0:0,0:0:0:0:
248,96,53551,1,8,0:0:0:0:
272,191,53866,2,0,P|274:228|256:339,1,110,4|0,0:0|0:0,0:0:0:0:
202,376,54498,1,8,0:0:0:0:
118,322,54814,1,0,0:0:0:0:
29,368,55130,6,0,P|22:295|146:224,1,220,4|2,0:0|0:0,0:0:0:0:
228,249,56077,2,0,P|324:245|466:231,1,220,0|2,0:0|0:0,0:0:0:0:
503,152,57024,1,0,0:0:0:0:
413,108,57340,6,0,P|407:71|423:-10,2,110,4|2|2,0:0|0:0|0:0,0:0:0:0:
422,206,58288,1,0,0:0:0:0:
331,166,58603,2,0,P|234:169|93:184,1,220,2|0,0:0|0:0,0:0:0:0:
46,256,59551,6,0,P|14:192|119:82,1,220,4|2,0:0|0:0,0:0:0:0:
192,85,60498,2,0,B|204:161|204:161|192:231|192:231|209:326,1,220,0|2,0:0|0:0,0:0:0:0:
265,380,61445,1,8,0:0:0:0:
334,309,61761,5,6,0:0:0:0:
433,307,62077,1,0,0:0:0:0:
384,220,62393,1,2,0:0:0:0:
438,137,62709,5,2,0:0:0:0:
339,130,63024,1,2,0:0:0:0:
293,217,63340,1,2,0:0:0:0:
203,173,63656,6,0,P|172:165|86:170,1,110,8|8,0:0|0:0,0:0:0:0:
53,195,64130,1,8,0:0:0:0:
53,195,64288,2,0,L|46:262,1,55,8|8,0:0|0:0,0:0:0:0:
20,291,64603,2,0,L|31:356,1,55,8|8,0:0|0:0,0:0:0:0:
72,370,64919,2,0,L|120:316,1,55,8|8,0:0|0:0,0:0:0:0:
151,303,65235,2,0,B|194:303|194:303|273:283,2,110,8|8|8,0:0|0:0|0:0,0:0:0:0:
191,212,66182,6,0,P|263:152|382:196,1,220,4|2,0:0|0:2,0:0:0:0:
284,363,67445,2,0,P|212:303|93:347,1,220,4|2,0:0|0:2,0:0:0:0:
256,192,68709,12,10,70445,0:2:0:0:
341,316,71235,6,0,L|356:171,1,110,4|8,0:0|0:0,0:0:0:0:
305,190,71708,2,0,L|294:55,1,110,0|0,0:0|0:0,0:0:0:0:
260,44,72182,2,0,L|201:80,1,55,8|0,0:0|0:0,0:0:0:0:
149,149,72656,2,0,P|74:158|33:141,1,110,0|0,0:0|0:0,0:0:0:0:
4,115,73129,2,0,L|22:253,1,110,0|8,0:0|0:0,0:0:0:0:
11,323,73761,6,0,P|64:311|117:325,1,110,2|8,0:2|0:0,0:0:0:0:
147,364,74235,2,0,P|186:349|258:333,1,110,0|0,0:0|0:0,0:0:0:0:
302,335,74708,1,8,0:0:0:0:
361,255,75024,2,0,P|360:221|355:190,1,55,0|0,0:0|0:0,0:0:0:0:
324,162,75340,2,0,P|358:133|382:58,1,110,8|8,0:0|0:0,0:0:0:0:
458,11,75971,2,0,P|473:41|484:84,1,55,8|8,0:0|0:0,0:0:0:0:
472,110,76287,6,0,P|461:167|470:245,1,110,4|8,0:0|0:0,0:0:0:0:
485,263,76761,2,0,P|458:298|383:334,1,110,2|2,0:2|0:2,0:0:0:0:
351,333,77235,1,8,0:0:0:0:
284,260,77550,2,0,P|219:244|157:255,1,110,0|8,0:0|0:0,0:0:0:0:
133,272,78024,2,0,P|150:222|130:136,1,110,0|0,0:0|0:0,0:0:0:0:
115,125,78498,1,8,0:0:0:0:
204,83,78813,6,0,P|280:81|315:91,1,110,4|8,0:0|0:0,0:0:0:0:
353,119,79287,2,0,P|459:111|475:106,1,110,2|2,0:2|0:2,0:0:0:0:
503,82,79761,1,8,0:0:0:0:
503,82,79919,2,0,P|490:135|488:211,1,110,2|0,0:2|0:0,0:0:0:0:
497,238,80392,1,8,0:0:0:0:
422,302,80708,1,0,0:0:0:0:
323,311,81024,1,8,0:0:0:0:
243,251,81340,6,0,P|193:228|138:223,1,110,4|8,0:0|0:0,0:0:0:0:
89,232,81813,2,0,P|102:275|110:350,1,110,0|0,0:0|0:0,0:0:0:0:
142,377,82287,2,0,P|170:367|213:359,1,55,8|0,0:0|0:0,0:0:0:0:
293,357,82761,2,0,P|346:367|399:355,1,110,0|0,0:0|0:0,0:0:0:0:
442,328,83235,2,0,L|439:209,1,110,0|8,0:0|0:0,0:0:0:0:
353,167,83866,6,0,L|350:276,1,110,4|8,0:0|0:0,0:0:0:0:
313,311,84340,2,0,P|259:300|206:312,1,110,0|0,0:0|0:0,0:0:0:0:
164,337,84813,1,8,0:0:0:0:
75,293,85129,1,10,0:0:0:0:
102,197,85445,1,10,0:0:0:0:
200,202,85761,2,0,P|276:180|305:135,1,110,10|0,0:0|0:0,0:0:0:0:
357,82,86392,6,0,L|425:75,1,55,6|8,0:0|0:0,0:0:0:0:
439,171,86866,2,0,L|371:164,1,55,2|8,0:0|0:0,0:0:0:0:
357,260,87340,1,2,0:0:0:0:
357,260,87498,2,0,B|490:254|490:254|433:338|433:338|294:344,1,357.5,12|0,0:0|0:0,0:0:0:0:
