osu file format v14

[General]
AudioFilename: NanaHitsuji.mp3
AudioLeadIn: 0
PreviewTime: 36025
Countdown: 0
SampleSet: None
StackLeniency: 0.5
Mode: 0
LetterboxInBreaks: 0
WidescreenStoryboard: 0

[Editor]
Bookmarks: 13537,15747,29010,31221,33431,35958,46062,50388,54904,63431,65957,71010,76282,81334,87273
DistanceSpacing: 1
BeatDivisor: 4
GridSize: 32
TimelineZoom: 1.7

[Metadata]
Title:Nana Hitsuji
TitleUnicode:ナナヒツジ
Artist:Scenarioart
ArtistUnicode:シナリオアート
Creator:Milan-
Version:Insane
Source:すべてがFになる THE PERFECT INSIDER
Tags:ending ed Subete ga F ni Naru
BeatmapID:892583
BeatmapSetID:411334

[Difficulty]
HPDrainRate:7
CircleSize:4.3
OverallDifficulty:8
ApproachRate:9
SliderMultiplier:1.7
SliderTickRate:1

[Events]
//Background and Video events
Video,0,"flawedoutsider.avi"
0,0,"52843939_p0.jpg",0,0
//Break Periods
//Storyboard Layer 0 (Background)
//Storyboard Layer 1 (Fail)
//Storyboard Layer 2 (Pass)
//Storyboard Layer 3 (Foreground)
//Storyboard Sound Samples

[TimingPoints]
499,315.789473684211,7,3,1,42,1,0
499,-125,7,3,1,42,0,0
4920,-100,7,3,1,55,0,0
13762,-166.666666666667,7,3,1,42,0,0
15972,-125,7,3,1,50,0,0
24025,-166.666666666667,7,3,1,30,0,0
24735,-166.666666666667,7,3,1,10,0,0
24814,-125,7,3,1,50,0,0
29235,-166.666666666667,7,3,1,42,0,0
31446,-125,7,3,1,50,0,0
32867,-166.666666666667,7,3,1,42,0,0
33656,315.789473684211,4,3,1,42,1,0
33813,-100,4,3,1,30,0,0
35550,-200,4,3,1,35,0,0
35629,-200,4,3,1,10,0,0
36182,-100,4,3,1,63,0,1
45656,-100,4,3,0,42,0,0
46288,315.789473684211,7,3,2,50,1,0
46288,-133.333333333333,7,3,2,50,0,0
55130,-166.666666666667,7,3,1,50,0,0
55209,-166.666666666667,7,3,2,50,0,0
63656,315.789473684211,4,3,1,55,1,0
63656,-125,4,3,1,55,0,0
66182,-125,4,3,1,42,0,0
66813,-125,4,3,1,35,0,0
67445,-125,4,3,1,42,0,0
68077,-125,4,3,1,35,0,0
68708,-125,4,3,1,50,0,0
70761,-76.9230769230769,4,3,1,30,0,0
70840,-76.9230769230769,4,3,1,10,0,0
71234,-100,4,3,1,63,0,1
75656,-100,4,3,1,63,0,0
76287,-100,4,3,1,63,0,1
86392,-100,4,3,1,58,0,0
88524,-100,4,2,1,5,0,0

[Colours]
Combo1 : 219,77,101
Combo2 : 198,204,149
Combo3 : 118,108,236
Combo4 : 105,209,159

[HitObjects]
374,247,341,5,8,0:3:0:0:
374,247,420,1,0,0:0:0:0:
374,247,499,1,6,0:0:0:0:
177,241,656,2,0,P|228:284|295:286,1,136
373,247,1130,2,0,P|406:239|440:240,1,68
366,335,1446,1,8,0:0:0:0:
293,202,1604,1,0,0:0:0:0:
293,202,1762,2,0,P|316:178|329:147,1,68
230,65,2077,2,0,P|240:98|242:132,1,68
217,269,2393,1,8,0:0:0:0:
171,193,2551,1,0,0:0:0:0:
103,331,2709,5,6,0:2:0:0:
94,342,2867,1,0,0:0:0:0:
80,242,3025,1,2,0:2:0:0:
61,246,3183,1,0,0:0:0:0:
104,153,3341,1,2,0:2:0:0:
86,141,3499,1,0,0:0:0:0:
183,35,3656,2,0,P|177:68|179:102,1,68,10|0,0:2|0:0,0:0:0:0:
251,203,3972,2,0,L|405:185,1,136
314,72,4446,1,8,0:0:0:0:
312,88,4525,1,8,0:0:0:0:
309,104,4604,1,10,0:0:0:0:
309,104,4920,5,4,0:0:0:0:
118,77,5077,2,0,P|160:69|202:75,1,85,0|8,0:0|0:0,0:0:0:0:
280,245,5393,2,0,P|246:220|227:183,1,85
363,41,5709,2,0,P|343:78|309:103,1,85,0|8,0:0|0:0,0:0:0:0:
143,179,6025,2,0,P|184:187|226:182,1,85,2|0,0:0|0:0,0:0:0:0:
280,245,6262,1,0,0:0:0:0:
280,245,6341,2,0,P|278:287|265:327,1,85,2|0,0:0|0:0,0:0:0:0:
112,384,6656,1,2,0:0:0:0:
174,292,6814,2,0,P|137:274|95:271,1,85,0|8,0:0|0:0,0:0:0:0:
112,384,7130,5,6,0:0:0:0:
8,241,7288,2,0,P|6:283|17:324,1,85,0|8,0:0|0:0,0:0:0:0:
175,253,7604,2,0,P|137:271|94:272,1,85
188,84,7920,2,0,P|230:85|268:103,1,85,0|8,0:0|0:0,0:0:0:0:
342,279,8235,2,0,P|312:249|300:208,1,85,2|0,0:0|0:0,0:0:0:0:
345,144,8472,1,0,0:0:0:0:
345,144,8551,2,0,L|444:140,1,85,2|0,0:0|0:0,0:0:0:0:
384,39,8867,1,2,0:0:0:0:
438,149,9025,1,0,0:0:0:0:
274,52,9183,1,8,0:0:0:0:
215,231,9341,5,6,0:0:0:0:
215,231,9420,1,0,0:0:0:0:
215,231,9499,2,0,P|195:193|195:151,1,85,0|8,0:0|0:0,0:0:0:0:
119,15,9814,2,0,P|119:57|100:95,1,85
2,243,10130,2,0,P|33:215|74:203,1,85,0|8,0:0|0:0,0:0:0:0:
186,320,10446,2,0,P|228:323|267:309,1,85,2|0,0:0|0:0,0:0:0:0:
340,278,10683,1,0,0:0:0:0:
340,278,10762,2,0,P|297:281|258:267,1,85,2|0,0:0|0:0,0:0:0:0:
394,204,11077,1,2,0:0:0:0:
440,304,11235,1,0,0:0:0:0:
456,134,11393,1,8,0:0:0:0:
287,190,11551,5,4,0:0:0:0:
337,18,11709,2,0,P|352:57|351:100,1,85,0|8,0:0|0:0,0:0:0:0:
180,142,12025,2,0,P|204:107|240:85,1,85
197,251,12341,2,0,P|154:251|116:233,1,85,0|8,0:0|0:0,0:0:0:0:
48,64,12656,2,0,L|44:149,1,85,2|0,0:0|0:0,0:0:0:0:
18,223,12893,1,0,0:0:0:0:
18,223,12972,2,0,L|22:307,1,85,2|0,0:0|0:0,0:0:0:0:
134,157,13288,1,2,0:0:0:0:
117,306,13446,1,0,0:0:0:0:
288,128,13604,1,8,0:0:0:0:
322,317,13762,6,0,P|396:328|460:289,1,152.999995330811,6|0,0:0|0:0,0:0:0:0:
382,191,14393,1,8,0:0:0:0:
382,191,14472,1,0,0:0:0:0:
218,312,14630,1,8,0:0:0:0:
218,312,14709,1,0,0:0:0:0:
371,174,14867,2,0,L|366:224,1,50.9999984436036,8|0,0:0|0:0,0:0:0:0:
206,301,15183,1,8,0:0:0:0:
264,200,15341,1,8,0:0:0:0:
339,374,15499,1,2,0:2:0:0:
339,374,15577,1,0,0:0:0:0:
339,374,15656,1,2,0:3:0:0:
340,372,15972,6,0,P|391:331|401:265,1,136,4|8,0:0|0:0,0:0:0:0:
431,180,16446,2,0,P|387:229|321:237,1,136
244,190,16920,1,8,0:0:0:0:
165,328,17077,1,2,0:0:0:0:
165,328,17393,2,0,P|197:320|231:319,1,68,2|0,0:0|0:0,0:0:0:0:
154,240,17709,1,2,0:0:0:0:
40,175,17867,2,0,P|46:208|65:237,1,68,0|8,0:0|0:0,0:0:0:0:
74,94,18183,6,0,P|127:54|194:52,1,136,2|8,0:0|0:0,0:0:0:0:
269,99,18656,2,0,P|300:110|334:110,1,68
419,83,18972,1,0,0:0:0:0:
439,223,19130,1,8,0:0:0:0:
431,76,19288,1,2,0:0:0:0:
431,76,19604,2,0,P|465:77|498:67,1,68,2|0,0:0|0:0,0:0:0:0:
360,22,19920,1,2,0:0:0:0:
324,145,20077,2,0,P|290:146|257:136,1,68,0|8,0:0|0:0,0:0:0:0:
128,135,20393,6,0,P|181:174|196:239,1,136,2|8,0:0|0:0,0:0:0:0:
147,313,20867,2,0,P|114:302|76:303,1,68
9,355,21183,1,0,0:0:0:0:
16,170,21341,2,0,L|22:251,1,68,8|2,0:0|0:0,0:0:0:0:
25,156,21814,2,0,P|55:172|89:178,1,68,2|0,0:0|0:0,0:0:0:0:
175,157,22130,1,2,0:0:0:0:
118,25,22288,2,0,P|112:59|113:93,1,68,0|8,0:0|0:0,0:0:0:0:
139,232,22604,6,0,P|185:183|250:171,1,136,2|8,0:0|0:0,0:0:0:0:
336,193,23077,2,0,P|321:224|312:278,1,68
402,251,23393,1,0,0:0:0:0:
250,171,23551,1,8,0:0:0:0:
413,265,23709,1,2,0:0:0:0:
413,265,24025,6,0,P|385:270|349:289,1,50.9999984436036,0|6,0:0|0:0,0:0:0:0:
293,356,24341,1,0,0:0:0:0:
293,356,24499,2,0,P|313:354|381:367,1,76.4999976654053
368,362,24814,5,6,0:0:0:0:
264,234,24972,1,0,0:0:0:0:
218,308,25130,1,8,0:0:0:0:
231,150,25288,2,0,P|198:92|134:70,1,136
294,72,25762,1,8,0:0:0:0:
143,160,25920,1,2,0:0:0:0:
143,160,26235,2,0,P|111:167|77:166,1,68,2|0,0:0|0:0,0:0:0:0:
204,224,26551,1,2,0:0:0:0:
86,286,26709,2,0,P|57:269|37:243,1,68
34,62,27025,5,2,0:0:0:0:
54,148,27183,1,0,0:0:0:0:
244,97,27341,2,0,P|181:72|116:85,1,136,8|0,0:0|0:0,0:0:0:0:
54,148,27814,1,0,0:0:0:0:
86,5,27972,1,8,0:0:0:0:
65,162,28130,1,2,0:0:0:0:
65,162,28446,2,0,P|37:181|18:210,1,68,2|0,0:0|0:0,0:0:0:0:
152,210,28762,2,0,P|209:225|294:191,1,136,2|0,0:0|0:0,0:0:0:0:
400,53,29235,6,0,P|365:89|350:139,1,101.999996887207,4|0,0:0|0:0,0:0:0:0:
374,215,29709,1,0,0:0:0:0:
454,227,29867,2,0,P|478:234|500:245,1,50.9999984436036,8|0,0:0|0:0,0:0:0:0:
511,258,30104,2,0,P|458:266|427:282,1,76.4999976654053
371,324,30499,1,0,0:0:0:0:
300,364,30656,2,0,P|274:366|249:361,1,50.9999984436036
178,320,30972,1,0,0:0:0:0:
241,203,31130,1,10,0:0:0:0:
165,325,31288,1,0,0:0:0:0:
249,214,31446,6,0,P|257:148|231:70,1,136,6|8,0:0|0:0,0:0:0:0:
164,195,31920,2,0,P|170:161|164:128,1,68
109,58,32235,1,0,0:0:0:0:
15,148,32393,1,8,0:0:0:0:
192,52,32551,1,2,0:0:0:0:
192,52,32867,6,0,P|230:57|268:52,1,76.4999976654053,2|0,0:0|0:0,0:0:0:0:
280,46,33183,2,0,L|293:117,1,50.9999984436036,2|0,0:0|0:0,0:0:0:0:
367,53,33499,1,2,0:3:0:0:
180,61,33656,5,6,0:0:0:0:
196,147,34130,1,0,0:0:0:0:
282,145,34604,1,0,0:0:0:0:
121,190,35077,1,0,0:0:0:0:
74,264,35393,5,8,0:0:0:0:
74,264,35472,1,8,0:0:0:0:
74,264,35551,2,0,L|82:100,1,148.75,2|0,0:2|0:0,0:0:0:0:
72,127,36183,6,0,P|154:122|212:62,1,170,4|8,0:0|0:0,0:0:0:0:
397,28,36656,2,0,P|357:16|315:19,1,85,2|0,0:2|0:0,0:0:0:0:
209,190,36972,1,2,0:2:0:0:
300,129,37130,1,8,0:0:0:0:
110,45,37288,1,0,0:0:0:0:
106,155,37446,5,0,0:2:0:0:
278,31,37604,2,0,P|240:48|211:79,1,85,0|8,0:0|0:0,0:0:0:0:
194,271,37919,2,0,P|208:231|208:189,1,85
17,196,38235,2,0,P|56:211|99:211,1,85,0|8,0:0|0:0,0:0:0:0:
210,79,38551,1,0,0:0:0:0:
342,268,38709,6,0,P|260:253|208:189,1,170,2|8,0:2|0:0,0:0:0:0:
345,84,39183,2,0,P|339:126|315:161,1,85,2|0,0:2|0:0,0:0:0:0:
152,266,39498,2,0,L|69:247,1,85,2|8,0:2|0:0,0:0:0:0:
170,10,39814,6,0,P|209:84|206:169,1,170,2|0,0:2|0:0,0:0:0:0:
27,126,40288,2,0,L|109:107,1,85,8|0,0:0|0:0,0:0:0:0:
303,96,40604,1,0,0:0:0:0:
115,113,40761,1,0,0:0:0:0:
272,15,40919,1,8,0:0:0:0:
198,211,41077,1,0,0:0:0:0:
198,211,41156,1,0,0:0:0:0:
198,211,41235,6,0,P|221:132|188:55,1,170,4|8,0:0|0:0,0:0:0:0:
61,158,41709,2,0,P|38:237|71:314,1,170
165,374,42183,1,8,0:0:0:0:
290,228,42340,1,0,0:0:0:0:
290,227,42656,6,0,P|278:268|252:302,1,85,0|8,0:0|0:0,0:0:0:0:
178,218,42972,1,0,0:0:0:0:
344,134,43130,2,0,P|332:93|306:59,1,85
129,63,43446,1,8,0:0:0:0:
220,125,43604,1,0,0:0:0:0:
57,184,43761,6,0,P|41:265|83:337,1,170,4|8,0:0|0:0,0:0:0:0:
180,244,44235,2,0,P|251:286|333:271,1,170,0|0,0:2|0:0,0:0:0:0:
300,93,44709,2,0,P|301:136|290:177,1,85,8|0,0:0|0:0,0:0:0:0:
285,183,44946,1,0,0:0:0:0:
279,189,45025,6,0,P|316:168|358:160,1,85,10|0,0:0|0:0,0:0:0:0:
509,271,45340,2,0,P|467:263|431:243,1,85,10|0,0:0|0:0,0:0:0:0:
408,60,45656,5,8,0:0:0:0:
334,315,45893,5,8,0:0:0:0:
151,125,46130,5,4,0:0:0:0:
326,170,46288,6,0,P|282:189|235:189,1,95.6250036478044,4|0,0:0|0:0,0:0:0:0:
219,182,46603,2,0,P|229:213|232:245,1,63.7500024318696
231,335,46919,1,0,0:0:0:0:
231,335,47235,2,0,P|188:314|140:314,1,95.6250036478044,4|0,0:0|0:0,0:0:0:0:
127,323,47551,2,0,P|95:328|64:322,1,63.7500024318696
99,239,47866,1,0,0:0:0:0:
99,239,48182,6,0,P|129:231|165:200,1,63.7500024318696
240,87,48498,2,0,P|228:133|239:180,1,95.6250036478044,4|0,0:0|0:0,0:0:0:0:
252,191,48814,2,0,L|329:186,1,63.7500024318696
401,211,49130,1,0,0:0:0:0:
401,211,49445,2,0,P|412:256|402:303,1,95.6250036478044,4|0,0:0|0:0,0:0:0:0:
389,314,49761,2,0,L|312:309,1,63.7500024318696
237,329,50077,1,0,0:0:0:0:
237,329,50393,6,0,P|230:297|216:269,1,63.7500024318696,2|0,0:0|0:0,0:0:0:0:
81,318,50709,2,0,L|145:323,1,63.7500024318696,4|0,0:0|0:0,0:0:0:0:
194,187,51024,2,0,L|98:195,1,95.6250036478044
98,195,51340,1,8,0:0:0:0:
302,58,51656,1,4,0:0:0:0:
279,144,51814,1,0,0:0:0:0:
365,123,51972,2,0,P|396:118|437:116,1,63.7500024318696
217,80,52288,1,8,0:0:0:0:
217,80,52603,2,0,P|199:104|190:147,1,63.7500024318696
197,157,52840,1,0,0:0:0:0:
197,157,52919,6,0,P|152:139|105:140,1,95.6250036478044,4|0,0:0|0:0,0:0:0:0:
93,150,53235,2,0,P|62:161|31:161,1,63.7500024318696
134,236,53551,1,8,0:0:0:0:
134,236,53866,1,4,0:0:0:0:
223,236,54024,1,0,0:0:0:0:
337,209,54182,2,0,P|318:235|306:265,1,63.7500024318696
419,174,54498,1,8,0:0:0:0:
419,174,54814,1,0,0:0:0:0:
346,121,54972,1,0,0:0:0:0:
346,121,55051,1,0,0:0:0:0:
345,120,55130,6,0,P|326:88|321:50,1,76.4999976654053,4|0,0:0|0:0,0:0:0:0:
329,38,55445,2,0,P|305:49|280:53,1,50.9999984436036,2|0,0:0|0:0,0:0:0:0:
151,55,55761,2,0,P|174:66|200:70,1,50.9999984436036,2|0,0:0|0:0,0:0:0:0:
250,135,56077,2,0,P|232:178|231:219,1,76.4999976654053
235,220,56393,2,0,L|292:215,1,50.9999984436036,2|0,0:0|0:0,0:0:0:0:
186,303,56709,2,0,L|243:308,1,50.9999984436036,2|0,0:0|0:0,0:0:0:0:
124,246,57024,1,0,0:0:0:0:
90,323,57182,1,0,0:0:0:0:
90,323,57261,1,0,0:0:0:0:
90,323,57340,6,0,P|60:299|44:265,1,76.4999976654053,4|0,0:0|0:0,0:0:0:0:
46,252,57656,2,0,P|45:218|36:180,1,50.9999984436036,2|0,0:0|0:0,0:0:0:0:
92,82,57972,2,0,P|92:107|89:133,1,50.9999984436036,2|0,0:0|0:0,0:0:0:0:
179,80,58288,2,0,P|222:68|271:69,1,76.4999976654053
265,75,58603,2,0,P|293:79|338:77,1,50.9999984436036,2|0,0:0|0:0,0:0:0:0:
422,133,58919,2,0,P|397:137|372:138,1,50.9999984436036,2|0,0:0|0:0,0:0:0:0:
259,177,59235,2,0,P|296:185|328:207,1,76.4999976654053
333,220,59551,6,0,P|328:244|328:279,1,50.9999984436036,4|0,0:0|0:0,0:0:0:0:
212,250,59866,2,0,P|216:275|217:300,1,50.9999984436036,2|0,0:0|0:0,0:0:0:0:
104,201,60182,2,0,P|99:225|99:260,1,50.9999984436036,2|0,0:0|0:0,0:0:0:0:
26,357,60498,2,0,P|59:338|97:333,1,76.4999976654053
108,341,60814,2,0,P|137:344|164:341,1,50.9999984436036,2|0,0:0|0:0,0:0:0:0:
181,233,61130,2,0,P|210:230|237:233,1,50.9999984436036,2|0,0:0|0:0,0:0:0:0:
137,109,61445,2,0,P|166:112|193:109,1,50.9999984436036,8|0,0:0|0:0,0:0:0:0:
204,108,61682,1,0,0:0:0:0:
204,108,61761,6,0,P|222:82|250:60,1,50.9999984436036,6|0,0:0|0:0,0:0:0:0:
305,170,62077,2,0,P|333:157|368:151,1,50.9999984436036
367,273,62393,2,0,P|398:276|431:288,1,50.9999984436036,2|0,0:0|0:0,0:0:0:0:
249,279,62709,6,0,P|217:282|184:294,1,50.9999984436036,2|0,0:0|0:0,0:0:0:0:
64,319,63024,2,0,P|88:326|114:328,1,50.9999984436036,2|0,0:0|0:0,0:0:0:0:
151,193,63340,2,0,P|134:212|123:235,1,50.9999984436036,2|0,0:0|0:0,0:0:0:0:
257,184,63656,5,8,0:0:0:0:
252,157,63735,1,0,0:0:0:0:
241,132,63814,1,8,0:0:0:0:
223,111,63893,1,0,0:0:0:0:
201,95,63972,1,8,0:0:0:0:
175,87,64051,1,0,0:0:0:0:
148,84,64130,1,8,0:0:0:0:
122,89,64209,1,0,0:0:0:0:
97,101,64288,1,8,0:0:0:0:
26,171,64445,5,8,0:0:0:0:
37,177,64524,1,0,0:0:0:0:
48,184,64603,1,8,0:0:0:0:
45,278,64761,1,8,0:0:0:0:
57,274,64840,1,0,0:0:0:0:
69,271,64919,1,8,0:0:0:0:
132,361,65077,1,8,0:0:0:0:
137,349,65156,1,0,0:0:0:0:
144,339,65235,1,8,0:0:0:0:
219,257,65393,5,8,0:0:0:0:
246,237,65471,1,8,0:0:0:0:
277,224,65550,1,8,0:0:0:0:
311,219,65629,1,8,0:0:0:0:
345,223,65708,1,8,0:0:0:0:
376,235,65787,1,8,0:0:0:0:
404,254,65866,1,8,0:0:0:0:
33,300,66182,5,4,0:0:0:0:
308,354,66814,1,2,0:2:0:0:
112,222,67445,1,4,0:0:0:0:
276,252,68077,1,2,0:2:0:0:
222,82,68709,6,0,P|211:114|214:148,1,68,4|8,0:0|0:0,0:0:0:0:
214,148,68945,1,8,0:0:0:0:
214,148,69024,1,8,0:0:0:0:
377,130,69182,2,0,P|345:118|311:121,1,68,8|8,0:0|0:0,0:0:0:0:
311,121,69419,1,8,0:0:0:0:
311,121,69498,1,8,0:0:0:0:
169,232,69656,6,0,P|200:243|234:240,1,68,8|8,0:0|0:0,0:0:0:0:
234,240,69893,1,8,0:0:0:0:
234,240,69972,1,8,0:0:0:0:
105,163,70130,1,8,0:0:0:0:
90,296,70288,1,0,0:0:0:0:
216,116,70445,1,10,0:2:0:0:
216,116,70761,6,0,B|284:164|319:144|319:144|303:96|258:82|178:95,1,276.249987354279
153,104,71235,6,0,P|234:91|279:21,1,170,4|8,0:0|0:0,0:0:0:0:
52,79,71708,2,0,P|65:160|135:205,1,170
246,205,72182,1,8,0:0:0:0:
54,288,72340,1,0,0:0:0:0:
53,288,72656,6,0,P|95:282|136:295,1,85,0|8,0:0|0:0,0:0:0:0:
224,363,72971,1,0,0:0:0:0:
331,242,73129,2,0,P|338:200|331:158,1,85
225,284,73445,1,8,0:0:0:0:
204,170,73603,1,0,0:0:0:0:
87,345,73761,6,0,P|152:292|235:290,1,170,2|8,0:2|0:0,0:0:0:0:
429,251,74235,2,0,P|345:249|280:196,1,170
408,67,74708,1,8,0:0:0:0:
408,67,74866,2,0,L|383:148,1,85
325,3,75182,1,0,0:0:0:0:
202,120,75340,6,0,P|244:120|284:105,1,85,8|0,0:0|0:0,0:0:0:0:
170,16,75656,1,8,0:0:0:0:
129,1,75735,1,0,0:0:0:0:
87,4,75813,1,8,0:0:0:0:
48,21,75892,1,0,0:0:0:0:
24,56,75971,1,8,0:0:0:0:
18,98,76050,1,0,0:0:0:0:
39,134,76129,1,8,0:0:0:0:
79,148,76208,1,8,0:0:0:0:
120,140,76287,5,4,0:0:0:0:
314,78,76445,2,0,P|275:62|233:63,1,85,2|8,0:2|0:0,0:0:0:0:
169,239,76761,2,0,P|211:239|250:223,1,85,2|0,0:2|0:0,0:0:0:0:
130,108,77077,1,2,0:2:0:0:
61,194,77235,2,0,P|53:235|59:277,1,85,8|0,0:0|0:0,0:0:0:0:
214,363,77550,5,0,0:0:0:0:
213,363,77708,2,0,P|175:346|133:345,1,85,0|8,0:0|0:0,0:0:0:0:
165,155,78024,2,0,L|170:240,1,85
325,334,78340,2,0,L|330:249,1,85,0|8,0:0|0:0,0:0:0:0:
351,139,78656,1,0,0:0:0:0:
240,46,78813,6,0,L|251:215,1,170,4|8,0:0|0:0,0:0:0:0:
415,351,79287,2,0,L|420:266,1,85,2|0,0:2|0:0,0:0:0:0:
340,76,79603,2,0,L|345:161,1,85,2|8,0:2|0:0,0:0:0:0:
325,334,79919,6,0,P|256:285|173:288,1,170,2|0,0:2|0:0,0:0:0:0:
40,291,80392,2,0,P|123:293|191:245,1,170,8|0,0:0|0:0,0:0:0:0:
206,134,80866,1,0,0:0:0:0:
290,311,81024,1,8,0:0:0:0:
333,182,81182,1,0,0:0:0:0:
163,263,81340,6,0,P|124:248|58:113,1,170,4|8,0:0|0:0,0:0:0:0:
151,41,81813,2,0,P|117:117|45:159,1,170
39,48,82287,1,8,0:0:0:0:
192,185,82445,1,0,0:0:0:0:
192,185,82761,5,0,0:0:0:0:
273,22,82919,2,0,P|279:63|268:105,1,85,8|0,0:0|0:0,0:0:0:0:
131,258,83235,2,0,P|199:210|283:214,1,170,0|8,0:0|0:0,0:0:0:0:
380,354,83708,1,0,0:0:0:0:
380,354,83787,1,0,0:0:0:0:
380,354,83866,6,0,P|296:358|228:311,1,170,4|8,0:0|0:0,0:0:0:0:
318,94,84340,2,0,P|335:176|326:261,1,170
149,201,84813,2,0,P|189:187|231:185,1,85,8|8,0:0|0:0,0:0:0:0:
231,185,85050,1,8,0:0:0:0:
231,185,85129,6,0,P|204:152|195:111,1,85,10|0,0:0|0:0,0:0:0:0:
79,0,85445,2,0,P|52:32|42:73,1,85,10|0,0:0|0:0,0:0:0:0:
59,183,85761,1,10,0:0:0:0:
188,26,85919,1,8,0:0:0:0:
230,29,85998,1,0,0:0:0:0:
267,48,86077,1,0,0:0:0:0:
294,81,86156,1,0,0:0:0:0:
307,121,86235,1,8,0:0:0:0:
302,163,86313,1,8,0:0:0:0:
281,200,86392,5,6,0:0:0:0:
109,134,86550,2,0,P|150:125|192:134,1,85,8|0,0:0|0:0,0:0:0:0:
306,197,86866,5,2,0:0:0:0:
230,29,87024,2,0,P|264:53|287:89,1,85,8|0,0:0|0:0,0:0:0:0:
328,197,87340,5,2,0:0:0:0:
357,0,87498,1,12,0:0:0:0:
256,192,87577,12,0,88524,0:0:0:0:
