osu file format v14

[General]
AudioFilename: NanaHitsuji.mp3
AudioLeadIn: 0
PreviewTime: 36025
Countdown: 0
SampleSet: Soft
StackLeniency: 0.7
Mode: 0
LetterboxInBreaks: 0
WidescreenStoryboard: 0

[Editor]
Bookmarks: 13537,15747,29010,31221,33431,35958,46062,50388,54904,63431,65957,71010,76282,81334,87273
DistanceSpacing: 1.3
BeatDivisor: 4
GridSize: 32
TimelineZoom: 1.7

[Metadata]
Title:Nana Hitsuji
TitleUnicode:ナナヒツジ
Artist:Scenarioart
ArtistUnicode:シナリオアート
Creator:Milan-
Version:Hard
Source:すべてがFになる THE PERFECT INSIDER
Tags:ending ed Subete ga F ni Naru
BeatmapID:897934
BeatmapSetID:411334

[Difficulty]
HPDrainRate:6
CircleSize:4
OverallDifficulty:6
ApproachRate:8
SliderMultiplier:1.4
SliderTickRate:1

[Events]
//Background and Video events
Video,0,"flawedoutsider.avi"
0,0,"52843939_p0.jpg",0,0
//Break Periods
//Storyboard Layer 0 (Background)
//Storyboard Layer 1 (Fail)
//Storyboard Layer 2 (Pass)
//Storyboard Layer 3 (Foreground)
//Storyboard Sound Samples

[TimingPoints]
499,315.789473684211,7,3,1,42,1,0
499,-125,7,3,1,42,0,0
4920,-100,7,3,1,55,0,0
13762,-166.666666666667,7,3,1,42,0,0
15972,-125,7,3,1,50,0,0
24025,-166.666666666667,7,3,1,30,0,0
24735,-166.666666666667,7,3,1,10,0,0
24814,-125,7,3,1,50,0,0
29235,-166.666666666667,7,3,1,42,0,0
31446,-125,7,3,1,50,0,0
32867,-166.666666666667,7,3,1,42,0,0
33656,315.789473684211,4,3,1,42,1,0
33656,-166.666666666667,4,3,1,42,0,0
33813,-166.666666666667,4,3,1,30,0,0
35550,-200,4,3,1,35,0,0
35629,-200,4,3,1,10,0,0
36182,-100,4,3,1,63,0,1
45656,-133.333333333333,4,3,0,42,0,0
46288,315.789473684211,7,3,2,50,1,0
46288,-133.333333333333,7,3,2,50,0,0
55130,-166.666666666667,7,3,1,50,0,0
55209,-166.666666666667,7,3,2,50,0,0
63656,315.789473684211,4,3,1,55,1,0
63656,-125,4,3,1,55,0,0
66182,-125,4,3,1,42,0,0
66813,-125,4,3,1,35,0,0
67445,-125,4,3,1,42,0,0
68077,-125,4,3,1,35,0,0
68708,-125,4,3,1,50,0,0
70761,-83.3333333333333,4,3,1,30,0,0
70840,-83.3333333333333,4,3,1,10,0,0
71234,-100,4,3,1,63,0,1
75656,-100,4,3,1,63,0,0
76287,-100,4,3,1,63,0,1
86392,-100,4,3,1,58,0,0
88524,-100,4,2,1,5,0,0

[Colours]
Combo1 : 219,77,101
Combo2 : 198,204,149
Combo3 : 118,108,236
Combo4 : 105,209,159

[HitObjects]
319,182,341,6,0,L|309:130,2,35,8|0|6,0:3|0:3|0:3,0:0:0:0:
295,262,656,2,0,P|246:238|190:238,1,112,0|0,0:0|0:0,0:0:0:0:
100,303,1130,2,0,L|80:235,1,56,0|0,0:0|0:0,0:0:0:0:
71,118,1446,1,8,0:0:0:0:
151,148,1604,2,0,P|206:153|258:133,1,112,0|0,0:0|0:0,0:0:0:0:
357,57,2077,2,0,L|412:63,1,56,0|0,0:0|0:0,0:0:0:0:
374,175,2393,2,0,L|318:181,1,56,8|0,0:0|0:0,0:0:0:0:
446,258,2709,6,0,P|450:274|454:331,1,56,6|0,0:2|0:0,0:0:0:0:
364,257,3025,2,0,P|370:284|372:312,1,56,2|0,0:2|0:0,0:0:0:0:
320,383,3341,2,0,P|325:355|329:327,1,56,2|0,0:2|0:2,0:0:0:0:
239,380,3656,2,0,P|245:352|248:325,1,56,10|0,0:2|0:2,0:0:0:0:
280,246,3972,2,0,P|255:197|257:142,1,112
294,65,4446,1,8,0:0:0:0:
294,65,4525,1,8,0:0:0:0:
294,65,4604,1,10,0:0:0:0:
294,65,4920,6,0,P|210:37|154:40,1,140,4|8,0:0|0:0,0:0:0:0:
57,138,5393,2,0,P|90:127|125:123,1,70,0|0,0:0|0:0,0:0:0:0:
74,222,5709,2,0,P|107:211|141:206,1,70,0|8,0:0|0:0,0:0:0:0:
100,307,6025,1,2,0:0:0:0:
219,121,6341,1,2,0:0:0:0:
176,358,6656,2,0,P|239:322|311:318,1,140,2|8,0:0|0:0,0:0:0:0:
440,349,7130,6,0,P|382:308|368:238,1,140,6|8,0:0|0:0,0:0:0:0:
408,95,7604,2,0,P|415:130|415:165,1,70,0|0,0:0|0:0,0:0:0:0:
325,91,7920,2,0,P|332:125|331:160,1,70,0|8,0:0|0:0,0:0:0:0:
244,86,8235,1,2,0:0:0:0:
367,243,8551,1,2,0:0:0:0:
164,78,8867,2,0,P|92:81|21:118,1,140,2|8,0:0|0:0,0:0:0:0:
32,272,9341,6,0,P|58:207|112:164,1,140,6|8,0:0|0:0,0:0:0:0:
233,238,9814,2,0,P|209:240|164:238,1,70,0|0,0:0|0:0,0:0:0:0:
98,345,10130,2,0,P|122:346|167:344,1,70,0|8,0:0|0:0,0:0:0:0:
281,309,10446,2,0,P|341:305|408:340,1,105,2|0,0:0|0:0,0:0:0:0:
395,335,10762,2,0,L|373:215,1,105,2|0,0:0|0:0,0:0:0:0:
384,214,11077,1,2,0:0:0:0:
478,177,11235,2,0,L|473:262,1,70,0|8,0:0|0:0,0:0:0:0:
404,350,11551,6,0,P|362:329|262:328,1,140,4|8,0:0|0:0,0:0:0:0:
167,299,12025,2,0,P|177:321|189:374,1,70,0|0,0:0|0:0,0:0:0:0:
72,307,12341,2,0,P|80:273|94:241,1,70,0|8,0:0|0:0,0:0:0:0:
237,147,12656,2,0,P|165:159|120:140,1,105,2|0,0:0|0:0,0:0:0:0:
123,134,12972,2,0,L|114:27,1,105,2|0,0:0|0:0,0:0:0:0:
129,15,13288,1,2,0:0:0:0:
24,57,13446,2,0,L|38:137,1,70,0|8,0:0|0:0,0:0:0:0:
46,246,13762,5,6,0:0:0:0:
46,246,14393,2,0,L|123:235,2,62.9999980773926,8|8|8,0:0|0:0|0:0,0:0:0:0:
46,246,15183,1,8,0:0:0:0:
87,141,15341,2,0,L|138:148,1,41.9999987182618,8|2,0:0|0:2,0:0:0:0:
136,154,15577,1,0,0:0:0:0:
144,161,15656,1,2,0:3:0:0:
349,147,15972,6,0,P|300:119|245:115,1,112,4|8,0:0|0:0,0:0:0:0:
181,68,16446,2,0,P|236:63|284:36,1,112,0|0,0:0|0:0,0:0:0:0:
360,6,16920,2,0,P|387:6|439:19,1,56,8|2,0:0|0:0,0:0:0:0:
415,10,17393,2,0,L|408:77,1,56,2|0,0:0|0:0,0:0:0:0:
333,151,17709,2,0,L|340:218,1,56,2|0,0:0|0:0,0:0:0:0:
397,303,18025,1,8,0:0:0:0:
280,302,18183,6,0,P|231:300|159:330,1,112,2|8,0:0|0:0,0:0:0:0:
102,362,18656,2,0,P|68:362|-5:298,1,112,0|0,0:0|0:0,0:0:0:0:
57,183,19130,1,8,0:0:0:0:
79,274,19288,1,2,0:0:0:0:
79,274,19604,2,0,P|126:253|153:248,1,56,2|0,0:0|0:0,0:0:0:0:
252,201,19920,2,0,P|205:180|178:175,1,56,2|0,0:0|0:0,0:0:0:0:
81,179,20235,1,8,0:0:0:0:
174,86,20393,6,0,P|265:71|301:82,1,112,2|8,0:0|0:0,0:0:0:0:
347,120,20867,2,0,P|402:125|455:109,1,112,0|0,0:0|0:0,0:0:0:0:
509,51,21341,2,0,L|477:-4,1,56,8|2,0:0|0:0,0:0:0:0:
480,2,21814,2,0,P|459:15|420:22,1,56,2|0,0:0|0:0,0:0:0:0:
352,106,22130,2,0,P|328:113|288:109,1,56,2|0,0:0|0:0,0:0:0:0:
202,50,22446,1,8,0:0:0:0:
179,175,22604,6,0,L|186:291,1,112,2|8,0:0|0:0,0:0:0:0:
273,328,23077,2,0,L|279:216,1,112,0|0,0:0|0:0,0:0:0:0:
367,174,23551,2,0,L|372:245,1,56,8|2,0:0|0:0,0:0:0:0:
370,229,24025,6,0,L|424:215,2,41.9999987182618,0|6|0,0:0|0:0|0:0,0:0:0:0:
279,216,24499,1,0,0:0:0:0:
279,216,24814,6,0,L|266:149,1,56,6|0,0:0|0:0,0:0:0:0:
205,255,25130,1,8,0:0:0:0:
205,255,25288,2,0,P|145:232|79:235,1,112,0|0,0:0|0:0,0:0:0:0:
25,262,25762,2,0,L|37:328,1,56,8|2,0:0|0:0,0:0:0:0:
35,317,26235,2,0,P|68:306|111:300,1,56,2|0,0:0|0:0,0:0:0:0:
196,348,26551,2,0,P|252:355|318:328,1,112,2|0,0:0|0:0,0:0:0:0:
388,257,27025,6,0,L|382:189,1,56,2|0,0:0|0:0,0:0:0:0:
310,153,27341,2,0,L|304:282,1,112,8|0,0:0|0:0,0:0:0:0:
229,228,27814,1,0,0:0:0:0:
148,208,27972,2,0,L|152:263,1,56,8|2,0:0|0:0,0:0:0:0:
152,263,28446,2,0,P|131:255|98:250,1,56,2|0,0:0|0:0,0:0:0:0:
40,335,28762,2,0,P|74:328|155:347,1,112,2|0,0:0|0:0,0:0:0:0:
251,384,29235,6,0,P|339:354|389:349,1,125.999996154785,4|0,0:0|0:0,0:0:0:0:
450,360,29867,2,0,L|461:316,1,41.9999987182618,8|0,0:0|0:0,0:0:0:0:
385,271,30183,2,0,P|376:248|377:180,1,83.9999974365235,0|0,0:0|0:0,0:0:0:0:
323,114,30656,2,0,P|288:162|257:180,1,83.9999974365235,0|0,0:0|0:0,0:0:0:0:
171,136,31130,2,0,P|153:129|121:126,1,41.9999987182618,10|0,0:0|0:0,0:0:0:0:
186,230,31446,6,0,P|196:264|193:355,1,112,6|8,0:0|0:0,0:0:0:0:
120,363,31920,2,0,L|-8:363,1,112,0|0,0:0|0:0,0:0:0:0:
18,263,32393,2,0,L|78:271,1,56,8|2,0:0|0:0,0:0:0:0:
73,270,32867,6,0,L|78:221,1,41.9999987182618,2|0,0:0|0:0,0:0:0:0:
140,123,33183,2,0,L|145:172,1,41.9999987182618,2|0,0:0|0:0,0:0:0:0:
192,259,33499,1,2,0:3:0:0:
282,165,33656,6,0,B|321:154|321:154|348:166|374:159|374:159|406:149,4,125.999996154785,6|0|0|0|2,0:0|0:0|0:0|0:0|0:2,0:0:0:0:
444,82,36183,6,0,P|445:109|438:239,1,140,4|8,0:0|0:0,0:0:0:0:
381,328,36656,2,0,P|359:316|309:299,1,70,2|0,0:2|0:0,0:0:0:0:
207,239,36972,2,0,P|229:227|354:205,1,140,2|0,0:2|0:0,0:0:0:0:
440,221,37446,5,0,0:2:0:0:
400,139,37604,2,0,P|392:117|389:50,1,70,0|8,0:0|0:0,0:0:0:0:
487,21,37919,2,0,P|484:55|473:89,1,70,0|0,0:0|0:0,0:0:0:0:
400,139,38235,2,0,P|356:133|257:129,1,140,0|0,0:0|0:0,0:0:0:0:
169,169,38709,6,0,P|213:163|312:159,1,140,2|8,0:2|0:0,0:0:0:0:
408,242,39183,2,0,P|388:246|327:247,1,70,2|0,0:2|0:0,0:0:0:0:
473,311,39498,2,0,P|454:320|396:336,1,70,2|8,0:2|0:0,0:0:0:0:
278,317,39814,6,0,P|208:307|139:318,1,140,2|0,0:2|0:0,0:0:0:0:
68,384,40288,2,0,P|92:319|86:250,1,140,8|0,0:0|0:0,0:0:0:0:
26,137,40761,1,0,0:0:0:0:
26,137,40919,1,8,0:0:0:0:
114,157,41077,1,0,0:0:0:0:
192,56,41235,6,0,P|262:41|336:68,1,140,4|8,0:0|0:0,0:0:0:0:
385,130,41709,2,0,L|369:269,1,140,0|0,0:0|0:0,0:0:0:0:
284,325,42183,2,0,L|274:247,1,70,8|0,0:0|0:0,0:0:0:0:
275,255,42656,6,0,P|256:288|219:313,1,70,0|8,0:0|0:0,0:0:0:0:
187,226,42972,1,0,0:0:0:0:
254,165,43130,2,0,P|312:156|416:161,1,140,0|8,0:0|0:0,0:0:0:0:
478,191,43604,1,0,0:0:0:0:
427,67,43761,6,0,P|397:58|262:53,1,140,4|8,0:0|0:0,0:0:0:0:
189,42,44235,2,0,P|211:112|216:198,1,140,0|0,0:2|0:0,0:0:0:0:
153,297,44709,2,0,P|157:329|177:377,1,70,8|0,0:0|0:0,0:0:0:0:
306,331,45025,6,0,P|283:317|222:308,1,70,10|0,0:0|0:0,0:0:0:0:
88,321,45340,2,0,P|122:314|152:297,1,70,10|0,0:0|0:0,0:0:0:0:
207,221,45656,6,0,B|212:179|212:179|214:126,2,78.7500030040742,8|8|4,0:0|0:0|0:0,0:0:0:0:
131,158,46288,6,0,L|43:164,1,78.7500030040742,4|0,0:0|0:0,0:0:0:0:
43,176,46603,2,0,L|37:120,1,52.5000020027161,0|0,0:0|0:0,0:0:0:0:
56,46,46919,1,0,0:0:0:0:
213,116,47235,2,0,L|301:122,1,78.7500030040742,4|0,0:0|0:0,0:0:0:0:
301,134,47551,2,0,L|307:78,1,52.5000020027161,0|0,0:0|0:0,0:0:0:0:
288,4,47866,1,0,0:0:0:0:
381,192,48182,1,0,0:0:0:0:
174,226,48498,6,0,P|208:233|253:260,2,78.7500030040742,4|0|0,0:0|0:0|0:0,0:0:0:0:
97,247,49130,1,0,0:0:0:0:
242,339,49445,2,0,P|207:346|163:373,2,78.7500030040742,4|0|0,0:0|0:0|0:0,0:0:0:0:
319,360,50077,1,0,0:0:0:0:
97,247,50393,1,2,0:0:0:0:
325,144,50709,6,0,P|296:161|223:173,1,105.000004005432,4|0,0:0|0:0,0:0:0:0:
342,150,51340,1,8,0:0:0:0:
101,66,51656,1,4,0:0:0:0:
117,143,51814,1,0,0:0:0:0:
132,220,51972,1,0,0:0:0:0:
357,156,52288,1,8,0:0:0:0:
357,156,52603,2,0,L|363:238,1,78.7500030040742
353,260,52919,6,0,P|352:291|389:375,1,105.000004005432,4|0,0:0|0:0,0:0:0:0:
362,234,53551,1,8,0:0:0:0:
158,337,53866,1,4,0:0:0:0:
153,259,54024,1,0,0:0:0:0:
147,180,54182,1,0,0:0:0:0:
374,226,54498,1,8,0:0:0:0:
374,226,54814,1,0,0:0:0:0:
317,141,54972,5,0,0:0:0:0:
317,141,55051,1,0,0:0:0:0:
317,141,55130,2,0,P|292:133|225:129,2,83.9999974365235,4|2|2,0:0|0:0|0:0,0:0:0:0:
452,285,56077,1,0,0:0:0:0:
264,217,56393,2,0,P|264:243|268:274,1,41.9999987182618,2|0,0:0|0:0,0:0:0:0:
239,332,56709,2,0,P|239:306|243:275,1,41.9999987182618,2|0,0:0|0:0,0:0:0:0:
180,238,57024,2,0,P|186:263|198:292,1,41.9999987182618,0|0,0:0|0:0,0:0:0:0:
320,320,57340,6,0,P|363:320|410:311,2,83.9999974365235,4|2|2,0:0|0:0|0:0,0:0:0:0:
131,248,58288,1,0,0:0:0:0:
278,110,58603,2,0,P|284:129|285:151,1,41.9999987182618,2|0,0:0|0:0,0:0:0:0:
360,131,58919,2,0,P|350:148|336:165,1,41.9999987182618,2|0,0:0|0:0,0:0:0:0:
404,204,59235,2,0,P|385:210|362:211,1,41.9999987182618,0|0,0:0|0:0,0:0:0:0:
256,249,59551,6,0,P|270:279|271:340,2,83.9999974365235,4|2|2,0:0|0:0|0:0,0:0:0:0:
383,382,60498,1,0,0:0:0:0:
194,306,60814,2,0,P|168:307|146:307,1,41.9999987182618,2|0,0:0|0:0,0:0:0:0:
85,276,61130,2,0,P|105:275|126:277,1,41.9999987182618,2|0,0:0|0:0,0:0:0:0:
207,322,61445,2,0,P|227:322|279:293,1,62.9999980773926,8|0,0:0|0:0,0:0:0:0:
280,295,61761,6,0,P|281:271|286:246,1,41.9999987182618,6|0,0:0|0:0,0:0:0:0:
314,182,62077,2,0,P|315:205|320:231,1,41.9999987182618,0|0,0:0|0:0,0:0:0:0:
358,290,62393,2,0,P|359:266|364:241,1,41.9999987182618,2|0,0:0|0:0,0:0:0:0:
416,166,62709,6,0,P|414:142|410:122,1,41.9999987182618,2|0,0:0|0:0,0:0:0:0:
332,90,63024,2,0,P|330:114|326:134,1,41.9999987182618,2|0,0:0|0:0,0:0:0:0:
250,182,63340,2,0,P|248:158|244:138,1,41.9999987182618,2|0,0:0|0:0,0:0:0:0:
194,47,63656,5,8,0:0:0:0:
190,60,63735,1,0,0:0:0:0:
185,73,63814,1,8,0:0:0:0:
179,86,63893,1,0,0:0:0:0:
173,98,63972,2,0,P|123:101|48:137,1,112,8|8,0:0|0:0,0:0:0:0:
30,205,64445,6,0,L|3:213,2,28,8|0|8,0:0|0:0|0:0,0:0:0:0:
36,290,64761,2,0,L|9:298,2,28,8|0|8,0:0|0:0|0:0,0:0:0:0:
48,373,65077,2,0,L|21:381,2,28,8|0|8,0:0|0:0|0:0,0:0:0:0:
123,333,65393,5,8,0:0:0:0:
211,351,65551,1,8,0:0:0:0:
211,351,65630,1,8,0:0:0:0:
211,351,65709,2,0,P|207:318|202:282,1,56,8|8,0:0|0:0,0:0:0:0:
439,331,66182,5,4,0:0:0:0:
271,216,66814,1,2,0:2:0:0:
356,337,67445,1,4,0:0:0:0:
352,252,68077,1,2,0:2:0:0:
352,252,68709,6,0,P|324:246|289:246,1,56,4|8,0:0|0:0,0:0:0:0:
221,268,69024,1,8,0:0:0:0:
134,234,69182,2,0,P|140:262|140:297,1,56,8|8,0:0|0:0,0:0:0:0:
118,365,69498,1,8,0:0:0:0:
218,356,69656,6,0,P|246:350|281:350,1,56,8|8,0:0|0:0,0:0:0:0:
349,372,69972,1,8,0:0:0:0:
421,288,70130,2,0,L|419:216,1,56,8|0,0:0|0:0,0:0:0:0:
377,143,70445,1,10,0:2:0:0:
376,142,70761,6,0,P|278:113|188:161,1,209.999993591309,0|0,0:0|0:0,0:0:0:0:
178,182,71235,6,0,P|185:129|145:49,1,140,4|8,0:0|0:0,0:0:0:0:
22,56,71708,2,0,P|15:109|55:189,1,140,0|0,0:0|0:0,0:0:0:0:
115,250,72182,2,0,P|121:284|115:318,1,70,8|0,0:0|0:0,0:0:0:0:
114,318,72656,6,0,P|147:304|181:299,1,70,0|8,0:0|0:0,0:0:0:0:
266,333,72971,1,0,0:0:0:0:
336,275,73129,2,0,P|363:211|360:142,1,140,0|8,0:0|0:0,0:0:0:0:
313,63,73603,1,0,0:0:0:0:
233,163,73761,6,0,P|179:177|72:159,1,140,2|8,0:2|0:0,0:0:0:0:
34,108,74235,2,0,P|56:162|56:263,1,140,0|0,0:0|0:0,0:0:0:0:
0,300,74708,2,0,P|54:286|161:304,1,140,8|0,0:0|0:0,0:0:0:0:
221,330,75182,1,0,0:0:0:0:
274,231,75340,6,0,L|269:146,1,70,8|0,0:0|0:0,0:0:0:0:
383,111,75656,2,0,L|378:180,1,70,8|8,0:0|0:0,0:0:0:0:
374,294,75971,1,8,0:0:0:0:
378,307,76050,1,0,0:0:0:0:
383,320,76129,1,8,0:0:0:0:
389,333,76208,1,8,0:0:0:0:
395,345,76287,6,0,P|447:331|509:246,1,140,4|8,0:0|0:0,0:0:0:0:
465,164,76761,2,0,P|460:142|454:82,1,70,2|0,0:2|0:0,0:0:0:0:
371,9,77077,2,0,P|363:67|317:147,1,140,2|0,0:2|0:0,0:0:0:0:
248,187,77550,5,0,0:0:0:0:
168,143,77708,2,0,P|134:133|99:134,1,70,0|8,0:0|0:0,0:0:0:0:
44,234,78024,2,0,P|78:234|112:225,1,70,0|0,0:0|0:0,0:0:0:0:
175,146,78340,2,0,P|176:93|194:3,1,140,0|0,0:0|0:0,0:0:0:0:
314,46,78813,6,0,P|328:114|331:184,1,140,4|8,0:0|0:0,0:0:0:0:
293,267,79287,2,0,P|267:260|208:257,1,70,2|0,0:2|0:0,0:0:0:0:
282,355,79603,2,0,P|256:348|197:345,1,70,2|8,0:2|0:0,0:0:0:0:
113,378,79919,6,0,P|45:367|2:314,1,140,2|0,0:2|0:0,0:0:0:0:
90,289,80392,2,0,P|105:221|81:156,1,140,8|0,0:0|0:0,0:0:0:0:
16,91,80866,1,0,0:0:0:0:
16,91,81024,1,8,0:0:0:0:
102,62,81182,1,0,0:0:0:0:
182,155,81340,6,0,P|262:159|319:126,1,140,4|8,0:0|0:0,0:0:0:0:
380,83,81813,2,0,P|349:145|346:215,1,140,0|0,0:0|0:0,0:0:0:0:
412,278,82287,2,0,P|446:269|486:265,1,70,8|0,0:0|0:0,0:0:0:0:
480,265,82761,5,0,0:0:0:0:
428,362,82919,2,0,P|393:357|359:349,1,70,8|0,0:0|0:0,0:0:0:0:
272,280,83235,2,0,L|253:123,1,140,0|8,0:0|0:0,0:0:0:0:
256,49,83708,1,0,0:0:0:0:
369,107,83866,6,0,L|352:245,1,140,4|8,0:0|0:0,0:0:0:0:
264,287,84340,2,0,P|222:271|114:271,1,140,0|0,0:0|0:0,0:0:0:0:
23,303,84813,2,0,P|37:274|44:219,1,70,8|8,0:0|0:0,0:0:0:0:
90,116,85129,6,0,P|104:147|111:181,1,70,10|0,0:0|0:0,0:0:0:0:
210,187,85445,2,0,P|224:158|231:103,1,70,10|0,0:0|0:0,0:0:0:0:
213,21,85761,2,0,L|298:12,1,70,10|8,0:0|0:0,0:0:0:0:
393,101,86077,2,0,L|323:93,1,70,0|8,0:0|0:0,0:0:0:0:
323,93,86313,1,8,0:0:0:0:
323,93,86392,5,6,0:0:0:0:
364,186,86550,2,0,L|366:255,1,70,8|0,0:0|0:0,0:0:0:0:
247,119,86866,5,2,0:0:0:0:
287,211,87024,2,0,L|289:280,1,70,8|0,0:0|0:0,0:0:0:0:
167,133,87340,5,2,0:0:0:0:
207,225,87498,1,12,0:0:0:0:
256,192,87577,12,0,88524,0:0:0:0:
