osu file format v14

[General]
AudioFilename: NanaHitsuji.mp3
AudioLeadIn: 0
PreviewTime: 36025
Countdown: 0
SampleSet: Soft
StackLeniency: 0.7
Mode: 0
LetterboxInBreaks: 0
WidescreenStoryboard: 1

[Editor]
Bookmarks: 13537,15747,29010,31221,33431,35958,46062,50388,54904,63431,65957,71010,76282,81334,87273
DistanceSpacing: 1.1
BeatDivisor: 4
GridSize: 32
TimelineZoom: 1.9

[Metadata]
Title:Nana Hitsuji
TitleUnicode:ナナヒツジ
Artist:Scenarioart
ArtistUnicode:シナリオアート
Creator:Milan-
Version:Easy
Source:すべてがFになる THE PERFECT INSIDER
Tags:ending ed Subete ga F ni Naru
BeatmapID:897933
BeatmapSetID:411334

[Difficulty]
HPDrainRate:2
CircleSize:3
OverallDifficulty:2
ApproachRate:3
SliderMultiplier:0.8
SliderTickRate:1

[Events]
//Background and Video events
Video,0,"flawedoutsider.avi"
0,0,"52843939_p0.jpg",0,0
//Break Periods
//Storyboard Layer 0 (Background)
//Storyboard Layer 1 (Fail)
//Storyboard Layer 2 (Pass)
//Storyboard Layer 3 (Foreground)
//Storyboard Sound Samples

[TimingPoints]
499,315.789473684211,7,3,1,42,1,0
499,-100,7,3,1,42,0,0
4920,-100,7,3,1,55,0,0
13762,-100,7,3,1,42,0,0
15972,-100,7,3,1,50,0,0
24025,-100,7,3,1,30,0,0
24735,-100,7,3,1,10,0,0
24814,-100,7,3,1,50,0,0
29235,-100,7,3,1,42,0,0
31446,-100,7,3,1,50,0,0
32867,-100,7,3,1,42,0,0
33656,315.789473684211,4,3,1,42,1,0
33813,-100,4,3,1,30,0,0
35550,-100,4,3,1,35,0,0
35629,-100,4,3,1,10,0,0
36182,-100,4,3,1,63,0,1
45656,-100,4,3,0,42,0,0
46288,315.789473684211,7,3,2,50,1,0
55130,-100,7,3,1,50,0,0
55209,-100,7,3,2,50,0,0
63656,315.789473684211,4,3,1,55,1,0
63656,-100,4,3,1,55,0,0
66182,-100,4,3,1,42,0,0
66813,-100,4,3,1,35,0,0
67445,-100,4,3,1,42,0,0
68077,-100,4,3,1,35,0,0
68708,-100,4,3,1,50,0,0
70761,-100,4,3,1,30,0,0
70840,-100,4,3,1,10,0,0
71234,-100,4,3,1,63,0,1
75656,-100,4,3,1,63,0,0
76287,-100,4,3,1,63,0,1
86392,-100,4,3,1,58,0,0
87656,-100,4,3,1,10,0,0
88524,-100,4,2,1,5,0,0

[Colours]
Combo1 : 219,77,101
Combo2 : 198,204,149
Combo3 : 118,108,236
Combo4 : 105,209,159

[HitObjects]
430,134,499,6,0,P|381:165|279:140,1,160,6|0,0:0|0:0,0:0:0:0:
229,78,1446,2,0,L|242:259,1,160,8|0,0:0|0:0,0:0:0:0:
252,324,2393,1,8,0:0:0:0:
321,270,2709,6,0,P|356:271|404:287,2,80,6|2|2,0:2|0:2|0:2,0:0:0:0:
240,237,3656,2,0,P|204:238|157:254,2,80,10|0|0,0:2|0:0|0:0,0:0:0:0:
252,324,4604,1,10,0:0:0:0:
165,343,4920,6,0,P|109:325|75:277,1,120,4|0,0:0|0:0,0:0:0:0:
73,189,5709,1,0,0:0:0:0:
111,108,6025,2,0,P|110:69|96:32,1,80,2|2,0:0|0:0,0:0:0:0:
27,86,6656,1,2,0:0:0:0:
88,203,7130,6,0,P|126:195|221:211,1,120,6|0,0:0|0:0,0:0:0:0:
282,248,7920,1,0,0:0:0:0:
360,208,8235,2,0,L|379:98,1,80,2|2,0:0|0:0,0:0:0:0:
392,42,8867,1,2,0:0:0:0:
468,149,9341,6,0,L|479:289,1,120,6|0,0:0|0:0,0:0:0:0:
445,350,10130,2,0,P|411:343|348:346,1,80,0|2,0:0|0:0,0:0:0:0:
279,364,10762,2,0,P|239:364|199:357,1,80,2|2,0:0|0:0,0:0:0:0:
91,282,11551,6,0,P|105:247|107:157,1,120,4|0,0:0|0:0,0:0:0:0:
81,81,12341,2,0,P|122:77|183:57,1,80,0|2,0:0|0:0,0:0:0:0:
235,23,12972,2,0,P|273:33|313:37,1,80,2|2,0:0|0:0,0:0:0:0:
445,26,13762,5,6,0:0:0:0:
381,190,14393,2,0,B|371:268|371:268|391:338,1,120,8|8,0:0|0:0,0:0:0:0:
299,337,15183,2,0,B|285:297|285:297|232:239,1,120,8|2,0:0|0:3,0:0:0:0:
144,232,15972,6,0,P|42:166|132:83,1,280,4|2,0:0|0:0,0:0:0:0:
216,106,17393,2,0,P|255:106|293:94,1,80,2|2,0:0|0:0,0:0:0:0:
408,27,18183,6,0,P|371:150|423:290,1,280,2|2,0:0|0:0,0:0:0:0:
490,341,19604,1,2,0:0:0:0:
409,375,19920,1,2,0:0:0:0:
296,306,20393,6,0,B|244:254|176:273|176:273|129:312|79:312|43:276,1,280,2|2,0:0|0:0,0:0:0:0:
106,215,21814,2,0,P|108:175|99:136,1,80,2|2,0:0|0:0,0:0:0:0:
136,9,22604,6,0,P|205:89|375:91,1,280,2|2,0:0|0:0,0:0:0:0:
484,159,24183,1,6,0:0:0:0:
425,324,24814,6,0,P|357:265|145:282,1,280,6|2,0:0|0:0,0:0:0:0:
100,309,26235,1,2,0:0:0:0:
14,288,26551,1,2,0:0:0:0:
83,189,27025,6,0,B|101:138|56:83|56:83|136:142|225:102,1,280,2|2,0:0|0:0,0:0:0:0:
292,71,28446,1,2,0:0:0:0:
354,8,28762,1,2,0:0:0:0:
426,120,29235,6,0,L|413:297,1,160,4|8,0:0|0:0,0:0:0:0:
204,345,30656,2,0,L|194:223,1,120,0|10,0:0|0:0,0:0:0:0:
129,165,31446,6,0,P|253:168|341:39,1,280,6|2,0:0|0:0,0:0:0:0:
257,19,32867,1,2,0:0:0:0:
176,54,33183,2,0,B|105:54|105:54|35:41,1,120,2|6,0:0|0:0,0:0:0:0:
426,18,35551,5,2,0:2:0:0:
351,177,36183,6,0,L|363:322,2,120,4|2|8,0:0|0:2|0:0,0:0:0:0:
271,138,37446,2,0,L|280:18,2,120,0|0|8,0:2|0:0|0:0,0:0:0:0:
210,201,38709,6,0,P|114:219|17:82,1,280,2|2,0:2|0:2,0:0:0:0:
81,27,40130,2,0,L|210:37,1,120,0|0,0:0|0:0,0:0:0:0:
284,64,40919,1,8,0:0:0:0:
369,85,41235,6,0,L|498:75,2,120,4|0|8,0:0|0:0|0:0,0:0:0:0:
243,126,42656,2,0,L|250:280,1,120,0|0,0:0|0:0,0:0:0:0:
258,333,43446,1,8,0:0:0:0:
177,299,43761,6,0,P|115:292|36:296,2,120,4|0|8,0:0|0:2|0:0,0:0:0:0:
258,333,45025,1,10,0:0:0:0:
340,303,45340,1,10,0:0:0:0:
419,264,45656,1,8,0:0:0:0:
295,137,46288,6,0,P|252:71|180:38,1,160,4|0,0:0|0:0,0:0:0:0:
144,118,47235,2,0,P|215:156|202:234,1,160,4|0,0:0|0:0,0:0:0:0:
148,290,48182,1,0,0:0:0:0:
220,339,48498,6,0,L|403:327,1,160,4|0,0:0|0:0,0:0:0:0:
410,245,49445,2,0,L|227:233,1,160,4|0,0:0|0:0,0:0:0:0:
165,258,50393,1,2,0:0:0:0:
108,190,50709,6,0,P|114:117|156:31,1,160,4|8,0:0|0:0,0:0:0:0:
216,96,51656,2,0,P|328:108|403:83,1,160,4|8,0:0|0:0,0:0:0:0:
440,40,52603,1,0,0:0:0:0:
458,126,52919,6,0,P|459:188|489:306,1,160,4|8,0:0|0:0,0:0:0:0:
510,366,53866,2,0,P|440:332|335:337,1,160,4|8,0:0|0:0,0:0:0:0:
274,356,54814,1,0,0:0:0:0:
223,283,55130,6,0,B|210:187|107:151|27:210|27:210|15:268|72:307|118:284,1,400,4|2,0:0|0:0,0:0:0:0:
223,126,57340,6,0,B|274:91|337:92|388:128|388:128|386:28|314:-10|239:-10|180:22|140:67,1,480,4|0,0:0|0:0,0:0:0:0:
136,128,59551,6,0,P|86:228|303:180,1,480,4|8,0:0|0:0,0:0:0:0:
372,141,61761,6,0,P|356:338|199:220,1,480,6|8,0:0|0:0,0:0:0:0:
256,192,63814,12,4,66182,0:0:0:0:
263,303,67445,6,0,L|431:289,1,160,4|2,0:0|0:2,0:0:0:0:
501,131,68709,2,0,L|349:121,1,120,4|8,0:0|0:0,0:0:0:0:
120,165,70130,1,8,0:0:0:0:
185,223,70445,1,10,0:2:0:0:
342,69,71235,6,0,L|222:61,2,120,4|0|8,0:0|0:0|0:0,0:0:0:0:
461,125,72656,2,0,P|475:182|466:241,1,120,0|0,0:0|0:0,0:0:0:0:
412,311,73445,1,8,0:0:0:0:
338,263,73761,6,0,P|290:247|197:260,2,120,2|0|8,0:2|0:0|0:0,0:0:0:0:
412,311,75024,1,0,0:0:0:0:
466,241,75340,1,8,0:0:0:0:
466,152,75656,1,8,0:0:0:0:
290,156,76287,6,0,L|152:133,2,120,4|2|8,0:0|0:2|0:0,0:0:0:0:
295,68,77550,2,0,L|157:45,2,120,0|0|8,0:0|0:0|0:0,0:0:0:0:
369,115,78813,6,0,P|389:212|232:279,1,280,4|2,0:0|0:2,0:0:0:0:
164,266,80235,2,0,L|37:280,1,120,0|0,0:0|0:0,0:0:0:0:
0,356,81024,1,8,0:0:0:0:
88,362,81340,6,0,L|207:348,2,120,4|0|8,0:0|0:0|0:0,0:0:0:0:
21,248,82761,2,0,P|18:188|45:135,1,120,0|0,0:0|0:0,0:0:0:0:
122,92,83550,1,8,0:0:0:0:
207,112,83866,6,0,L|353:102,2,120,4|0|8,0:0|0:0|0:0,0:0:0:0:
122,92,85129,1,10,0:0:0:0:
147,175,85445,1,10,0:0:0:0:
177,257,85761,1,10,0:0:0:0:
345,204,86392,6,0,L|492:195,1,120,6|6,0:0|0:0,0:0:0:0:
314,103,87498,2,0,B|153:90|153:90|234:27,1,260,12|0,0:0|0:0,0:0:0:0:
