osu file format v9

[General]
AudioFilename: Sayuri Yahagi - Skirt no Hajikko.mp3
AudioLeadIn: 0
PreviewTime: 92730
Countdown: 0
SampleSet: Soft
StackLeniency: 0.5
Mode: 0
LetterboxInBreaks: 1

[Editor]
Bookmarks: 7584,32462,44169,67583,92462,117340,140754,164169,189047,215388
DistanceSpacing: 1.1
BeatDivisor: 4
GridSize: 8

[Metadata]
Title:Skirt no Hajikko
Artist:Sayuri Yahagi
Creator:abalee
Version:Normal
Source:To LOVE Ru
Tags:Sairenji Haruna

[Difficulty]
HPDrainRate:3
CircleSize:4
OverallDifficulty:3
ApproachRate:3
SliderMultiplier:2
SliderTickRate:0.5

[Events]
//Background and Video events
0,0,"BG.jpg"
//Break Periods
2,31192,43089
2,90460,91381
2,116802,139674
2,187046,187967
//Storyboard Layer 0 (Background)
//Storyboard Layer 1 (Fail)
//Storyboard Layer 2 (Pass)
//Storyboard Layer 3 (Foreground)
Sprite,Foreground,Centre,"Lyrics\J-Artist.png",320,240 F,0,32821,33187,0,1 M,0,32821,35382,170,435,200,435 F,0,35017,35382,1,0
Sprite,Foreground,Centre,"Lyrics\E-Artist.png",320,240 F,0,32821,33187,0,1 M,0,32821,35382,200,460,170,460 F,0,35017,35382,1,0
Sprite,Foreground,Centre,"Lyrics\J-Song.png",320,240 F,0,35017,35382,0,1 M,0,35017,37577,170,435,200,435 F,0,37212,37577,1,0
Sprite,Foreground,Centre,"Lyrics\E-Song.png",320,240 F,0,35017,35382,0,1 M,0,35017,37577,200,460,170,460 F,0,37212,37577,1,0
Sprite,Foreground,Centre,"Lyrics\Mapper.png",320,240 F,0,39041,39407,0,1 M,0,39041,42334,170,435,200,435 F,0,41968,42334,1,0
Sprite,Foreground,Centre,"Lyrics\Saikou.png",320,240 F,0,39041,39407,0,1 M,0,39041,42334,200,460,170,460 F,0,41968,42334,1,0
//Storyboard Sound Samples
//Background Colour Transformations
3,100,255,128,192

[TimingPoints]
7578,731.707317073171,4,2,1,71,1,0
8955,-200,4,2,1,71,0,0
9870,-100,4,2,1,71,0,0
11882,-200,4,2,1,71,0,0
12797,-100,4,2,1,71,0,0
17736,-200,4,2,1,71,0,0
18645,-100,4,2,1,71,0,0
20663,-200,4,2,1,71,0,0
25053,-100,4,2,1,63,0,0
67395,-100,4,2,1,51,0,0
210260,-200,4,2,1,51,0,0
212821,-100,4,2,1,21,0,0
214102,-100,4,2,1,36,0,0
214834,-100,4,2,1,51,0,0
215474,-100,4,2,1,51,0,0
237242,-100,4,2,0,0,0,0
238888,-100,4,2,1,51,0,0

[Colours]
Combo1 : 255,128,255
Combo2 : 156,61,184
Combo3 : 43,43,251

[HitObjects]
40,48,7943,1,0
144,48,8309,1,0
248,48,8675,1,0
352,48,9041,2,0,B|352:160,1,100,2|0
440,192,10138,1,0
440,192,10321,1,0
480,336,10870,5,0
376,336,11236,1,0
272,336,11602,1,0
160,336,11968,2,0,L|160:232,1,100,2|0
72,184,13065,1,0
72,184,13248,1,0
136,48,13797,5,0
176,144,14163,1,0
240,64,14529,1,0
280,160,14895,2,0,B|347:161|368:80,1,150,2|0
464,96,15809,1,0
464,96,15992,2,0,B|480:152|464:208,1,100,0|0
424,288,16724,6,0,B|352:280|312:320,1,100
232,328,17456,1,0
144,256,17821,2,0,B|200:232|216:168,1,100,2|0
192,136,18736,2,0,B|133:118,1,50
328,48,19651,5,0
408,104,20017,1,0
456,192,20382,1,0
456,192,20748,2,0,B|368:184|312:232,1,150,2|0
314,229,22029,1,0
192,312,22577,5,0
104,256,22943,1,0
64,168,23309,1,0
64,168,23675,2,0,B|144:168|192:80,1,150,2|0
185,91,24956,1,0
336,104,25504,6,0,B|376:72|440:72,2,100
392,184,26602,2,0,B|416:264|384:352,1,150,2|0
296,216,27699,6,0,B|320:272|296:320,1,100,0|0
216,264,28431,2,0,C|144:264,1,50
96,192,28980,2,0,C|32:192,1,50
48,88,29529,5,2
136,48,29895,1,0
208,112,30260,1,0
264,32,30626,1,0
352,80,30992,1,0
464,64,44529,6,0,B|416:64|328:88|264:72,1,200
144,88,45626,2,0,B|192:120|176:192,1,100,2|0
178,175,46175,2,0,B|336:176,1,150
432,176,47090,1,2
368,256,47456,1,0
368,256,47639,1,0
272,288,48004,2,0,B|208:288,1,50
120,304,48553,1,2
40,120,49285,6,0,B|104:104|160:128|248:112,1,200,0|2
424,48,50748,1,0
424,48,51114,1,0
424,48,51480,2,0,B|480:144|432:256,1,200,2|0
344,264,52577,1,0
240,264,52943,2,0,B|184:296|120:272,2,100,2|0|0
168,192,54041,1,0
168,192,54224,1,0
352,56,56236,6,0,B|408:104,1,50
464,160,56785,2,0,B|384:168|344:256,1,150,0|2
200,240,57882,2,0,B|232:288|208:344,1,100
160,336,58431,2,0,B|48:336,1,100,0|2
56,232,59163,2,0,B|56:128,1,100,0|2
56,32,59895,2,0,B|168:32,1,100,0|2
360,32,60992,5,0
464,32,61358,2,0,B|440:72|448:144,1,100,0|2
496,216,62090,2,0,B|384:216,1,100
336,296,62821,1,0
272,216,63187,2,0,B|160:216,1,100,2|0
104,288,63919,1,0
40,216,64285,6,0,B|16:160,1,50
80,88,64834,1,0
80,88,65017,1,0
168,40,65382,1,2
240,112,65748,1,0
320,56,66114,1,2
376,144,66480,1,0
288,192,66846,2,0,B|272:251,2,50,2|0|0
376,144,67577,5,4
448,216,67943,2,0,C|448:280,1,50,0|4
312,328,68675,1,4
216,328,69041,2,0,C|104:328,2,100,0|0|8
216,224,70138,6,0,C|88:224,1,100,0|4
64,136,70870,2,0,C|64:72,1,50,0|4
208,40,71602,2,0,C|328:40,3,100,4|0|0|8
408,40,73065,5,0
456,128,73431,2,0,B|464:200|424:280,1,150,4|4
280,312,74529,2,0,B|168:312,1,100,4|0
176,216,75260,2,0,B|288:216,1,100,0|8
240,120,75992,5,0
160,56,76358,2,0,B|48:96|64:184,1,150,4|4
72,256,77273,2,0,B|8:256,2,50,0|4|0
304,344,78553,6,0,B|448:344,1,100,8|0
432,248,79285,2,0,B|464:208|464:128,3,100,4|0|0|4
408,72,80748,1,0
304,72,81114,1,0
208,72,81480,1,8
112,72,81846,1,0
48,152,82212,2,0,B|32:208|40:272,2,100,4|0|0
152,152,83309,2,0,B|208:152,1,50,4|0
232,248,83858,2,4,B|296:248,1,50,0|0
312,152,84407,1,8
416,152,84773,6,0,B|416:96|368:56,1,100,0|4
272,40,85504,2,0,B|224:72,1,50,0|4
160,152,86053,2,0,B|176:216,1,50,0|4
264,256,86602,1,0
376,256,86968,2,0,B|392:200|472:184,2,100,0|8|0
256,192,88065,12,0,90260
456,88,92821,5,0
456,192,93187,1,0
456,296,93553,1,0
360,304,93919,2,0,B|256:336|136:296,1,200,4|8
72,264,95017,1,2
72,264,95199,1,0
72,112,95748,5,4
152,56,96114,1,8
232,112,96480,1,0
152,176,96846,2,0,B|192:240|336:240,1,200,4|8
432,240,97943,1,2
432,240,98126,1,0
440,88,98675,5,4
344,56,99041,1,8
256,96,99407,1,0
168,56,99773,2,0,B|80:56|56:168,1,150,4|4
56,248,100687,1,2
56,248,100870,1,0
232,336,101602,5,4
208,240,101968,1,8
304,272,102334,1,0
288,176,102699,2,0,B|384:152|488:176,1,200,4|8
486,175,103797,1,4
328,56,104529,6,0,B|376:48|432:56,2,100,4|8|0
224,56,105626,1,4
120,56,105992,1,0
168,144,106358,1,8
120,232,106724,1,0
120,232,106907,1,4
224,232,107273,1,4
224,232,107456,1,4
168,312,107821,1,8
272,312,108187,6,0,B|376:328|480:312,2,200,0|2|0
240,216,110017,1,0
240,120,110382,5,4
336,96,110748,1,8
392,184,111114,1,0
328,256,111480,1,4
240,216,111846,1,0
240,216,112029,1,4
120,128,112577,6,0,B|96:184|104:248,1,100,0|4
144,320,113309,1,2
144,320,113492,1,0
256,192,113858,12,0,116602
56,80,141114,5,0
160,80,141480,2,0,B|264:80,1,100,0|0
360,80,142212,1,0
424,160,142577,2,0,B|440:216|416:264,1,100,0|8
368,344,143309,1,0
272,328,143675,2,0,B|192:312|120:328,1,150,0|0
48,40,145870,6,0,B|104:64|176:32,1,100,8|0
232,88,146602,1,0
144,136,146968,1,0
88,216,147334,1,0
56,312,147699,2,0,B|152:336|264:312,1,200
344,280,148797,1,8
264,224,149163,1,0
192,160,149529,2,0,B|280:128|392:160,1,200
448,80,150626,1,0
448,80,150809,1,0
56,104,152821,6,0,B|105:96,1,50
144,192,153370,1,0
144,192,153553,2,0,B|184:200|208:192|264:192,1,100
368,88,154468,2,0,B|392:136,1,50,0|8
408,240,155017,1,0
352,320,155382,2,0,B|256:336|136:320,2,200
360,120,157577,5,8
264,112,157943,1,0
192,48,158309,2,0,B|136:88|128:192,2,150
288,24,159773,2,0,B|368:8|456:32,2,150
256,192,161236,12,0,163797
136,240,164163,5,4
64,168,164529,2,0,C|64:104,1,50
200,56,165261,1,4
296,56,165627,2,0,C|408:56,2,100,0|0|8
296,160,166724,6,0,C|424:160,1,100,0|4
448,248,167456,2,0,C|448:312,1,50,0|4
304,344,168188,2,0,C|184:344,3,100,4|0|0|8
104,344,169651,5,0
56,256,170017,2,0,B|48:184|88:104,1,150,4|4
232,72,171115,2,0,B|344:72,1,100,4|0
336,168,171846,2,0,B|224:168,1,100,0|8
152,224,172578,5,0
176,320,172943,2,0,B|256:344|336:312,1,150,4|4
416,288,173859,2,0,B|480:288,2,50,0|4|0
352,48,175138,5,0
256,80,175504,1,0
160,48,175870,2,0,B|80:64|56:152,1,150,4|4
112,288,176968,2,0,B|144:240,1,50,4|0
280,200,177699,1,0
232,288,178065,1,8
312,344,178431,1,0
360,256,178797,6,0,B|440:200|368:80,1,150,4|4
248,48,179895,2,0,B|168:32|89:75|72:128,1,200,4|0
48,216,180992,1,8
112,296,181358,5,0
200,256,181724,1,4
264,328,182090,1,0
264,328,182273,1,4
352,288,182638,1,0
352,288,182821,2,0,B|400:264|400:192,1,100,4|0
384,104,183553,5,0
296,48,183919,1,8
224,120,184285,1,0
256,192,184651,12,0,186846
472,96,189407,6,0,B|368:72|256:96,1,200
200,160,190504,2,0,B|120:176|48:136,1,150,4|4
32,184,191236,2,0,B|32:304,1,100,8|4
32,284,191785,1,0
176,336,192334,5,4
128,248,192699,1,8
216,208,193065,1,0
264,296,193431,2,0,B|376:296,2,100,4|0|8
304,200,194529,1,4
304,200,194712,2,0,B|368:160|368:48,1,150,0|4
264,72,195626,6,0,B|144:72,1,100,8|0
80,128,196358,1,4
168,184,196724,2,0,B|232:184,1,50,0|4
288,256,197273,2,0,B|360:256,1,50,0|4
440,256,197821,1,0
376,328,198187,6,0,B|280:352|168:328,1,200,4|0
88,280,199285,2,0,B|72:224|88:168,2,100,4|0|8
176,232,200382,2,0,B|232:232,2,50,4|0|0
112,160,201114,5,4
48,80,201480,1,8
136,24,201846,1,0
200,104,202212,2,0,B|304:120|408:104,1,200,4|8
464,184,203309,1,4
464,184,203492,2,0,B|392:208|392:320,1,150,0|4
296,304,204407,6,0,B|240:296|168:312,1,100,8|0
104,336,205138,2,0,B|48:304|48:248,1,100,4|0
40,208,205687,2,4,B|112:176,1,50,4|8
176,144,206236,1,4
176,144,206419,1,0
272,104,206785,5,0
272,104,206968,2,4,B|288:152|376:176,1,100,4|8
440,200,207699,1,0
384,280,208065,1,4
296,320,208431,1,0
296,320,208614,2,0,B|224:336|144:312,1,150,2|0
168,264,209346,6,0,B|184:208,1,50,0|4
208,120,209895,1,2
208,120,210077,1,0
240,24,210443,1,2
240,24,210626,2,0,B|328:16|408:96|352:216,1,250
264,112,213919,6,0,B|248:184|272:256|256:320,2,200,4|4|4
168,72,215748,6,0,B|72:112|64:240,1,200
80,328,216846,2,0,B|128:352|192:344,1,100,4|0
224,320,217395,2,0,B|264:272,1,50,4|8
352,288,217943,2,0,B|384:240,1,50,4|0
456,184,218492,1,0
456,184,218675,2,0,B|408:152|344:160,1,100,4|8
304,80,219407,1,0
216,136,219773,2,0,B|168:152|104:136,1,100,4|0
80,176,220321,2,0,B|80:240,1,50,4|8
152,296,220870,2,0,B|200:296,1,50,4|0
352,312,221602,6,0,B|400:336|472:320,2,100,4|8|0
336,216,222699,2,0,B|344:160|400:128,1,100,4|0
360,96,223248,2,0,B|304:56,1,50,4|8
272,80,223614,2,0,B|208:80,1,50,0|4
136,136,224163,1,0
56,192,224529,5,4
112,272,224895,1,8
200,224,225260,1,0
272,296,225626,2,0,B|304:352|376:344,1,100,4|0
408,328,226175,2,0,B|440:272,1,50,4|8
464,176,226724,2,0,B|400:192|336:160|248:184,1,200,4|4
184,112,227821,2,0,B|128:96|80:112,1,100,8|0
72,216,228553,6,0,B|40:264|48:320,1,100,4|0
104,328,229102,2,0,B|152:352,1,50,4|8
248,312,229651,2,0,B|312:296,1,50,4|0
408,320,230199,2,0,B|464:344,1,50,0|4
440,232,230748,1,8
464,128,231114,1,0
416,24,231480,2,0,B|368:56|360:112,1,100,4|0
304,96,232029,2,0,B|240:80,1,50,4|8
144,80,232577,2,0,B|80:96,1,50,4|0
72,200,233126,5,0
72,200,233309,2,0,B|128:192|184:232,1,100,4|8
208,320,234041,1,0
320,320,234407,2,0,B|456:344|448:216,1,200,4|8
376,136,235504,6,0,B|336:176,2,50,4|0|0
296,56,236236,2,0,B|240:80,1,50,4|0
240,128,236602,1,8
216,184,236785,2,0,B|152:168,1,50
256,192,237334,12,0,238797
