osu file format v9

[General]
AudioFilename: Sayuri Yahagi - Skirt no Hajikko.mp3
AudioLeadIn: 0
PreviewTime: 92730
Countdown: 0
SampleSet: Soft
StackLeniency: 0.5
Mode: 0
LetterboxInBreaks: 1

[Editor]
Bookmarks: 7584,32462,44169,67583,92462,117340,140754,164169,189047,215388
DistanceSpacing: 1.2
BeatDivisor: 4
GridSize: 4

[Metadata]
Title:Skirt no Hajikko
Artist:Sayuri Yahagi
Creator:abalee
Version:Hard
Source:To LOVE Ru
Tags:Sairenji Haruna

[Difficulty]
HPDrainRate:7
CircleSize:4
OverallDifficulty:7
ApproachRate:7
SliderMultiplier:2
SliderTickRate:0.5

[Events]
//Background and Video events
0,0,"BG.jpg"
//Break Periods
2,44363,55336
2,118265,127409
2,176070,188507
//Storyboard Layer 0 (Background)
//Storyboard Layer 1 (Fail)
//Storyboard Layer 2 (Pass)
//Storyboard Layer 3 (Foreground)
Sprite,Foreground,Centre,"Lyrics\J-Artist.png",320,240 F,0,44529,44895,0,1 M,0,44529,47090,170,435,200,435 F,0,46724,47090,1,0
Sprite,Foreground,Centre,"Lyrics\E-Artist.png",320,240 F,0,44529,44895,0,1 M,0,44529,47090,200,460,170,460 F,0,46724,47090,1,0
Sprite,Foreground,Centre,"Lyrics\J-Song.png",320,240 F,0,46724,47090,0,1 M,0,46724,49285,170,435,200,435 F,0,48919,49285,1,0
Sprite,Foreground,Centre,"Lyrics\E-Song.png",320,240 F,0,46724,47090,0,1 M,0,46724,49285,200,460,170,460 F,0,48919,49285,1,0
Sprite,Foreground,Centre,"Lyrics\Mapper.png",320,240 F,0,51480,51846,0,1 M,0,51480,55138,170,435,200,435 F,0,54773,55138,1,0
Sprite,Foreground,Centre,"Lyrics\Saikou.png",320,240 F,0,51480,51846,0,1 M,0,51480,55138,200,460,170,460 F,0,54773,55138,1,0
//Storyboard Sound Samples
//Background Colour Transformations
3,100,255,128,192

[TimingPoints]
7578,731.707317073171,4,2,1,71,1,0
8955,-200,4,2,1,71,0,0
9870,-100,4,2,1,71,0,0
11882,-200,4,2,1,71,0,0
12797,-100,4,2,1,71,0,0
17736,-200,4,2,1,71,0,0
18645,-100,4,2,1,71,0,0
20663,-200,4,2,1,71,0,0
22212,-100,4,2,1,71,0,0
23584,-200,4,2,1,71,0,0
25053,-100,4,2,1,71,0,0
31638,-200,4,2,1,51,0,0
32553,-100,4,2,1,52,0,0
41151,-200,4,2,1,44,0,0
42791,-100,4,2,1,57,0,0
43248,-100,4,2,1,42,0,0
43797,-100,4,2,1,21,0,0
44346,-100,4,2,1,57,0,0
67486,-100,4,2,1,40,0,0
87974,-200,4,2,1,40,0,0
89260,-100,4,2,1,71,0,0
90352,-100,4,1,1,71,0,0
90907,-100,4,1,1,71,0,0
92638,-100,4,1,1,21,0,0
92913,-100,4,1,1,30,0,0
93096,-100,4,1,1,38,0,0
93279,-100,4,1,1,47,0,0
93462,-100,4,1,1,55,0,0
93827,-100,4,2,1,71,0,0
116510,-100,4,2,1,40,0,0
116785,-100,4,2,1,54,0,0
117059,-100,4,2,1,71,0,0
117334,-100,4,2,0,57,0,0
117517,-100,4,2,1,71,0,0
128218,-100,4,2,1,32,0,0
128584,-100,4,2,1,50,0,0
128858,-100,4,2,0,71,0,0
129132,-100,4,2,1,71,0,0
139468,-100,4,2,1,49,0,0
139931,-200,4,2,1,34,0,0
140846,-100,4,2,1,48,0,0
175047,-100,4,2,1,40,0,0
175321,-100,4,2,1,31,0,0
175687,-100,4,2,1,16,0,0
176053,-100,4,2,1,48,0,0
189321,-200,4,2,1,41,0,0
190236,-100,4,2,1,57,0,0
210901,-200,4,2,1,60,0,0
212547,-100,4,2,1,69,0,0
213736,-100,4,2,0,41,0,0
214010,-100,4,2,1,69,0,0
214559,-100,4,2,0,60,0,0
214742,-100,4,2,1,69,0,0
215199,-100,4,2,0,51,0,0
215474,-100,4,1,0,21,0,0
215840,-100,4,2,1,41,0,0
216206,-100,4,2,1,56,0,0
216571,-100,4,2,1,63,0,0
216754,-100,4,2,1,69,0,0
237242,-100,4,2,1,0,0,0
238980,-100,4,2,1,69,0,0

[Colours]
Combo1 : 255,128,255
Combo2 : 156,61,184
Combo3 : 43,43,251

[HitObjects]
160,32,7943,1,0
96,136,8309,1,0
200,192,8675,1,0
264,88,9041,2,0,B|312:72|368:88,1,100,2|0
362,86,10138,1,0
362,86,10321,1,0
464,232,10870,1,0
408,336,11236,1,0
312,264,11602,1,0
376,152,11968,2,0,B|320:144|272:176,1,100,2|0
279,171,13065,1,0
279,171,13248,1,0
192,328,13797,5,0
88,272,14163,1,0
144,168,14529,1,0
248,224,14895,2,0,B|296:256|344:256,1,100,2|0
341,255,15443,1,0
448,304,15809,1,0
448,304,15992,2,0,B|448:248|464:192,1,100
424,88,16724,5,0
312,120,17090,1,0
192,112,17456,1,0
80,80,17821,2,0,B|56:120|72:176,1,100,2|0
72,176,18736,1,0
72,176,18919,1,0
256,328,19651,5,0
352,256,20017,1,0
280,160,20382,1,0
176,224,20748,2,0,B|136:160|152:72,1,150,2|0
150,79,22029,1,0
320,128,22577,1,0
424,64,22943,1,0
472,176,23309,1,0
368,240,23675,2,0,B|312:304|224:296,1,150,2|0
234,296,24956,1,0
112,160,25504,5,0
192,72,25870,1,0
232,184,26236,1,0
232,184,26602,2,0,B|280:208|344:208,1,100,2|0
384,216,27151,1,0
424,104,27517,1,0
368,88,27699,2,0,B|320:64|256:64,1,100
152,56,28431,1,0
152,56,28614,1,0
136,176,28980,1,0
136,176,29163,1,0
120,296,29529,1,2
120,296,29895,5,0
240,312,30260,1,0
240,312,30626,1,0
256,192,30992,1,0
256,192,31724,6,0,B|304:176|360:184,1,100,0|4
368,304,32821,1,0
368,304,33004,1,4
368,304,33187,2,0,B|320:320|256:312,1,100,8|4
152,296,33919,1,0
56,232,34285,1,0
120,136,34651,1,8
224,192,35017,1,0
224,192,35382,6,0,B|264:168|336:168,1,100,4|0
376,160,35931,2,4,B|432:184,1,50,4|8
464,64,36480,2,0,B|416:48,1,50,4|0
360,40,36846,2,0,B|312:40|256:72,1,100
168,136,37577,2,0,B|136:176|80:184,1,100,8|0
0,232,38309,6,0,B|48:248|72:312,1,100,4|0
104,352,38858,1,4
104,352,39041,1,8
216,312,39407,1,4
216,312,39590,1,0
328,264,39956,1,0
328,264,40138,2,0,B|336:208|392:184,1,100,0|8
360,72,40870,1,0
360,72,41053,1,0
360,72,41236,6,0,B|264:96|160:72,1,200,4|0
161,72,42882,1,2
161,72,43065,1,0
136,192,43431,5,2
136,192,43614,1,0
112,312,43980,5,0
112,312,44163,1,0
112,136,56236,6,0,B|96:183,1,50
120,304,56785,2,0,B|136:360,1,50
133,352,57334,2,0,B|304:352,1,150
283,352,58431,1,0
264,232,58797,2,0,B|272:280,2,50
336,136,59529,2,0,B|328:192,2,50
352,16,60260,1,0
352,16,60992,6,0,B|240:16,1,100
224,136,61724,1,0
224,136,62090,1,0
224,136,62273,1,0
224,136,62456,1,0
192,248,62821,1,0
192,248,63187,1,0
192,248,63370,1,0
192,248,63553,1,0
168,368,63919,1,0
56,328,64285,5,0
56,328,64468,1,0
76,208,64834,1,0
76,208,65017,1,0
96,88,65382,1,0
216,112,65748,1,0
196,232,66114,1,0
76,208,66480,1,0
96,88,66846,1,0
96,88,67029,1,0
96,88,67212,1,0
96,88,67577,6,0,B|208:88,1,100,4|0
256,88,68126,2,0,B|284:152,1,50,4|0
328,240,68675,1,4
328,240,69041,2,0,B|216:240,2,100,0|0|8
448,240,70138,1,0
448,240,70504,2,0,B|448:120,1,100,4|0
392,112,71053,2,0,B|336:80,1,50,4|0
240,40,71602,2,0,B|128:40,1,100,4|0
140,40,72334,1,0
140,40,72517,1,0
140,40,72699,1,8
128,160,73065,6,0,B|120:264,1,100,0|4
120,259,73797,2,0,B|180:260,1,50,0|4
292,264,74346,2,0,B|280:316,1,50,0|4
308,196,74895,1,0
340,84,75260,1,0
340,84,75443,1,0
340,84,75626,2,0,B|232:84,1,100,8|0
120,84,76358,1,4
120,84,76907,2,0,B|104:152,1,50,4|0
228,156,77456,2,0,B|212:224,1,50,4|0
332,244,78004,2,0,B|316:312,1,50
424,352,78553,6,0,B|444:252,1,100,8|0
352,180,79285,2,0,B|372:80,1,100,4|0
312,80,79834,2,0,B|256:80,1,50,4|0
140,80,80382,1,4
80,184,80748,1,0
96,244,80931,1,0
136,200,81114,1,0
204,300,81480,1,8
260,280,81663,1,0
252,340,81846,1,0
368,316,82212,6,0,B|480:316,1,100,4|0
452,260,82760,2,0,B|428:200,1,50,4|0
396,100,83309,1,4
396,100,83492,1,0
288,152,83858,1,0
288,152,84041,1,0
356,252,84407,1,8
256,316,84773,6,0,B|240:372,2,50,0|0|4
184,220,85504,1,0
184,220,85687,1,4
128,112,86053,2,0,B|141:63,1,50,0|4
104,180,86602,1,0
104,180,86968,2,0,B|104:296,2,100,0|8|0
140,64,88065,2,0,B|244:64|244:64|288:36,1,150,4|4
282,39,89346,1,0
316,156,89712,1,0
316,156,89895,1,0
352,272,90260,1,0
352,272,90443,1,0
352,272,90626,1,0
236,308,90992,5,0
212,252,91175,1,0
192,196,91358,1,0
168,140,91541,1,0
132,256,91907,2,0,B|112:324,1,50
140,64,92821,5,0
196,48,93004,1,0
252,72,93187,1,0
308,52,93370,1,0
364,68,93553,1,0
364,68,93919,6,0,B|388:112|388:176,1,100,4|0
387,164,94468,1,4
387,164,94651,1,8
388,284,95017,1,4
388,284,95199,2,0,B|312:284|280:320,1,100
236,332,95748,6,0,B|192:344|128:332,1,100,4|8
60,240,96480,1,0
48,180,96663,1,0
72,124,96846,2,0,B|132:124|160:64,1,100,4|0
196,32,97395,1,4
256,20,97577,1,8
372,52,97943,1,4
372,52,98126,1,0
292,140,98492,1,0
292,140,98675,6,0,B|240:148|208:196,2,100,4|8|0
348,244,99773,2,0,B|320:288|248:292,1,100,4|0
208,312,100321,2,0,B|164:336,1,50,4|8
104,348,100687,1,0
104,348,100870,2,0,B|48:332|16:276,1,100,4|0
68,180,101602,6,0,B|48:132,1,50,4|0
96,96,101968,2,0,B|104:36,1,50,8|0
160,32,102334,2,0,B|212:20|280:36,1,100,0|4
260,152,103065,1,0
260,152,103248,1,4
260,152,103431,2,0,B|212:168|144:148,1,100,8|4
132,208,103980,2,0,B|108:256,1,50
204,328,104529,6,0,B|256:348|320:328,1,100,4|8
360,324,105077,1,0
360,324,105260,2,0,B|352:264|380:216,1,100,0|4
420,116,105992,2,0,B|448:160,2,50,0|4|8
324,44,106724,1,4
324,44,106907,1,0
232,124,107273,1,0
232,124,107456,1,4
328,196,107821,1,8
328,196,108187,6,0,B|324:264,1,50
320,308,108553,2,0,B|272:324|208:304,1,100,4|0
168,284,109102,1,4
168,284,109285,1,8
60,232,109651,2,0,B|48:184,1,50,4|0
116,84,110199,2,0,B|136:28,1,50,0|4
132,40,110748,6,0,B|184:32|232:40,1,100,8|0
344,92,111480,2,0,B|344:144|316:188,1,100,4|0
316,186,112029,1,4
316,186,112212,1,8
200,204,112577,2,0,B|172:264,1,50,4|0
152,304,112943,1,4
268,272,113309,1,0
316,308,113492,2,0,B|368:356,1,50,0|8
460,292,114041,1,0
460,292,114224,1,0
460,292,114407,6,0,B|488:248|472:180,1,100,4|0
460,136,114956,1,4
460,136,115138,1,8
348,88,115504,1,4
292,112,115687,1,0
340,148,115870,2,0,B|348:200|300:248,1,100,4|0
200,296,116602,2,0,B|200:328,8,25,0|0|0|0|0|0|0|0|4
112,68,128309,6,0,B|80:88,7,25
112,68,129041,6,0,B|128:168,1,100,4|0
127,166,129590,1,4
127,166,129773,1,8
156,284,130138,1,4
156,284,130321,1,0
272,252,130687,1,0
272,252,130870,1,4
248,136,131236,1,8
248,136,131602,5,0
248,136,131785,1,0
248,136,131968,2,0,B|284:40,1,100,4|0
344,44,132517,1,4
344,44,132699,2,0,B|460:44,1,100,8|4
480,160,133431,2,0,B|468:104,2,50,0|0|4
376,216,134163,2,0,B|396:148,2,50,8|0|0
356,272,134712,1,0
356,272,134895,6,0,B|236:272,1,100,4|0
196,272,135443,1,4
196,272,135626,2,0,B|144:172,1,100,8|4
120,132,136175,1,0
200,44,136541,1,0
260,44,136724,2,0,B|368:44,1,100,4|8
412,152,137456,2,0,B|348:152,1,50
362,152,137821,6,0,B|328:252,1,100,4|0
329,246,138553,1,8
280,356,138919,1,0
280,356,139285,2,0,B|168:356,1,100,4|4
156,248,140017,2,0,B|260:248,1,100,4|0
376,248,141114,6,0,B|428:220|436:160,1,100
408,116,141663,2,0,B|388:64,1,50,0|4
268,60,142212,2,0,B|168:60,1,100
108,64,142760,2,0,B|88:120,1,50,0|8
44,220,143309,1,0
104,324,143675,1,4
196,244,144041,1,0
196,244,144224,1,0
136,140,144590,1,0
136,140,144773,1,4
72,40,145138,1,0
72,40,145504,2,0,B|180:40,1,100,4|8
292,40,146236,6,0,B|344:72|364:132,1,100,0|4
356,113,146785,1,0
456,184,147151,1,0
456,184,147334,2,0,B|408:212|408:280,1,100,0|4
316,344,148065,1,0
316,344,148248,1,0
236,256,148614,1,0
236,256,148797,1,8
340,196,149163,1,0
340,196,149346,1,0
340,196,149529,2,0,B|320:136|272:100,2,100,4|0|0
236,256,150626,5,4
236,256,150809,2,0,B|188:212|176:156,1,100
148,124,151358,2,0,B|120:76|56:68,1,100,4|8
52,188,152090,1,0
52,188,152456,1,4
40,308,152821,5,0
40,308,153004,1,0
160,296,153370,1,0
160,296,153553,2,0,B|144:240|156:192,2,100,4|0|0
216,276,154468,2,0,B|264:256,1,50,0|8
368,200,155017,2,0,B|320:164|312:100,1,100,0|4
276,72,155565,1,0
232,32,155748,2,0,B|188:48|112:36,1,100,0|4
76,64,156297,1,0
20,80,156480,2,0,B|4:132|24:196,1,100,0|4
44,232,157029,1,0
44,232,157212,1,0
132,316,157577,6,0,B|252:316,1,100,8|0
232,316,158309,2,0,B|224:212,1,100,4|0
212,96,159041,1,0
212,96,159407,2,0,B|320:96,1,100,4|4
312,96,159956,1,0
432,96,160321,1,0
432,96,160504,1,8
424,216,160870,1,0
424,216,161053,1,0
424,216,161236,6,0,B|392:248|388:324,1,100,4|0
280,352,161968,1,0
156,284,162334,1,4
296,184,162699,1,0
132,112,163065,1,4
320,24,163431,1,2
360,68,163614,1,0
404,108,163797,1,0
444,152,163980,1,0
488,192,164163,6,0,B|444:224|444:296,1,100,4|0
408,324,164712,2,0,B|372:284|308:288,1,100
318,287,165260,1,4
200,312,165626,1,0
188,192,165992,1,0
188,192,166358,1,8
308,172,166724,5,0
308,172,167090,2,0,B|320:120|384:92,1,100,4|0
370,98,167638,1,4
268,32,168004,1,0
268,32,168187,2,0,B|220:56|148:40,1,100,4|0
52,32,168919,1,0
52,32,169102,1,0
52,32,169285,1,8
120,132,169651,6,0,B|156:172|148:228,1,100,0|4
80,324,170382,2,0,B|132:304,1,50,0|4
248,312,170931,2,0,B|280:256,1,50,0|4
236,152,171480,2,0,B|208:104,1,50
210,108,171846,2,0,B|328:108,1,100,0|8
432,108,172577,6,0,B|416:224,1,100,0|4
418,207,173309,2,4,B|352:208,1,50,0|4
336,324,173858,2,0,B|276:324,1,50,0|4
224,324,174224,2,0,B|112:324,2,100
244,268,175138,1,4
276,152,175504,1,4
316,40,175870,1,4
416,100,189407,6,0,B|372:112|308:96,1,100,0|4
200,72,190504,6,0,B|156:164,1,100,4|0
132,216,191053,1,4
132,216,191236,1,8
92,328,191602,1,4
92,328,191785,1,0
212,312,192151,1,0
212,312,192334,2,0,B|224:260|268:208,1,100,4|8
364,276,193065,1,0
364,276,193248,1,0
364,276,193431,2,0,B|392:236|388:164,1,100,4|0
360,128,193980,2,0,B|312:96,1,50,4|8
200,124,194529,2,0,B|168:72,1,50,4|0
56,52,195077,5,0
56,52,195260,2,0,B|24:88|16:156,1,100,4|8
88,240,195992,1,0
204,208,196358,2,0,B|228:240|224:308,1,100,4|0
284,320,196907,2,0,B|352:344,1,50,4|8
388,352,197273,1,0
388,352,197456,2,0,B|396:300|456:252,1,100,4|0
484,156,198187,6,0,B|472:100,1,50,4|0
412,104,198553,2,0,B|368:60,1,50,8|0
320,48,198919,2,0,B|264:64|208:56,1,100,0|4
100,48,199651,1,0
140,92,199834,1,4
164,148,200017,2,0,B|184:204|168:268,1,100,8|4
152,304,200565,1,0
120,356,200748,1,0
240,336,201114,6,0,B|288:304|356:304,2,100,4|8|0
248,216,202212,2,0,B|288:180|300:120,1,100,4|0
260,84,202760,2,0,B|228:36,1,50,4|8
112,44,203309,1,4
112,44,203492,1,0
88,160,203858,1,0
88,160,204041,2,0,B|72:212|84:280,1,100,4|8
180,328,204773,2,0,B|248:328,1,50
288,328,205138,2,0,B|268:268|300:212,1,100,4|0
290,230,205687,1,4
290,230,205870,1,8
412,228,206236,1,4
412,228,206419,2,0,B|432:164|404:108,1,100
408,68,206968,6,0,B|296:68,1,100,4|8
188,68,207699,1,0
188,68,208065,2,0,B|184:120|128:148,1,100,4|0
108,200,208614,2,0,B|92:252,1,50,4|8
180,332,209163,1,4
232,300,209346,1,0
284,268,209529,2,0,B|316:224|380:208,1,100,4|0
420,192,210077,1,0
480,176,210260,1,8
412,76,210626,5,0
356,92,210809,1,0
296,112,210992,2,0,B|244:120|164:100|88:116,1,200,4|0
180,280,213919,6,0,B|252:300|296:284,1,100,4|0
336,276,214468,1,0
336,104,214651,6,0,B|264:84|220:100,1,100,4|0
180,108,215200,1,0
44,192,215382,6,0,B|32:220,4,25
104,192,215931,2,0,B|160:224,1,50,0|4
204,192,216297,2,0,B|260:168,1,50
304,196,216663,1,0
304,196,216846,6,0,B|356:224|424:216,1,100,4|0
460,220,217395,2,0,B|484:172,1,50,4|8
460,56,217943,1,4
460,56,218126,2,0,B|420:80|360:80,1,100
304,64,218675,1,4
188,40,219041,2,0,B|136:32|76:40,1,100,8|0
88,38,219773,2,0,B|80:144,1,100,4|0
76,200,220321,2,0,B|128:200,1,50,4|8
248,200,220870,1,4
248,200,221053,1,0
368,200,221419,1,0
368,200,221602,6,0,B|380:256|368:320,1,100,4|8
371,299,222334,1,0
371,299,222699,2,0,B|264:300,1,100,4|0
212,296,223248,2,0,B|184:340,1,50,4|8
148,288,223614,2,0,B|120:236,1,50,0|4
72,136,224163,1,0
20,28,224529,6,0,B|132:28,1,100,4|8
240,28,225260,1,0
300,40,225443,1,0
360,52,225626,1,4
384,168,225992,1,0
328,152,226175,1,4
272,136,226358,2,0,B|236:184|244:252,2,100,8|4|0
160,96,227456,5,4
120,208,227821,1,8
84,324,228187,1,0
144,320,228370,1,0
204,312,228553,2,0,B|240:272|232:204,1,100,4|0
233,219,229102,1,4
233,219,229285,2,0,B|352:220,1,100,8|4
392,220,229834,1,0
392,100,230199,5,0
332,100,230382,2,0,B|224:100,1,100,4|8
112,100,231114,2,0,B|56:100,1,50
62,100,231480,2,0,B|40:156|68:212,1,100,4|0
92,252,232029,1,4
116,308,232212,1,8
232,340,232577,1,4
232,340,232760,1,0
204,224,233126,1,0
204,224,233309,5,4
176,108,233675,2,0,B|232:96|288:112,1,100,8|0
392,136,234407,2,0,B|380:184|404:248,1,100,4|0
399,234,234956,1,4
399,234,235138,1,8
316,320,235504,1,4
272,276,235687,1,0
256,336,235870,1,0
152,276,236236,1,0
128,220,236419,2,0,B|116:192|132:144,1,50,0|8
148,116,236785,2,0,B|152:84|136:48,1,50
256,192,237334,12,0,238797
