osu file format v14

[General]
AudioFilename: Sore wa Chiisana Hikari no Youna.mp3
AudioLeadIn: 0
PreviewTime: 43123
Countdown: 0
SampleSet: Soft
StackLeniency: 0.4
Mode: 0
LetterboxInBreaks: 0
WidescreenStoryboard: 0

[Editor]
Bookmarks: 677,5623,15623,25623,43123,53123,63123,79373
DistanceSpacing: 1
BeatDivisor: 4
GridSize: 4
TimelineZoom: 1.1

[Metadata]
Title:Sore wa Chiisana Hikari no Youna
TitleUnicode:それは小さな光のような
Artist:Sayuri
ArtistUnicode:さユり
Creator:pkhg
Version:Easy
Source:僕だけがいない街
Tags:tv size Boku dake ga inai Machi Erased Ending
BeatmapID:966134
BeatmapSetID:450315

[Difficulty]
HPDrainRate:2
CircleSize:3
OverallDifficulty:2.5
ApproachRate:2.5
SliderMultiplier:0.9
SliderTickRate:2

[Events]
//Background and Video events
Video,0,"video.avi"
0,0,"bg.jpg",0,0
//Break Periods
//Storyboard Layer 0 (Background)
//Storyboard Layer 1 (Fail)
//Storyboard Layer 2 (Pass)
//Storyboard Layer 3 (Foreground)
//Storyboard Sound Samples

[TimingPoints]
677,416.666666666667,4,2,1,50,1,0
677,-100,4,2,1,50,0,0
2290,416.666666666667,3,2,1,50,1,0
2290,-100,3,2,1,50,0,0
3123,416.666666666667,3,2,1,50,1,0
5623,416.666666666667,3,2,1,50,1,0
5623,-100,3,2,1,50,0,0
25623,-100,3,2,2,50,0,0
25831,-100,3,2,3,40,0,0
25935,-100,3,2,2,50,0,0
28748,-100,3,2,3,40,0,0
28852,-100,3,2,2,50,0,0
32081,-100,3,2,3,40,0,0
32185,-100,3,2,2,50,0,0
35831,-100,3,2,3,40,0,0
36143,-100,3,2,2,50,0,0
38748,-100,3,2,3,40,0,0
38852,-100,3,2,2,50,0,0
43123,-100,3,2,2,50,0,1
43956,-100,3,2,3,40,0,1
44060,-100,3,2,2,50,0,1
63018,-100,3,2,2,50,0,0
63123,-100,3,2,2,50,0,1
83018,-100,3,2,2,50,0,0
83123,-100,3,2,2,50,0,1
83227,-100,3,2,2,5,0,0

[Colours]
Combo1 : 0,0,244
Combo2 : 255,0,0
Combo3 : 255,255,91

[HitObjects]
108,84,677,6,0,L|100:236,1,135,0|2,0:0|0:0,0:0:0:0:
200,312,1927,2,0,L|192:160,1,123.5,0|2,0:0|0:0,0:0:0:0:
240,64,3123,2,0,P|296:28|360:40,1,135,0|2,0:0|0:0,0:0:0:0:
420,160,4373,1,0,0:0:0:0:
372,236,4790,2,0,L|384:328,1,90,2|2,0:0|0:0,0:0:0:0:
296,312,5623,6,0,B|240:284|240:284|124:324,1,180,2|2,0:0|0:0,0:0:0:0:
60,380,6873,2,0,P|84:316|92:196,1,180,2|2,0:0|0:0,0:0:0:0:
12,168,8123,6,0,P|84:116|164:152,1,180,2|2,0:0|0:0,0:0:0:0:
188,236,9373,2,0,B|172:164|172:164|212:64,1,180,2|2,0:0|0:0,0:0:0:0:
296,36,10623,6,0,B|384:28|384:28|392:124,1,180,2|2,0:0|0:0,0:0:0:0:
304,132,11873,2,0,B|311:223|311:223|399:215,1,180,2|2,0:0|0:0,0:0:0:0:
440,296,13123,6,0,L|337:305,2,90,2|2|2,0:0|0:0|0:0,0:0:0:0:
399,215,14373,2,0,B|295:227|295:227|255:295,1,180,2|2,0:0|0:0,0:0:0:0:
252,384,15623,6,0,L|68:364,1,180,2|2,0:0|0:0,0:0:0:0:
80,276,16873,2,0,B|104:208|104:208|52:172|68:100,1,180,2|2,0:0|0:0,0:0:0:0:
124,48,18123,6,0,P|164:44|214:65,2,90,2|2|2,0:0|0:0|0:0,0:0:0:0:
152,136,19373,2,0,P|193:153|237:149,1,90,2|2,0:0|0:0,0:0:0:0:
392,60,20623,6,0,P|347:56|306:73,1,90,2|2,0:0|0:0,0:0:0:0:
268,156,21456,1,2,0:0:0:0:
332,220,21873,2,0,P|348:260|344:316,2,90,0|0|0,0:0|0:0|0:0,0:0:0:0:
268,156,23123,5,2,0:0:0:0:
200,216,23539,1,2,0:0:0:0:
124,168,23956,2,0,L|28:184,1,90,2|2,0:0|0:0,0:0:0:0:
252,344,25623,6,0,L|340:329,2,90,6|8|8,0:0|0:0|0:0,0:0:0:0:
168,312,26873,1,0,0:0:0:0:
208,232,27289,2,0,P|224:188|216:140,1,90,2|8,3:0|0:0,0:0:0:0:
148,88,28123,6,0,P|132:129|137:173,2,90,2|2|8,3:2|3:0|0:0,0:0:0:0:
232,56,29373,1,0,0:0:0:0:
300,112,29789,2,0,P|336:116|384:96,1,90,2|8,3:0|0:0,0:0:0:0:
444,28,30623,5,2,3:0:0:0:
488,108,31039,2,0,L|484:204,1,90,8|8,0:0|0:0,0:0:0:0:
416,260,31873,2,0,L|419:349,2,90,2|2|8,0:0|3:0|0:0,0:0:0:0:
360,188,33123,5,2,0:0:0:0:
280,228,33539,1,0,0:0:0:0:
216,164,33956,2,0,P|172:154|128:162,1,90,8|2,0:0|0:0,0:0:0:0:
80,236,34789,1,2,3:0:0:0:
124,316,35206,1,8,0:0:0:0:
208,288,35623,6,0,B|272:264|272:264|384:320,1,180,2|8,3:0|0:0,0:0:0:0:
444,368,36873,1,2,0:0:0:0:
488,288,37289,2,0,L|480:192,1,90,2|8,3:0|0:0,0:0:0:0:
424,128,38123,6,0,L|432:32,2,90,2|2|8,3:0|3:0|0:0,0:0:0:0:
360,192,39373,2,0,P|316:208|256:196,1,90,2|2,3:0|3:0,0:0:0:0:
212,140,40206,1,8,0:0:0:0:
152,208,40623,6,0,B|144:252|144:252|156:296|156:296|148:340,2,135,8|2|8,0:0|0:0|0:0,0:0:0:0:
212,140,42289,2,0,L|200:40,1,90,2|2,0:3|0:3,0:0:0:0:
112,36,43123,6,0,L|124:136,1,90,6|2,0:0|0:0,0:0:0:0:
152,208,43956,2,0,L|140:308,2,90,0|0|2,0:0|0:0|0:0,0:0:0:0:
212,140,45206,1,8,0:0:0:0:
284,194,45623,6,0,P|323:204|377:184,1,90,2|2,0:0|0:0,0:0:0:0:
419,114,46456,1,8,0:0:0:0:
495,161,46873,2,0,L|508:259,2,90,2|2|8,0:0|0:0|0:0,0:0:0:0:
419,114,48123,5,2,0:0:0:0:
369,189,48539,2,0,P|327:203|284:194,1,90,2|8,0:0|0:0,0:0:0:0:
212,140,49373,2,0,P|169:125|126:135,1,90,2|2,0:0|0:0,0:0:0:0:
77,211,50206,1,8,0:0:0:0:
118,290,50623,6,0,P|122:335|106:378,2,90,2|2|8,0:0|0:0|0:0,0:0:0:0:
32,324,51873,2,0,P|28:280|44:238,2,90,2|2|8,0:0|0:0|0:0,0:0:0:0:
106,376,53123,6,0,L|204:365,1,90,6|2,0:0|0:0,0:0:0:0:
256,299,53956,1,8,0:0:0:0:
228,213,54373,2,0,P|225:171|239:120,1,90,2|2,0:0|0:0,0:0:0:0:
307,69,55206,1,8,0:0:0:0:
385,113,55623,6,0,P|425:120|477:104,2,90,2|2|8,0:0|0:0|0:0,0:0:0:0:
307,69,56873,1,2,0:0:0:0:
236,124,57290,2,0,P|225:168|228:213,1,90,2|8,0:0|0:0,0:0:0:0:
256,299,58123,5,2,0:0:0:0:
339,331,58539,1,2,0:0:0:0:
412,279,58956,2,0,B|424:220|424:220|389:103,1,180,8|2,0:0|0:0,0:0:0:0:
307,69,60206,1,8,0:0:0:0:
236,124,60623,6,0,P|191:126|147:115,1,90,2|2,0:0|0:0,0:0:0:0:
104,35,61456,2,0,B|130:84|130:84|111:217,1,180,8|8,0:0|0:0,0:0:0:0:
66,284,62706,1,8,0:0:0:0:
140,336,63123,6,0,P|184:344|232:332,1,90,6|2,0:0|0:0,0:0:0:0:
288,268,63956,2,0,P|332:260|380:272,1,90,8|2,0:0|0:0,0:0:0:0:
428,344,64789,1,2,0:0:0:0:
492,280,65206,1,8,0:0:0:0:
452,200,65623,6,0,P|440:160|436:112,1,90,2|2,0:0|0:0,0:0:0:0:
476,32,66456,1,8,0:0:0:0:
388,8,66873,2,0,P|344:12|288:28,1,90,2|2,0:0|0:0,0:0:0:0:
252,100,67706,1,8,0:0:0:0:
304,176,68123,6,0,P|320:220|316:280,1,90,2|2,0:0|0:0,0:0:0:0:
264,332,68956,1,8,0:0:0:0:
180,296,69373,2,0,L|88:308,2,90,2|2|8,0:0|0:0|0:0,0:0:0:0:
264,332,70623,5,2,0:0:0:0:
320,262,71039,2,0,P|319:217|304:176,1,90,2|8,0:0|0:0,0:0:0:0:
232,124,71873,2,0,L|140:116,2,90,2|2|8,0:0|0:0|0:0,0:0:0:0:
312,84,73123,5,6,0:0:0:0:
364,160,73539,2,0,P|376:200|372:256,1,90,2|8,0:0|0:0,0:0:0:0:
324,324,74373,1,2,0:0:0:0:
240,296,74789,2,0,P|228:256|232:200,1,90,2|8,0:0|0:0,0:0:0:0:
280,132,75623,6,0,P|292:92|288:36,2,90,2|2|8,0:0|0:0|0:0,0:0:0:0:
208,188,76873,1,2,0:0:0:0:
132,140,77289,2,0,P|88:124|44:132,1,90,2|8,0:0|0:0,0:0:0:0:
80,216,78123,6,0,B|100:304|100:304|192:320,1,180,2|8,0:0|0:0,0:0:0:0:
268,276,79373,1,2,0:0:0:0:
328,344,79789,2,0,L|424:332,1,90,2|8,0:0|0:0,0:0:0:0:
472,260,80623,6,0,B|492:196|492:196|464:84,1,180,2|8,0:0|0:0,0:0:0:0:
392,36,81873,2,0,P|360:28|300:44,1,90,2|2,0:0|0:0,0:0:0:0:
260,116,82706,1,8,0:0:0:0:
296,200,83123,1,4,0:0:0:0:
256,192,83331,12,0,86039,0:0:0:0:
