osu file format v12

[General]
AudioFilename: mankanshoku.mp3
AudioLeadIn: 0
PreviewTime: 54675
Countdown: 0
SampleSet: Soft
StackLeniency: 0.7
Mode: 0
LetterboxInBreaks: 0
WidescreenStoryboard: 0

[Editor]
Bookmarks: 13425,25509
DistanceSpacing: 1
BeatDivisor: 4
GridSize: 4
TimelineZoom: 1.5

[Metadata]
Title:Shinsekai Koukyougaku
TitleUnicode:新世界交響楽
Artist:Sayonara Ponytail
ArtistUnicode:さよならポニーテール
Creator:TaMul
Version:Normal
Source:Kill la Kill
Tags:TV Size Karia TKSalt Ending ed キルラキル mankanshoku mako
BeatmapID:385167
BeatmapSetID:157246

[Difficulty]
HPDrainRate:4
CircleSize:4
OverallDifficulty:5
ApproachRate:5
SliderMultiplier:1.1
SliderTickRate:2

[Events]
//Background and Video events
0,0,"bg.jpg",0,0
Video,0,"video.flv"
//Break Periods
//Storyboard Layer 0 (Background)
//Storyboard Layer 1 (Fail)
//Storyboard Layer 2 (Pass)
//Storyboard Layer 3 (Foreground)
//Storyboard Sound Samples
//Background Colour Transformations
3,100,163,162,255

[TimingPoints]
509,416.666666666667,4,2,1,40,1,0
7175,-100,4,2,2,40,0,0
7592,-100,4,2,1,40,0,0
11342,-100,4,2,4,40,0,0
11759,-100,4,2,1,40,0,0
12592,-100,4,2,2,40,0,0
13009,-100,4,2,1,40,0,0
13842,-100,4,2,2,40,0,0
14259,-100,4,2,1,40,0,0
14884,-100,4,2,4,40,0,0
15092,-100,4,2,1,40,0,0
17592,-100,4,2,5,40,0,0
17800,-100,4,2,1,40,0,0
18217,-100,4,2,4,40,0,0
18425,-100,4,2,5,40,0,0
18634,-100,4,2,1,40,0,0
20925,-100,4,2,5,40,0,0
21342,-100,4,2,4,40,0,0
21759,-100,4,2,1,40,0,0
23009,-100,4,2,4,40,0,0
23217,-100,4,2,1,40,0,0
23842,-100,4,2,4,40,0,0
24050,-100,4,2,1,40,0,0
24884,-100,4,2,4,40,0,0
25092,-100,4,2,1,40,0,0
25925,-100,4,2,2,40,0,0
26342,-100,4,2,1,40,0,0
27175,-100,4,2,2,40,0,0
28217,-100,4,2,4,40,0,0
28425,-100,4,2,1,40,0,0
29884,-100,4,2,4,40,0,0
30092,-100,4,2,1,40,0,0
30925,-100,4,2,5,40,0,0
31134,-100,4,2,1,40,0,0
32592,-100,4,2,5,40,0,0
32800,-100,4,2,1,40,0,0
33842,-100,4,2,2,40,0,0
34259,-100,4,2,1,40,0,0
34884,-100,4,2,4,40,0,0
35092,-100,4,2,1,40,0,0
37592,-100,4,2,5,40,0,0
37800,-100,4,2,1,40,0,0
40509,-100,4,2,2,40,0,0
41550,-100,4,2,4,40,0,0
41759,-100,4,2,1,40,0,0
43009,-100,4,2,4,40,0,0
43217,-100,4,2,1,40,0,0
44884,-100,4,2,4,40,0,0
45092,-100,4,2,1,40,0,0
47175,-100,4,2,2,40,0,0
47592,-100,4,2,1,40,0,0
48009,-100,4,2,4,40,0,0
48217,-100,4,2,1,40,0,0
49884,-100,4,2,4,40,0,0
50092,-100,4,2,5,40,0,0
50300,-100,4,2,1,40,0,0
55509,-100,4,2,2,40,0,1
56550,-100,4,2,4,40,0,1
56759,-100,4,2,1,40,0,1
57175,-100,4,2,4,40,0,1
57592,-100,4,2,1,40,0,1
59259,-100,4,2,5,40,0,1
59675,-100,4,2,4,40,0,1
60092,-100,4,2,1,40,0,1
61342,-100,4,2,4,40,0,1
61550,-100,4,2,1,40,0,1
62175,-100,4,2,2,40,0,1
62592,-100,4,2,5,40,0,1
62800,-100,4,2,1,40,0,1
64675,-100,4,2,4,40,0,1
64884,-100,4,2,1,40,0,1
66550,-100,4,2,4,40,0,1
66759,-100,4,2,5,40,0,1
66967,-100,4,2,1,40,0,1
68217,-100,4,2,4,40,0,1
68425,-100,4,2,1,40,0,1
69259,-100,4,2,5,40,0,1
69467,-100,4,2,1,40,0,1
70092,-100,4,2,5,40,0,1
70300,-100,4,2,1,40,0,1
72071,-100,4,2,1,40,0,0
72175,-100,4,2,2,40,0,1
74259,-100,4,2,5,40,0,1
74675,-100,4,2,4,40,0,1
75092,-100,4,2,1,40,0,1
76550,-100,4,2,4,40,0,1
76759,-100,4,2,1,40,0,1
77592,-100,4,2,5,40,0,1
77800,-100,4,2,1,40,0,1
78842,-100,4,2,2,40,0,1
79259,-100,4,2,5,40,0,1
79467,-100,4,2,1,40,0,1
80925,-100,4,2,5,40,0,1
81134,-100,4,2,1,40,0,1
82175,-100,4,2,2,40,0,0
83425,-100,4,2,4,40,0,0
83634,-100,4,2,1,40,0,0
84675,-100,4,2,4,40,0,0
85092,-100,4,2,1,40,0,0

[Colours]
Combo1 : 179,179,255
Combo2 : 68,213,255
Combo3 : 181,90,0
Combo4 : 255,255,0

[HitObjects]
256,192,509,12,2,2175,0:0:0:0:
220,40,3842,6,0,P|256:120|291:40,1,220,2|2,0:0|0:0,0:0:0:0:
388,240,5509,1,2,0:0:0:0:
388,240,5717,2,0,P|436:220|468:228,2,82.5,2|2|4,3:0|3:0|3:0,0:0:0:0:
288,192,6759,2,0,P|244:200|180:172,1,110,2|6,1:0|0:0,0:0:0:0:
100,108,7592,6,0,P|100:152|48:204,2,110,8|2|8,0:0|0:0|0:0,0:0:0:0:
188,44,8842,2,0,B|240:64|240:64|308:52,1,110,2|8,0:0|0:0,0:0:0:0:
348,44,9467,2,0,P|324:88|344:144,1,110,2|2,0:0|0:0,0:0:0:0:
396,140,10092,2,0,L|512:132,1,110,8|2,0:0|0:0,0:0:0:0:
476,240,10925,6,0,L|256:252,1,220,8|8,0:0|0:0,0:0:0:0:
188,168,12175,2,0,L|160:224,2,55,2|2|4,0:0|0:0|0:0,0:0:0:0:
116,84,13009,2,0,L|64:100,2,55,2|2|8,0:0|0:0|0:0,0:0:0:0:
224,88,13842,6,0,B|276:104|276:68|336:88,1,110,6|8,0:0|0:0,0:0:0:0:
416,160,14675,2,0,B|364:144|364:180|304:160,1,110,2|8,0:0|0:0,0:0:0:0:
396,236,15509,5,2,0:0:0:0:
496,188,15925,1,8,0:0:0:0:
464,84,16342,1,2,0:0:0:0:
356,76,16759,1,8,0:0:0:0:
304,172,17175,6,0,B|240:220|160:128|92:176,2,220,2|2|2,0:0|0:0|0:0,0:0:0:0:
244,80,19259,1,8,0:0:0:0:
320,4,19675,1,2,0:0:0:0:
424,52,20092,1,8,0:0:0:0:
400,156,20509,6,0,P|396:248|452:288,2,165,2|0|8,0:0|0:0|0:0,0:0:0:0:
296,180,22175,1,2,0:0:0:0:
228,92,22592,1,8,0:0:0:0:
228,92,22800,2,0,P|208:152|152:172,1,110
184,16,23634,6,0,P|252:4|312:76,1,165,0|8,0:0|0:0,0:0:0:0:
288,176,24675,2,0,P|280:216|308:284,2,110,2|8|2,0:0|0:0|0:0,0:0:0:0:
392,212,25925,5,12,0:0:0:0:
468,132,26342,2,0,P|440:92|372:80,1,110,8|8,3:0|0:0,0:0:0:0:
292,16,27175,6,0,P|268:64|280:120,1,110,4|8,0:0|0:0,0:0:0:0:
176,163,28009,2,0,P|196:113|184:61,2,110,2|8|2,0:0|0:0|0:0,0:0:0:0:
256,232,29259,1,8,0:0:0:0:
336,164,29675,2,0,P|316:120|328:60,1,110,2|8,0:0|0:0,0:0:0:0:
424,105,30509,6,0,P|431:210|343:268,1,220,2|2,0:0|0:0,0:0:0:0:
256,200,31759,1,8,0:0:0:0:
168,268,32175,2,0,P|81:211|88:104,1,220,2|2,0:0|0:0,0:0:0:0:
176,164,33425,1,8,0:0:0:0:
168,268,33842,6,0,P|168:328|204:360,1,110,6|8,0:0|0:0,0:0:0:0:
316,344,34675,2,0,P|340:316|412:308,1,110,2|8,0:0|0:0,0:0:0:0:
508,352,35509,5,2,0:0:0:0:
504,244,35925,2,0,P|464:204|460:152,1,110,8|2,0:0|0:0,0:0:0:0:
368,92,36759,1,8,0:0:0:0:
256,64,37175,6,0,P|264:104|172:244,1,220,2|4,0:0|3:0,0:0:0:0:
104,156,38425,2,0,P|104:108|144:60,1,110,8|2,0:0|0:0,0:0:0:0:
256,64,39259,5,2,0:0:0:0:
340,136,39675,1,2,0:0:0:0:
344,248,40092,1,8,0:0:0:0:
252,304,40509,6,0,P|196:296|140:324,1,110,4|8,0:0|0:0,0:0:0:0:
40,292,41342,2,0,P|68:252|64:192,1,110,2|8,0:0|0:0,0:0:0:0:
28,88,42175,2,0,P|64:92|128:52,1,110,2|8,0:0|0:0,0:0:0:0:
168,92,42800,2,0,P|200:116|272:112,1,110,0|2,0:0|0:0,0:0:0:0:
312,84,43425,2,0,P|344:108|412:104,1,110,8|2,0:0|0:0,0:0:0:0:
472,196,44259,6,0,P|512:152|512:96,2,110,8|2|8,0:0|0:0|0:0,0:0:0:0:
360,200,45509,1,2,0:0:0:0:
256,168,45925,1,8,0:0:0:0:
152,200,46342,1,2,0:0:0:0:
40,196,46759,2,0,P|0:152|0:96,1,110,8|6,0:0|0:0,0:0:0:0:
100,144,47592,6,0,L|76:328,1,165,8|2,0:0|0:0,0:0:0:0:
132,292,48425,2,0,P|184:276|240:292,2,110,8|2|8,0:0|0:0|0:0,0:0:0:0:
40,236,49675,2,0,P|104:200|248:192,1,220,2|2,0:0|0:0,0:0:0:0:
348,236,50925,6,0,P|380:252|408:252,1,55,8|0,0:0|0:0,0:0:0:0:
412,144,51550,2,0,P|380:128|352:128,1,55,2|8,0:0|0:0,0:0:0:0:
256,100,52175,6,0,L|256:216,1,110,12|2,0:0|0:0,0:0:0:0:
212,180,52800,2,0,P|159:191|108:171,1,110,8|2,0:0|0:0,0:0:0:0:
56,192,53425,1,12,0:0:0:0:
256,192,53529,12,8,55092,0:0:0:0:
116,272,55509,6,0,P|96:240|108:172,1,110,6|8,0:0|0:0,0:0:0:0:
212,212,56342,2,0,P|232:252|216:320,1,110,2|8,0:0|0:0,0:0:0:0:
276,304,56967,2,0,L|392:280,1,110
436,268,57592,2,0,L|440:328,1,55,8|0,0:0|0:0,0:0:0:0:
472,172,58217,2,0,L|496:224,1,55,2|8,0:0|0:0,0:0:0:0:
388,196,58842,6,0,P|392:124|472:84,2,165,2|0|8,0:0|0:0|0:0,0:0:0:0:
272,192,60509,2,0,P|228:184|168:208,1,110,2|8,0:0|0:0,0:0:0:0:
192,156,61134,2,0,P|204:116|184:48,1,110,0|2,0:0|0:0,0:0:0:0:
144,16,61759,1,8,0:0:0:0:
96,116,62175,6,0,P|96:216|200:268,1,220,6|2,0:0|0:0,0:0:0:0:
272,192,63425,2,0,P|324:168|380:176,2,110,8|2|8,0:0|0:0|0:0,0:0:0:0:
280,136,64467,2,0,L|296:24,1,110,0|2,0:0|0:0,0:0:0:0:
244,44,65092,2,0,P|200:64|140:60,2,110,8|2|8,0:0|0:0|0:0,0:0:0:0:
348,12,66342,6,0,L|316:236,1,220,2|2,0:0|0:0,0:0:0:0:
376,320,67592,1,8,0:0:0:0:
268,324,68009,2,0,P|232:304|156:312,1,110,2|8,0:0|0:0,0:0:0:0:
64,348,68842,6,0,P|92:268|64:192,1,165,6|2,0:0|0:0,0:0:0:0:
68,84,69884,2,0,P|152:112|232:96,1,165,0|8,0:0|0:0,0:0:0:0:
320,160,70925,6,0,L|332:104,2,55,2|2|8,0:0|0:0|0:0,0:0:0:0:
428,132,71759,2,0,L|440:76,2,55,8|2|6,0:0|0:0|0:0,0:0:0:0:
480,228,72592,6,0,P|432:212|368:236,1,110,8|2,0:0|0:0,0:0:0:0:
324,324,73425,1,8,0:0:0:0:
256,240,73842,2,0,B|220:188|292:136|256:72,2,165,2|0|8,0:0|0:0|0:0,0:0:0:0:
188,324,75509,5,2,0:0:0:0:
135,228,75925,2,0,P|83:211|32:228,2,110,8|2|8,0:0|0:0|0:0,0:0:0:0:
208,148,77175,2,0,P|256:160|400:84,1,220,2|2,0:0|0:0,0:0:0:0:
292,68,78425,1,8,0:0:0:0:
292,68,78842,6,0,P|292:112|428:192,1,220,4|2,0:0|0:0,0:0:0:0:
488,284,80092,1,8,0:0:0:0:
380,296,80509,2,0,P|280:268|208:176,1,220,2|8,0:0|0:0,0:0:0:0:
216,72,81759,2,0,P|176:92|108:88,1,110,8|6,0:0|0:0,0:0:0:0:
36,296,83009,6,0,P|52:248|100:332,1,220,0|2,0:0|0:0,0:0:0:0:
216,324,84259,2,0,P|224:252|128:152,1,220,0|8,0:0|0:0,0:0:0:0:
256,192,85509,12,2,88634,0:0:0:0:
