osu file format v12

[General]
AudioFilename: mankanshoku.mp3
AudioLeadIn: 0
PreviewTime: 54675
Countdown: 0
SampleSet: Soft
StackLeniency: 0.7
Mode: 0
LetterboxInBreaks: 0
WidescreenStoryboard: 0

[Editor]
Bookmarks: 1759,13425,25509
DistanceSpacing: 1
BeatDivisor: 4
GridSize: 4
TimelineZoom: 2

[Metadata]
Title:Shinsekai Koukyougaku
TitleUnicode:新世界交響楽
Artist:Sayonara Ponytail
ArtistUnicode:さよならポニーテール
Creator:TaMul
Version:Insane
Source:Kill la Kill
Tags:TV Size Karia TKSalt Ending ed キルラキル mankanshoku mako
BeatmapID:385075
BeatmapSetID:157246

[Difficulty]
HPDrainRate:7
CircleSize:4
OverallDifficulty:8
ApproachRate:8
SliderMultiplier:1.94
SliderTickRate:4

[Events]
//Background and Video events
Video,0,"video.flv"
0,0,"bg.jpg",0,0
//Break Periods
//Storyboard Layer 0 (Background)
//Storyboard Layer 1 (Fail)
//Storyboard Layer 2 (Pass)
//Storyboard Layer 3 (Foreground)
//Storyboard Sound Samples
//Background Colour Transformations
3,100,163,162,255

[TimingPoints]
509,416.666666666667,4,2,1,40,1,0
4675,-100,4,2,4,40,0,0
4884,-100,4,2,1,40,0,0
8009,-100,4,2,4,40,0,0
8217,-100,4,2,1,40,0,0
9259,-100,4,2,5,40,0,0
9467,-100,4,2,1,40,0,0
10925,-100,4,2,5,40,0,0
11134,-100,4,2,1,40,0,0
12592,-100,4,2,2,40,0,0
13009,-100,4,2,1,40,0,0
13842,-100,4,2,2,40,0,0
14259,-100,4,2,3,40,0,0
25509,-100,4,2,1,40,0,0
27175,-100,4,2,2,40,0,0
27592,-100,4,2,1,40,0,0
29884,-100,4,2,4,40,0,0
30092,-100,4,2,1,40,0,0
33842,-100,4,2,2,40,0,0
34259,-100,4,2,1,40,0,0
34884,-100,4,2,4,40,0,0
35092,-100,4,2,1,40,0,0
37800,-100,4,3,0,40,0,0
38009,-100,4,2,1,40,0,0
40509,-100,4,2,2,40,0,0
40925,-100,4,2,1,40,0,0
42175,-100,4,2,4,40,0,0
42279,-100,4,2,1,40,0,0
45509,-100,4,2,4,40,0,0
45613,-100,4,2,1,40,0,0
47175,-100,4,2,2,40,0,0
47384,-100,4,2,1,40,0,0
52175,-100,4,2,0,40,0,0
55092,-100,4,2,1,40,0,0
55509,-100,4,2,2,40,0,1
55509,-100,4,2,2,40,0,1
57175,-100,4,2,4,40,0,1
57279,-100,4,2,1,40,0,1
58009,-100,4,2,4,40,0,1
58113,-100,4,2,1,40,0,1
58842,-100,4,2,1,40,0,1
62175,-100,4,2,2,40,0,1
63217,-100,4,2,4,40,0,1
63321,-100,4,2,1,40,0,1
72071,-100,4,2,1,40,0,0
72175,-100,4,2,2,40,0,1
72592,-100,4,2,1,40,0,1
78842,-100,4,2,2,40,0,1
79259,-100,4,2,1,40,0,1
82175,-100,4,2,2,40,0,0
83425,-100,4,2,1,40,0,0
83842,-100,4,2,2,40,0,0
85509,-100,4,2,2,40,0,0

[Colours]
Combo1 : 179,179,255
Combo2 : 68,213,255
Combo3 : 181,90,0
Combo4 : 255,255,0

[HitObjects]
52,140,509,6,0,L|148:128,1,97,6|0,0:0|3:0,0:0:0:0:
196,120,821,2,0,P|180:168|200:216,1,97,0|0,0:0|0:0,0:0:0:0:
344,140,1238,6,0,B|299:165|299:165|247:165,1,97,0|0,0:0|3:0,0:0:0:0:
412,168,1654,1,0,3:0:0:0:
412,168,1759,2,0,P|416:120|388:80,1,97,0|0,0:0|3:0,0:0:0:0:
352,216,2175,5,0,0:0:0:0:
468,334,2384,1,0,0:0:0:0:
468,334,2488,2,0,P|476:288|450:246,1,97,0|0,3:0|0:0,0:0:0:0:
311,321,2904,2,0,B|356:324|356:324|408:300,1,97,0|0,0:0|3:0,0:0:0:0:
248,280,3321,1,0,3:0:0:0:
248,280,3425,2,0,P|236:328|256:372,1,97,0|0,0:0|3:0,0:0:0:0:
36,355,3842,6,0,P|80:351|116:307,1,97,6|0,0:0|3:0,0:0:0:0:
43,196,4154,2,0,B|28:241|28:241|48:284,1,97,0|0,0:0|0:0,0:0:0:0:
112,164,4571,6,0,P|81:128|32:120,2,97,0|0|0,0:0|3:0|0:0,0:0:0:0:
152,192,5092,2,0,P|200:184|224:144,1,97,0|0,0:0|3:0,0:0:0:0:
188,56,5509,1,2,0:0:0:0:
188,56,5613,1,0,3:0:0:0:
188,56,5717,6,0,L|288:64,1,97,2|2,3:0|0:0,0:0:0:0:
320,151,6029,2,0,L|223:145,1,97,2|0,3:0|0:0,0:0:0:0:
223,145,6342,1,4,3:0:0:0:
360,88,6550,5,0,3:0:0:0:
360,88,6620,1,0,0:0:0:0:
360,88,6689,1,0,0:0:0:0:
360,88,6759,2,0,B|400:104|416:176|360:216,1,145.5,2|0,1:0|0:0,0:0:0:0:
304,240,7175,6,0,L|396:272,1,97,6|0,0:0|3:0,0:0:0:0:
420,280,7488,1,0,3:0:0:0:
256,304,7696,2,0,P|224:264|228:216,2,97,0|0|2,0:0|3:0|3:0,0:0:0:0:
208,304,8217,1,0,0:0:0:0:
164,320,8321,1,0,3:0:0:0:
132,356,8425,2,0,P|88:384|40:376,1,97,8|2,0:0|3:0,0:0:0:0:
75,193,8842,6,0,B|64:232|64:232|72:288,1,97,2|0,0:0|3:0,0:0:0:0:
160,172,9154,2,0,P|140:124|100:104,1,97,0|0,0:0|0:0,0:0:0:0:
108,8,9571,1,0,0:0:0:0:
256,76,9779,1,2,3:0:0:0:
404,8,9988,1,0,0:0:0:0:
404,8,10092,2,0,L|416:112,1,97,8|2,0:0|3:0,0:0:0:0:
344,232,10509,6,0,L|332:135,1,97,2|0,0:0|3:0,0:0:0:0:
424,244,10821,2,0,P|404:292|360:312,1,97
256,224,11238,1,0,3:0:0:0:
146,311,11446,2,0,P|104:288|88:244,1,97,2|0,3:0|3:0,0:0:0:0:
96,164,11759,2,0,P|144:184|164:224,1,97,8|2,0:0|3:0,0:0:0:0:
163,222,12071,1,0,0:0:0:0:
163,222,12175,5,2,0:0:0:0:
296,148,12384,1,2,0:0:0:0:
376,372,12592,2,0,P|296:364|272:312,1,145.5,12|0,0:0|0:0,0:0:0:0:
344,308,13009,6,0,P|368:300|400:304,1,48.5,2|8,0:0|0:0,0:0:0:0:
424,232,13217,2,0,P|448:244|464:268,1,48.5,2|2,0:0|0:0,0:0:0:0:
346,215,13425,6,0,B|360:164|408:152|408:152|448:108|416:52,2,194,8|4|2,0:0|0:0|0:0,0:0:0:0:
256,176,14467,1,0,0:0:0:0:
165,215,14675,2,0,P|120:200|72:216,1,97,0|0,0:0|0:0,0:0:0:0:
98,366,15092,2,0,P|125:327|120:280,1,97,2|0,0:0|0:0,0:0:0:0:
120,280,15404,1,0,0:0:0:0:
120,280,15509,5,0,0:0:0:0:
28,308,15717,1,0,0:0:0:0:
200,336,15925,2,0,L|308:320,1,97,2|0,0:0|0:0,0:0:0:0:
422,246,16342,2,0,P|373:297|380:368,1,145.5
460,328,16759,2,0,P|504:292|512:248,1,97,2|0,0:0|0:0,0:0:0:0:
488,160,17175,6,0,P|432:144|504:96,1,194,0|2,0:0|0:0,0:0:0:0:
364,188,17800,1,0,0:0:0:0:
364,188,17904,1,0,0:0:0:0:
364,188,18009,2,0,P|328:168|268:180,1,97,0|0,0:0|0:0,0:0:0:0:
256,40,18425,2,0,P|292:60|352:48,1,97,2|0,0:0|0:0,0:0:0:0:
208,116,18842,6,0,P|180:176|216:248,1,145.5
210,244,19259,2,0,P|160:248|124:280,1,97,2|0,0:0|0:0,0:0:0:0:
204,336,19675,1,0,0:0:0:0:
108,196,19884,1,0,0:0:0:0:
264,184,20092,2,0,P|304:200|356:188,1,97,2|0,0:0|0:0,0:0:0:0:
432,248,20509,6,0,L|416:48,2,194,4|2|0,0:0|0:0|0:0,0:0:0:0:
512,304,21550,1,0,0:0:0:0:
420,340,21759,1,2,0:0:0:0:
340,284,21967,1,0,0:0:0:0:
340,284,22071,1,0,0:0:0:0:
340,284,22175,6,0,P|280:276|240:296,1,97
160,244,22592,1,2,0:0:0:0:
160,340,22800,2,0,P|80:300|76:200,1,194
156,152,23425,2,0,P|168:100|152:60,1,97,2|0,0:0|0:0,0:0:0:0:
72,116,23842,5,0,0:0:0:0:
160,244,24050,1,0,0:0:0:0:
240,108,24259,1,2,0:0:0:0:
73,204,24467,1,0,0:0:0:0:
73,204,24571,1,0,0:0:0:0:
73,204,24675,1,0,0:0:0:0:
236,200,24884,1,0,0:0:0:0:
152,68,25092,2,0,P|140:120|156:160,1,97,2|0,0:0|0:0,0:0:0:0:
320,241,25509,6,0,P|321:149|240:108,1,194,6|12,0:0|0:0,0:0:0:0:
236,200,26134,1,0,0:0:0:0:
236,200,26342,6,0,B|164:208|164:208|88:180,1,145.5,8|8,3:0|0:0,0:0:0:0:
95,182,26759,2,0,P|104:244|88:280,1,97,8|2,0:0|0:0,0:0:0:0:
160,340,27175,6,0,P|212:320|256:328,1,97,4|0,0:0|0:0,0:0:0:0:
340,284,27592,1,8,0:0:0:0:
412,351,27800,1,0,0:0:0:0:
412,351,27904,1,0,0:0:0:0:
412,351,28009,2,0,P|442:315|441:268,1,97,2|2,0:0|0:0,0:0:0:0:
384,192,28425,2,0,P|432:168|476:176,1,97,8|0,0:0|0:0,0:0:0:0:
512,84,28842,6,0,P|456:72|324:112,1,194,2|8,0:0|0:0,0:0:0:0:
256,176,29467,1,0,0:0:0:0:
184,109,29675,2,0,P|95:73|0:84,2,194,2|8|2,0:0|0:0|0:0,0:0:0:0:
160,204,30717,1,0,0:0:0:0:
256,176,30925,2,0,P|284:132|280:88,1,97,8|0,0:0|0:0,0:0:0:0:
88,136,31342,6,0,P|56:176|56:224,1,97,2|2,0:0|0:0,0:0:0:0:
76,264,31654,1,2,0:0:0:0:
120,288,31759,2,0,P|172:296|200:332,1,97,8|0,0:0|0:0,0:0:0:0:
313,328,32175,2,0,P|316:256|360:272,1,145.5,2|0,0:0|0:0,0:0:0:0:
388,340,32592,2,0,P|424:316|432:260,1,97,8|0,0:0|0:0,0:0:0:0:
420,220,32904,1,0,0:0:0:0:
384,188,33009,2,0,P|364:136|376:96,1,97,2|2,0:0|0:0,0:0:0:0:
460,140,33425,6,0,L|256:148,2,194,8|4|8,0:0|0:0|0:0,0:0:0:0:
296,244,34467,1,0,0:0:0:0:
296,244,34675,2,0,P|348:204|332:80,1,194,2|8,0:0|0:0,0:0:0:0:
256,36,35300,1,2,0:0:0:0:
173,86,35509,6,0,P|151:176|216:244,1,194,2|8,0:0|0:0,0:0:0:0:
256,156,36134,1,0,0:0:0:0:
256,156,36238,1,0,0:0:0:0:
256,156,36342,2,0,P|288:112|284:68,1,97,2|2,0:0|0:0,0:0:0:0:
88,24,36759,2,0,P|64:72|76:120,1,97,8|0,0:0|0:0,0:0:0:0:
128,192,37175,6,0,P|152:248|64:224,1,194,2|8,0:0|0:0,0:0:0:0:
228,228,37800,1,8,3:0:0:0:
228,228,37904,1,4,3:0:0:0:
228,228,38009,2,0,P|276:248|320:236,1,97,2|2,0:0|0:0,0:0:0:0:
303,88,38425,2,0,P|274:125|280:172,1,97,8|8,0:0|0:0,0:0:0:0:
279,171,38738,1,8,0:0:0:0:
279,171,38842,5,2,0:0:0:0:
396,56,39050,1,0,0:0:0:0:
232,32,39259,1,8,3:0:0:0:
380,156,39467,1,8,3:0:0:0:
380,156,39571,1,4,3:0:0:0:
380,156,39675,6,0,P|432:152|468:180,1,97,2|2,0:0|0:0,0:0:0:0:
376,366,40092,2,0,L|408:224,1,145.5,8|0,0:0|0:0,0:0:0:0:
408,224,40509,6,0,P|352:228|320:200,1,97,6|0,0:0|0:0,0:0:0:0:
300,108,40925,2,0,P|328:72|324:16,1,97,8|0,0:0|0:0,0:0:0:0:
185,22,41342,2,0,P|183:70|212:108,1,97,2|2,0:0|0:0,0:0:0:0:
256,196,41759,1,8,0:0:0:0:
256,196,41967,6,0,B|232:240|260:280|260:280|248:288|248:288|288:332|256:384,1,194,0|0,0:0|0:0,0:0:0:0:
332,228,42592,2,0,P|376:240|424:224,1,97,8|0,0:0|0:0,0:0:0:0:
256,196,43009,1,2,0:0:0:0:
340,328,43217,1,2,0:0:0:0:
184,348,43425,2,0,P|140:336|92:352,1,97,8|0,0:0|0:0,0:0:0:0:
108,304,43738,1,0,0:0:0:0:
100,256,43842,6,0,P|76:208|88:164,1,97,2|0,0:0|0:0,0:0:0:0:
240,220,44259,2,0,P|198:196|151:204,1,97,8|0,0:0|0:0,0:0:0:0:
8,188,44675,1,2,0:0:0:0:
188,268,44884,1,2,0:0:0:0:
164,80,45092,1,8,0:0:0:0:
164,80,45300,6,0,P|140:132|232:116,1,194,0|2,0:0|0:0,0:0:0:0:
217,26,45925,2,0,P|172:4|121:18,1,97,8|0,0:0|0:0,0:0:0:0:
68,90,46342,2,0,P|64:142|36:188,1,97,2|0,0:0|0:0,0:0:0:0:
152,248,46759,1,8,0:0:0:0:
188,220,46863,1,2,0:0:0:0:
236,228,46967,1,2,0:0:0:0:
132,316,47175,6,0,P|94:293|81:242,1,97,6|2,0:0|0:0,0:0:0:0:
296,176,47592,2,0,B|328:224|300:272|300:272|352:248|400:280,1,194,8|2,0:0|0:0,0:0:0:0:
344,360,48217,1,2,0:0:0:0:
236,228,48425,2,0,P|216:178|228:136,1,97,8|0,0:0|0:0,0:0:0:0:
316,100,48842,6,0,P|372:160|320:252,1,194,2|8,0:0|0:0,0:0:0:0:
236,228,49467,1,0,0:0:0:0:
216,324,49675,2,0,P|172:304|120:308,1,97,2|2,0:0|0:0,0:0:0:0:
44,248,50092,1,8,0:0:0:0:
32,344,50300,1,8,3:0:0:0:
32,344,50404,1,4,3:0:0:0:
32,344,50509,5,2,0:0:0:0:
136,192,50717,1,2,0:0:0:0:
76,20,50925,1,8,0:0:0:0:
72,132,51134,2,0,B|104:92|160:104|160:104|197:144|251:128,1,194,2|2,0:0|0:0,0:0:0:0:
292,0,51759,2,0,P|240:12|224:48,1,97,8|8,0:0|0:0,0:0:0:0:
223,48,52071,1,8,0:0:0:0:
223,48,52175,5,8,3:0:0:0:
232,216,52384,1,4,3:0:0:0:
376,132,52592,1,4,3:0:0:0:
164,108,52800,1,8,3:0:0:0:
236,308,53009,1,4,3:0:0:0:
452,300,53217,2,0,P|436:248|452:204,1,97,4|4,3:0|0:0,0:0:0:0:
256,192,53529,12,0,54884,0:0:0:0:
256,32,55092,6,0,L|256:128,1,97,8|8,0:0|0:0,0:0:0:0:
256,176,55404,1,8,0:0:0:0:
256,176,55509,5,6,0:0:0:0:
344,216,55717,1,0,0:0:0:0:
172,224,55925,2,0,P|120:244|72:228,1,97,8|0,0:0|0:0,0:0:0:0:
256,176,56342,1,2,0:0:0:0:
236,296,56550,2,0,P|292:292|332:316,1,97,2|8,0:0|0:0,0:0:0:0:
187,383,56967,6,0,P|133:307|171:223,1,194,0|2,0:0|0:0,0:0:0:0:
256,176,57592,1,8,0:0:0:0:
256,176,57800,2,0,L|56:204,1,194
80,172,58321,1,0,0:0:0:0:
84,140,58425,2,0,P|88:108|80:88,1,48.5,8|0,0:0|0:0,0:0:0:0:
0,184,58634,2,0,P|-4:216|4:236,1,48.5,0|0,0:0|0:0,0:0:0:0:
160,160,58842,6,0,B|176:108|156:64|156:64|204:96|248:64,1,194,6|8,0:0|0:0,0:0:0:0:
324,120,59467,1,0,0:0:0:0:
324,120,59571,1,0,0:0:0:0:
324,120,59675,1,2,0:0:0:0:
204,0,59884,1,2,0:0:0:0:
244,152,60092,2,0,P|236:208|208:236,1,97,8|0,0:0|0:0,0:0:0:0:
256,236,60404,1,0,0:0:0:0:
300,256,60509,6,0,P|332:288|328:344,1,97,2|0,0:0|0:0,0:0:0:0:
172,300,60925,2,0,P|139:265|140:218,1,97,8|0,0:0|0:0,0:0:0:0:
252,320,61342,1,2,0:0:0:0:
112,352,61550,1,2,0:0:0:0:
68,332,61654,1,2,0:0:0:0:
20,344,61759,2,0,P|48:288|44:248,1,97,8|0,0:0|0:0,0:0:0:0:
12,164,62175,6,0,B|56:176|96:136|96:136|144:120|192:152,1,194,6|8,0:0|0:0,0:0:0:0:
256,224,62800,1,0,0:0:0:0:
320,152,63009,2,0,B|368:120|416:136|416:136|456:176|500:164,2,194,2|8|2,0:0|0:0|0:0,0:0:0:0:
488,72,64050,1,0,0:0:0:0:
376,236,64259,2,0,P|368:288|392:328,1,97,8|0,0:0|0:0,0:0:0:0:
464,264,64675,1,2,0:0:0:0:
284,268,64884,2,0,P|232:292|192:284,2,97,2|8|0,0:0|0:0|0:0,0:0:0:0:
176,200,65509,6,0,P|119:229|112:308,1,145.5,6|0,0:0|0:0,0:0:0:0:
110,304,65925,2,0,P|64:292|16:312,1,97,8|0,0:0|0:0,0:0:0:0:
0,148,66342,2,0,P|46:160|94:140,1,97,2|2,0:0|0:0,0:0:0:0:
0,232,66759,1,8,0:0:0:0:
36,72,66967,1,0,0:0:0:0:
164,176,67175,6,0,P|220:184|256:168,1,97,2|0,0:0|0:0,0:0:0:0:
348,192,67592,2,0,P|332:140|348:96,1,97,8|0,0:0|0:0,0:0:0:0:
196,0,68009,2,0,P|212:52|196:96,1,97,2|2,0:0|0:0,0:0:0:0:
424,148,68425,1,8,0:0:0:0:
340,24,68634,1,8,0:0:0:0:
340,24,68738,1,8,0:0:0:0:
340,24,68842,6,0,L|276:212,1,194,6|8,0:0|0:0,0:0:0:0:
212,136,69467,2,0,L|248:40,1,97,0|2,0:0|0:0,0:0:0:0:
277,207,69884,2,0,L|287:304,1,97,2|8,0:0|0:0,0:0:0:0:
368,352,70300,1,2,0:0:0:0:
448,300,70509,5,8,0:0:0:0:
373,168,70717,1,2,0:0:0:0:
236,224,70925,1,8,0:0:0:0:
236,224,71029,1,2,0:0:0:0:
236,224,71134,1,2,0:0:0:0:
156,196,71342,6,0,L|144:244,1,48.5,8|8,3:0|3:0,0:0:0:0:
240,140,71550,2,0,L|252:92,1,48.5,8|8,3:0|3:0,0:0:0:0:
160,108,71759,2,0,L|108:120,1,48.5,4|4,3:0|3:0,0:0:0:0:
236,224,71967,2,0,L|283:213,1,48.5,4|4,3:0|3:0,0:0:0:0:
156,196,72175,6,0,B|136:240|164:296|216:308|216:308|216:336|244:360,1,194,6|8,0:0|0:0,0:0:0:0:
412,316,72800,1,2,0:0:0:0:
386,224,73009,2,0,P|344:246|320:288,1,97,2|2,0:0|0:0,0:0:0:0:
480,220,73425,1,8,0:0:0:0:
480,132,73634,1,2,0:0:0:0:
480,132,73738,1,0,0:0:0:0:
480,132,73842,6,0,B|480:80|432:60|432:60|376:84|335:54,1,194,2|8,0:0|0:0,0:0:0:0:
176,54,74467,2,0,B|136:84|80:60|80:60|32:80|32:132,1,194,2|2,0:0|0:0,0:0:0:0:
108,192,75092,2,0,P|116:244|96:288,1,97,8|0,0:0|0:0,0:0:0:0:
20,228,75509,6,0,L|216:244,1,194,2|8,0:0|0:0,0:0:0:0:
280,172,76134,2,0,P|183:163|86:156,1,194,2|2,0:0|0:0,0:0:0:0:
232,324,76759,2,0,P|280:300|292:256,1,97,8|0,0:0|0:0,0:0:0:0:
336,284,77071,1,0,0:0:0:0:
384,284,77175,6,0,P|432:264|452:224,1,97,2|0,0:0|0:0,0:0:0:0:
358,105,77592,2,0,P|343:151|360:196,1,97,8|0,0:0|0:0,0:0:0:0:
443,74,78009,2,0,P|420:32|376:16,1,97,2|2,0:0|0:0,0:0:0:0:
284,40,78425,1,8,0:0:0:0:
196,4,78634,1,0,0:0:0:0:
188,52,78738,1,0,0:0:0:0:
208,100,78842,6,0,B|164:156|260:228|228:284,1,194,6|8,0:0|0:0,0:0:0:0:
140,244,79467,2,0,P|208:180|296:208,1,194,2|2,0:0|0:0,0:0:0:0:
152,344,80092,1,8,0:0:0:0:
36,248,80300,1,0,0:0:0:0:
60,208,80404,1,0,0:0:0:0:
52,160,80509,6,0,P|100:160|140:128,1,97,2|2,0:0|0:0,0:0:0:0:
215,75,80925,2,0,P|182:42|135:35,1,97,8|0,0:0|0:0,0:0:0:0:
224,172,81342,1,8,3:0:0:0:
272,160,81446,1,4,3:0:0:0:
304,124,81550,2,0,P|344:160|388:160,1,97,2|8,0:0|3:0,0:0:0:0:
380,64,81967,1,2,0:0:0:0:
384,256,82175,5,6,0:0:0:0:
472,216,82384,1,0,0:0:0:0:
392,160,82592,2,0,P|328:172|288:284,1,194
196,248,83217,1,0,0:0:0:0:
108,284,83425,2,0,P|76:328|80:368,1,97,8|0,3:0|0:0,0:0:0:0:
252,128,83842,1,6,0:0:0:0:
252,128,84259,6,0,P|220:60|108:60,1,194,8|2,3:0|0:0,0:0:0:0:
60,136,84884,1,4,3:0:0:0:
64,184,84988,1,8,3:0:0:0:
96,220,85092,1,4,3:0:0:0:
144,232,85196,1,8,0:0:0:0:
192,216,85300,2,0,P|240:200|284:212,1,97,2|4,0:0|0:0,0:0:0:0:
256,192,85613,12,2,88634,0:0:0:0:
