osu file format v12

[General]
AudioFilename: mankanshoku.mp3
AudioLeadIn: 0
PreviewTime: 54675
Countdown: 0
SampleSet: Soft
StackLeniency: 0.7
Mode: 0
LetterboxInBreaks: 0
WidescreenStoryboard: 0

[Editor]
Bookmarks: 13425,25509
DistanceSpacing: 1
BeatDivisor: 4
GridSize: 4
TimelineZoom: 1.5

[Metadata]
Title:Shinsekai Koukyougaku
TitleUnicode:新世界交響楽
Artist:Sayonara Ponytail
ArtistUnicode:さよならポニーテール
Creator:TaMul
Version:Easy
Source:Kill la Kill
Tags:TV Size Karia TKSalt Ending ed キルラキル mankanshoku mako
BeatmapID:385096
BeatmapSetID:157246

[Difficulty]
HPDrainRate:2
CircleSize:3
OverallDifficulty:2
ApproachRate:3
SliderMultiplier:0.899999999999999
SliderTickRate:2

[Events]
//Background and Video events
Video,0,"video.flv"
0,0,"bg.jpg",0,0
//Break Periods
//Storyboard Layer 0 (Background)
//Storyboard Layer 1 (Fail)
//Storyboard Layer 2 (Pass)
//Storyboard Layer 3 (Foreground)
//Storyboard Sound Samples
//Background Colour Transformations
3,100,163,162,255

[TimingPoints]
509,416.666666666667,4,2,1,40,1,0
7175,-100,4,2,2,40,0,0
7592,-100,4,2,5,40,0,0
7800,-100,4,2,1,40,0,0
9259,-100,4,2,5,40,0,0
9467,-100,4,2,1,40,0,0
11550,-100,4,2,4,40,0,0
11759,-100,4,2,1,40,0,0
12175,-100,4,2,2,40,0,0
14675,-100,4,2,3,40,0,0
25509,-100,4,2,2,40,0,0
26342,-100,4,2,4,40,0,0
26550,-100,4,2,1,40,0,0
27592,-100,4,2,1,40,0,0
28217,-100,4,2,4,40,0,0
28425,-100,4,2,1,40,0,0
30925,-100,4,2,5,40,0,0
31134,-100,4,2,1,40,0,0
32592,-100,4,2,5,40,0,0
32800,-100,4,2,1,40,0,0
33842,-100,4,2,2,40,0,0
34259,-100,4,2,5,40,0,0
34467,-100,4,2,1,40,0,0
34675,-100,4,2,4,40,0,0
35092,-100,4,2,1,40,0,0
35925,-100,4,2,5,40,0,0
36134,-100,4,2,1,40,0,0
36342,-100,4,2,4,40,0,0
36759,-100,4,2,1,40,0,0
40509,-100,4,2,2,40,0,0
40925,-100,4,2,1,40,0,0
41550,-100,4,2,4,40,0,0
41759,-100,4,2,1,40,0,0
42592,-100,4,2,5,40,0,0
42800,-100,4,2,1,40,0,0
43217,-100,4,2,4,40,0,0
43425,-100,4,2,5,40,0,0
43634,-100,4,2,1,40,0,0
45925,-100,4,2,5,40,0,0
46134,-100,4,2,1,40,0,0
47175,-100,4,2,2,40,0,0
49884,-100,4,2,4,40,0,0
50092,-100,4,2,1,40,0,0
50925,-100,4,2,5,40,0,0
51134,-100,4,2,1,40,0,0
51550,-100,4,2,4,40,0,0
51759,-100,4,2,5,40,0,0
52175,-100,4,2,1,40,0,0
55509,-100,4,2,2,40,0,1
56759,-100,4,2,1,40,0,1
57592,-100,4,2,5,40,0,1
57800,-100,4,2,1,40,0,1
59259,-100,4,2,5,40,0,1
59467,-100,4,2,1,40,0,1
59884,-100,4,2,4,40,0,1
60092,-100,4,2,5,40,0,1
60300,-100,4,2,1,40,0,1
62175,-100,4,2,2,40,0,1
62592,-100,4,2,5,40,0,1
62800,-100,4,2,1,40,0,1
64259,-100,4,2,5,40,0,1
64675,-100,4,2,4,40,0,1
65092,-100,4,2,1,40,0,1
65925,-100,4,2,5,40,0,1
66134,-100,4,2,1,40,0,1
68217,-100,4,2,4,40,0,1
68425,-100,4,2,1,40,0,1
69259,-100,4,2,5,40,0,1
69467,-100,4,2,1,40,0,1
72071,-100,4,2,1,40,0,0
72175,-100,4,2,2,40,0,1
73217,-100,4,2,4,40,0,1
73425,-100,4,2,5,40,0,1
73634,-100,4,2,1,40,0,1
74884,-100,4,2,4,40,0,1
75092,-100,4,2,1,40,0,1
75925,-100,4,2,5,40,0,1
76134,-100,4,2,1,40,0,1
76342,-100,4,2,4,40,0,1
76759,-100,4,2,1,40,0,1
77592,-100,4,2,5,40,0,1
77800,-100,4,2,1,40,0,1
78009,-100,4,2,4,40,0,1
78217,-100,4,2,1,40,0,1
78842,-100,4,2,2,40,0,1
81759,-100,4,2,5,40,0,1
81967,-100,4,2,1,40,0,1
82175,-100,4,2,2,40,0,0
83842,-100,4,2,4,40,0,0
84050,-100,4,2,1,40,0,0
85509,-100,4,2,2,40,0,0

[Colours]
Combo1 : 179,179,255
Combo2 : 68,213,255
Combo3 : 181,90,0
Combo4 : 255,255,0

[HitObjects]
256,192,509,12,2,2175,0:0:0:0:
172,248,3842,6,0,B|220:256|256:224|256:224|292:256|338:248,2,180,2|2|2,0:0|0:0|0:0,0:0:0:0:
115,178,5925,2,0,P|83:214|83:262,1,89.9999999999999,2|2,0:0|0:0,0:0:0:0:
80,76,7175,6,0,P|132:72|220:156,1,180,6|2,0:0|0:0,0:0:0:0:
372,244,8842,2,0,P|328:204|348:92,1,180,2|2,0:0|0:0,0:0:0:0:
452,240,10509,6,0,P|440:288|404:320,1,89.9999999999999,2|8,0:0|0:0,0:0:0:0:
324,320,11342,2,0,P|280:300|232:308,1,89.9999999999999,2|8,0:0|0:0,0:0:0:0:
256,192,12175,12,4,13842,0:0:0:0:
124,316,14675,6,0,L|168:136,1,180,2|0,0:0|0:0,0:0:0:0:
345,141,16342,2,0,L|388:316,2,180,2|0|2,0:0|0:0|0:0,0:0:0:0:
256,132,18425,1,0,0:0:0:0:
166,141,18842,6,0,P|176:184|216:212,1,89.9999999999999
300,210,19675,2,0,P|335:184|345:141,1,89.9999999999999,2|0,0:0|0:0,0:0:0:0:
436,152,20509,6,0,P|416:228|330:296,1,180,0|2,0:0|0:0,0:0:0:0:
170,292,22175,2,0,P|101:236|76:152,2,180,0|2|0,0:0|0:0|0:0,0:0:0:0:
256,272,24259,1,0,0:0:0:0:
272,184,24675,2,0,P|260:140|228:108,2,89.9999999999999,2|0|2,0:0|0:0|0:0,0:0:0:0:
356,212,25925,6,0,P|352:252|436:220,1,180,12|8,0:0|0:0,0:0:0:0:
408,136,27175,6,0,P|360:116|320:128,1,89.9999999999999,6|8,0:0|0:0,0:0:0:0:
256,184,28009,2,0,L|256:280,1,89.9999999999999,2|8,0:0|0:0,0:0:0:0:
184,328,28842,2,0,P|140:336|100:317,1,89.9999999999999,2|8,0:0|0:0,0:0:0:0:
154,245,29675,1,2,0:0:0:0:
120,160,30092,1,8,0:0:0:0:
209,175,30509,6,0,B|249:203|241:259|241:259|281:291|269:343,1,180,2|2,0:0|0:0,0:0:0:0:
444,384,32175,2,0,B|404:356|412:300|412:300|372:268|384:216,1,180,2|2,0:0|0:0,0:0:0:0:
304,176,33425,1,8,0:0:0:0:
384,132,33842,6,0,P|376:236|228:236,1,270,6|8,0:0|0:0,0:0:0:0:
220,332,35509,2,0,P|316:352|456:260,1,270,2|8,0:0|0:0,0:0:0:0:
256,192,37175,12,6,38842,0:0:0:0:
180,44,40509,6,0,P|136:52|104:92,1,89.9999999999999,6|8,0:0|0:0,0:0:0:0:
92,172,41342,2,0,P|112:208|104:256,1,89.9999999999999,2|8,0:0|0:0,0:0:0:0:
168,316,42175,2,0,P|196:260|180:144,2,180,2|2|2,0:0|0:0|0:0,0:0:0:0:
256,332,44259,6,0,P|304:316|344:328,1,89.9999999999999,8|2,0:0|0:0,0:0:0:0:
428,300,45092,1,8,0:0:0:0:
360,240,45509,6,0,B|392:176|304:136|340:68,1,180,2|2,0:0|0:0,0:0:0:0:
256,36,46759,1,8,0:0:0:0:
172,69,47175,5,6,0:0:0:0:
184,160,47592,1,8,0:0:0:0:
264,208,48009,1,2,0:0:0:0:
356,220,48425,1,8,0:0:0:0:
420,156,48842,6,0,P|396:144|376:80,1,89.9999999999999,2|8,0:0|0:0,0:0:0:0:
284,72,49675,2,0,P|240:68|200:92,1,89.9999999999999,2|8,0:0|0:0,0:0:0:0:
148,168,50509,6,0,B|104:232|184:276|144:344,2,180,2|2|12,0:0|0:0|0:0,0:0:0:0:
256,248,52800,1,12,0:0:0:0:
364,168,53425,1,12,0:0:0:0:
256,192,53842,12,6,55509,0:0:0:0:
96,120,56342,6,0,P|96:156|68:200,1,89.9999999999999,2|8,0:0|0:0,0:0:0:0:
104,284,57175,2,0,P|144:252|184:120,1,180,2|2,0:0|0:0,0:0:0:0:
256,76,58425,1,8,0:0:0:0:
326,133,58842,6,0,P|345:220|408:284,2,180,2|2|2,0:0|0:0|0:0,0:0:0:0:
388,68,60925,2,0,P|412:100|408:156,1,89.9999999999999,8|2,0:0|0:0,0:0:0:0:
464,220,61759,1,8,0:0:0:0:
376,232,62175,6,0,L|184:220,1,180,4|2,0:0|0:0,0:0:0:0:
80,84,63842,2,0,L|216:92,2,135,2|0|8,0:0|0:0|0:0,0:0:0:0:
108,168,65509,6,0,P|144:196|164:324,1,180,2|2,0:0|0:0,0:0:0:0:
345,316,67175,2,0,P|380:296|432:300,1,89.9999999999999,2|8,0:0|0:0,0:0:0:0:
472,220,68009,2,0,P|460:188|472:128,1,89.9999999999999,2|8,0:0|0:0,0:0:0:0:
408,68,68842,6,0,P|380:124|392:252,1,180,2|2,0:0|0:0,0:0:0:0:
300,264,70092,2,0,B|256:252|256:252|212:264,1,89.9999999999999,8|8,0:0|0:0,0:0:0:0:
160,192,70925,2,0,B|196:160|196:160|212:116,1,89.9999999999999,2|8,0:0|0:0,0:0:0:0:
301,120,71759,2,0,B|316:160|316:160|352:192,1,89.9999999999999,8|6,0:0|0:0,0:0:0:0:
392,272,72592,5,8,0:0:0:0:
480,276,73009,2,0,P|436:356|348:348,1,180,2|2,0:0|0:0,0:0:0:0:
304,284,74259,1,8,0:0:0:0:
260,208,74675,2,0,P|268:168|248:124,1,89.9999999999999,2|8,0:0|0:0,0:0:0:0:
176,180,75509,6,0,B|128:204|64:148|32:184,2,135,2|0|8,0:0|0:0|0:0,0:0:0:0:
260,208,77175,2,0,B|308:184|372:240|404:204,2,135,2|0|8,0:0|0:0|0:0,0:0:0:0:
192,268,78842,5,4,0:0:0:0:
176,180,79259,2,0,P|192:136|184:92,1,89.9999999999999,8|2,0:0|0:0,0:0:0:0:
256,40,80092,1,8,0:0:0:0:
326,94,80509,2,0,P|320:138|336:180,1,89.9999999999999,2|8,0:0|0:0,0:0:0:0:
412,228,81342,2,0,P|464:264|456:376,1,180,8|4,0:0|0:0,0:0:0:0:
196,312,83425,6,0,L|376:320,1,180,8|8,3:0|0:0,0:0:0:0:
376,228,84675,2,0,L|284:224,2,89.9999999999999,8|8|6,3:0|0:0|0:0,0:0:0:0:
256,192,85717,12,2,88634,0:0:0:0:
