osu file format v9

[General]
AudioFilename: ed.MP3
AudioLeadIn: 2000
PreviewTime: 9852
Countdown: 0
SampleSet: Soft
StackLeniency: 0.7
Mode: 0
LetterboxInBreaks: 0

[Editor]
DistanceSpacing: 2
BeatDivisor: 4
GridSize: 8

[Metadata]
Title:Zzz (TV Size)
Artist:Sayaka Sasaki
Creator:KuraiPettan
Version:Hard
Source:Nichijou
Tags:Keiichi Arawi Hyadain _Gezo_ woodrockman ending

[Difficulty]
HPDrainRate:7
CircleSize:4
OverallDifficulty:7
ApproachRate:8
SliderMultiplier:1.8
SliderTickRate:2

[Events]
//Background and Video events
0,0,"BG.png"
Video,554,"vid.flv"
//Break Periods
2,59727,63648
//Storyboard Layer 0 (Background)
//Storyboard Layer 1 (Fail)
//Storyboard Layer 2 (Pass)
//Storyboard Layer 3 (Foreground)
//Storyboard Sound Samples
//Background Colour Transformations
3,100,163,162,255

[TimingPoints]
502,389.61038961039,4,2,0,50,1,0
8976,-100,4,1,0,30,0,0
9950,-100,4,2,0,50,0,0
34690,-100,4,1,0,40,0,0
40924,-100,4,2,0,50,0,0
47742,-100,4,1,0,40,0,0
88066,-100,4,2,0,0,0,0

[HitObjects]
256,40,502,1,0
200,104,696,1,0
160,184,891,1,8
166,273,1086,2,0,B|119:289|74:259|57:204|79:159,1,180
160,184,1670,1,8
256,40,2060,5,0
312,104,2254,1,0
352,184,2449,1,8
346,273,2644,2,0,B|393:289|438:259|455:204|433:159,1,180
352,184,3229,1,8
320,360,3618,5,0
256,296,3813,1,0
192,360,4008,1,8
166,273,4203,2,0,B|119:289|74:259|57:204|79:159,1,180
160,192,4787,6,0,B|24:312,2,180,8|0|8
352,192,5956,2,0,B|488:312,2,180,0|8|4
320,104,6930,5,0
256,168,7125,1,8
192,104,7320,1,0
256,272,7709,2,0,B|240:320|280:320|253:369,1,90,0|8
176,320,8099,6,0,B|176:264|128:232,1,90,4|0
80,312,8489,2,0,B|40:288|40:232,1,90,0|8
56,144,8878,1,4
112,72,9073,1,0
117,78,9170,1,0
122,84,9268,1,0
127,90,9365,1,0
132,96,9463,1,0
137,102,9560,1,0
142,108,9657,1,0
147,114,9755,1,0
153,121,9852,6,0,B|208:192,1,90,4|0
264,264,10242,1,8
320,336,10437,1,0
320,160,10826,1,0
264,88,11021,1,8
88,64,11411,5,0
48,144,11605,1,0
120,200,11800,1,8
80,280,11995,2,0,B|134:309|186:281|209:244|207:196,1,180
120,200,12579,2,0,B|209:368,1,180,8|0
256,184,13359,5,8
256,272,13553,2,0,B|312:272|344:232|352:192|328:136,1,180
256,96,14138,1,8
176,48,14333,5,0
128,128,14527,1,0
64,192,14722,1,0
128,256,14917,1,8
176,336,15112,1,0
280,192,15502,5,0
288,208,15696,1,8
296,224,15891,1,0
304,240,16086,2,0,B|326:277|326:277|408:304|440:232,1,180,0|8
360,184,16670,2,0,B|440:352,1,180
480,264,17255,2,0,B|400:96,1,180,8|0
224,88,18034,5,8
152,144,18229,1,0
96,312,18618,1,0
168,256,18813,1,8
344,208,19203,6,0,B|448:208|480:320,2,180,0|8|0
400,136,20177,1,0
312,120,20372,1,8
256,192,20566,1,0
112,136,20956,5,0
200,120,21151,1,8
256,192,21345,1,0
168,208,21540,2,0,B|64:208|32:320,1,180
302,354,22320,6,0,B|368:272|302:186,1,180,4|8
213,189,22904,2,0,B|147:271|213:357,1,180
256,272,23489,1,8
208,104,23878,5,0
144,40,24073,1,0
304,104,24268,1,8
368,40,24463,1,0
256,184,24852,1,0
256,272,25047,1,8
256,360,25242,1,0
344,344,25437,6,0,B|392:328|400:280,1,90
488,312,25826,2,0,B|510:266|482:227,1,90,8|0
384,72,26411,1,0
336,144,26605,1,8
256,192,26800,5,0
128,240,26995,1,0
152,104,27190,1,0
256,192,27385,5,8
256,240,27579,1,0
256,288,27774,1,0
384,240,27969,5,0
360,104,28164,1,8
256,192,28359,1,0
216,112,28553,6,0,B|168:136|168:192,1,90
296,112,28943,2,8,B|344:136|344:192,1,90,8|0
256,344,29527,1,0
256,256,29722,1,8
440,256,30112,6,0,B|480:224|464:168,1,90
376,192,30502,1,8
384,104,30696,1,0
304,144,30891,1,0
256,64,31086,1,0
208,144,31281,1,8
128,104,31476,1,0
136,192,31670,1,0
256,344,32060,5,8
344,344,32255,2,0,B|352:296|328:256|272:224|224:256,1,180
176,328,32839,2,0,B|136:296|136:248,1,90,8|0
176,168,33229,5,0
104,112,33424,2,0,B|136:72|192:72,1,90,0|8
256,128,33813,1,0
330,72,34008,2,0,B|376:72|408:112,1,90
336,168,34398,1,8
256,328,34787,5,4
176,168,35177,2,0,B|88:216,1,90,8|0
336,168,35761,2,0,B|424:216,1,90,0|8
256,128,36346,1,0
305,300,36735,1,8
393,300,36930,1,0
209,300,37320,1,8
121,300,37514,1,12
172,127,37904,6,0,B|356:191,1,180,0|8
342,95,38489,2,0,B|158:31,1,180,0|0
120,208,39268,1,0
168,280,39463,1,0
256,312,39657,1,0
344,280,39852,1,8
392,208,40047,1,0
256,88,40437,5,8
256,176,40631,1,8
416,256,41021,5,4
256,336,41411,1,8
96,256,41800,1,0
256,176,42190,2,0,B|200:168|176:120,1,90,8|0
256,80,42579,1,0
256,264,42969,2,0,B|312:272|336:320,1,90,8|0
256,360,43358,1,0
176,320,43553,6,0,B|144:264|160:208|200:176|240:168,1,180
312,152,44138,1,0
264,72,44333,1,0
352,64,44527,1,8
400,136,44722,2,0,B|404:200|365:243|315:254|272:232,2,180
232,72,45891,6,0,B|176:72|152:128,1,90,0|8
232,160,46281,1,0
216,248,46476,1,0
255,255,46573,1,0
296,237,46670,1,0
319,203,46768,1,0
320,160,46865,1,12
472,64,47255,5,0
424,144,47450,1,0
400,232,47644,2,8,B|392:288|416:328,1,90,8|0
256,224,48229,5,0
192,288,48424,1,8
128,352,48618,1,0
88,176,49008,1,0
152,112,49203,1,8
216,48,49397,1,0
384,120,49787,5,0
440,192,49982,1,8
352,216,50177,2,0,B|328:336|192:336,1,180
224,240,50761,1,8
152,296,50956,5,0
96,128,51346,1,0
256,40,51735,1,0
288,216,52125,1,0
304,304,52320,2,0,B|320:352|368:368,1,90,8|0
408,192,52904,5,0
424,104,53099,1,8
336,136,53294,1,0
104,192,53683,5,0
88,104,53878,1,8
176,136,54073,1,0
256,296,54463,5,0
256,280,54852,1,4
256,264,55242,1,4
256,248,55631,1,4
256,64,56021,5,0
256,64,56216,1,8
256,152,56411,1,0
256,160,56508,1,0
256,168,56605,1,0
256,192,56703,12,8,57774
256,48,57969,1,0
408,136,58359,1,0
352,304,58748,1,0
160,304,59138,1,0
104,136,59527,1,0
80,192,64398,5,0
152,248,64592,1,0
192,168,64787,1,0
256,232,64982,1,0
320,168,65177,1,0
360,248,65372,1,0
432,192,65566,1,4
256,96,65956,5,4
112,224,66346,2,0,B|168:320,1,90,8|0
400,224,66930,2,0,B|344:320,1,90,0|8
440,144,67514,6,0,B|392:128|352:152,1,90
304,232,67904,1,8
256,312,68099,1,0
256,128,68489,2,0,B|256:40,1,90,0|8
72,144,69073,6,0,B|120:128|160:152,1,90
208,232,69463,1,8
256,312,69658,1,0
256,312,70047,1,0
336,152,70437,5,0
320,64,70631,1,0
256,128,70826,1,0
192,64,71021,1,8
176,152,71216,1,0
256,312,71605,5,0
256,304,71800,1,0
256,296,71995,1,0
256,288,72190,1,4
432,248,72579,1,8
352,200,72774,1,0
80,248,73164,1,0
160,200,73359,1,8
176,24,73748,6,0,B|224:112,1,90
336,24,74138,2,8,B|288:112,1,90,8|0
256,184,74527,5,0
200,256,74722,1,0
256,184,74917,1,8
312,256,75112,1,0
368,328,75307,5,0
408,248,75502,1,0
352,176,75696,1,8
296,104,75891,2,0,B|224:80|176:112|152:168|176:208|184:224,1,180
88,144,76476,1,8
88,232,76670,1,0
88,48,77060,6,0,B|144:48|168:96,1,90,0|8
208,168,77450,1,0
304,168,77644,1,0
348,88,77839,2,0,B|376:43|439:49,1,90,0|8
256,248,78424,5,4
348,88,78813,1,8
436,88,79008,1,0
164,88,79398,1,0
76,88,79593,1,8
216,200,79982,6,0,B|168:216|160:264,1,90
296,200,80372,2,0,B|344:216|352:264,1,90,8|0
256,192,80664,12,0,82709
256,104,83099,5,0
192,192,83294,1,0
256,280,83489,1,8
320,192,83684,1,0
104,192,84073,5,0
256,24,84268,1,8
408,192,84463,1,0
256,192,84560,12,0,88553
