osu file format v5

[General]
AudioFilename: Say Anything - Wow, I Can Get Sexual Too.mp3
AudioLeadIn: 0
AudioHash: 76f5e3ca89b3a23379408612bb89f02e
PreviewTime: -1
Countdown: 1
SampleSet: Soft
EditorBookmarks: 111295

[Metadata]
Title:Wow, I Can Get Sexual Too
Artist:Say Anything
Creator:Rolled
Version:Normal

[Difficulty]
HPDrainRate:4
CircleSize:4
OverallDifficulty:4
SliderMultiplier:1.3
SliderTickRate:2

[Events]
//Background and Video events
//Break Periods
2,60992,77637
2,111512,128157
//Storyboard Layer 0 (Background)
//Storyboard Layer 1 (Failing)
//Storyboard Layer 2 (Passing)
//Storyboard Layer 3 (Foreground)
//Storyboard Sound Samples
//Background Colour Transformations
3,148,163,162,255

[TimingPoints]
2374,526.315789473684,4,2,0,100
44214,526.315789473684,4,1,0,71
78424,526.315789473684,4,2,0,100
94734,526.315789473684,4,1,0,71
129204,526.315789473684,4,2,0,100
145254,526.315789473684,4,1,0,70

[HitObjects]
144,80,11321,2,0,B|144:80|232:40|313:122|416:64,1,260
400,200,12900,1,2
296,280,13426,1,0
200,192,13952,1,2
256,72,14479,6,6,B|256:72|280:128|196:180|288:248,1,130
128,152,15531,5,0
144,304,16058,2,2,B|144:304|276:311|276:209|317:126|448:136,1,325
400,136,17900,1,2
208,120,18689,6,6,B|208:120|279:130|243:233|352:208,1,130
176,264,19742,5,0
128,224,20005,1,2
176,184,20268,1,0
120,144,20531,1,2
168,96,20795,1,0
272,24,21321,2,0,B|272:24|371:136|288:280,1,260
88,296,23163,6,4,B|88:296|188:355|296:296,1,195
160,248,24479,2,4,B|160:248|84:226|40:184,1,130
136,96,25531,1,2
136,96,25795,1,0
136,96,26058,1,2
256,144,26584,2,0,B|256:144|392:144,1,130
168,352,28163,6,0,B|168:352|240:312|288:376|336:320,2,130
152,224,29742,1,0
256,152,30268,1,2
360,232,30795,1,0
256,304,31321,6,6,B|256:304|240:248|296:200|232:144,1,130
256,48,32373,5,0
208,96,32637,1,2
256,136,32900,1,0
304,88,33163,1,2
344,136,33426,1,0
288,216,33821,1,0
168,240,34303,2,4,B|168:240|118:254|88:200,2,86.6666666666666
288,192,35531,6,6,B|288:192|240:184|248:112|168:120,1,130
136,240,36584,5,2
176,288,36847,1,0
216,240,37110,1,2
256,288,37373,1,0
296,240,37637,1,2
216,136,38163,1,0
216,136,38689,1,0
216,136,39216,1,0
216,72,39479,5,0
216,72,39742,1,0
216,72,40005,1,4
344,72,40531,1,0
344,72,40795,1,0
344,72,41058,1,4
256,168,41584,5,0
256,168,41847,1,0
256,168,42110,1,0
256,168,42373,1,4
256,168,42637,1,4
256,168,42900,1,4
256,168,43163,1,4
256,168,43426,1,4
256,168,43952,1,4
152,96,44477,6,4,B|152:96|88:160|176:256,2,130
264,160,46056,1,0
264,160,46582,1,0
384,120,47108,2,4,B|384:120|415:181|384:248,1,130
128,296,48687,6,4,B|128:296|64:288|40:192,1,130
44,206,49740,2,0,B|44:206|43:116|144:80,1,130
106,99,50792,2,4,B|106:99|178:51|264:96,1,130
231,83,51845,2,0,B|231:83|319:99|312:200,1,130
256,288,52898,5,4
296,168,53424,1,4
256,40,53950,1,4
224,168,54477,1,0
224,232,54740,1,0
168,200,55003,2,4,B|168:200|32:200,2,130
120,48,57108,6,4,B|120:48|255:9|408:56,2,260
256,272,60266,1,0
256,272,60792,1,4
256,32,78687,5,2
256,96,78950,1,2
256,160,79213,1,0
256,288,79739,1,0
352,200,80266,1,2
256,112,80792,1,2
160,200,81318,1,4
256,288,81845,6,6,B|256:288|240:232|296:192|240:144,1,130
256,32,82897,5,0
304,80,83160,1,2
344,128,83424,1,2
344,256,83950,1,0
160,200,84739,6,4,B|160:200|160:88,2,97.5
288,200,86055,6,6,B|288:200|280:144|224:144|232:72,1,130
200,208,87108,5,2
200,208,87371,1,2
200,272,87634,1,0
200,272,87897,1,0
256,240,88160,1,2
256,240,88424,1,2
384,240,88950,1,0
384,240,89476,1,4
352,40,90529,6,4,B|352:40|352:208,1,130
208,168,91581,2,4,B|208:168|208:32,1,130
64,264,92897,2,4,B|64:264|472:264,1,390
328,304,94997,5,0
328,304,95260,2,4,B|328:304|184:304,1,130
198,304,96049,1,0
256,184,96576,1,4
344,88,97102,1,4
256,8,97628,1,4
152,88,98155,1,4
208,328,99207,6,4,B|208:328|352:328,1,130
336,200,100260,2,0,B|336:200|200:200,1,130
200,72,101312,2,4,B|200:72|368:72,1,130
336,200,102365,2,0,B|336:200|200:200,1,130
256,80,103418,5,4
256,208,103944,1,4
256,336,104470,1,4
368,272,104997,1,0
368,272,105260,1,0
368,272,105523,1,0
256,200,106049,1,4
256,200,106576,1,4
136,48,107628,6,4,B|136:48|262:0|392:56,3,260
256,192,129204,12,0,130782
256,184,131835,1,0
256,184,132361,1,0
256,184,132888,1,0
256,192,133414,12,0,134993
256,192,136046,1,0
256,192,136572,1,0
256,192,137098,1,0
256,192,137625,12,0,139204
256,192,140256,1,0
256,192,140782,1,0
256,192,141309,1,0
256,192,141835,12,0,143414
256,192,144467,1,0
256,192,144993,1,0
256,192,145517,1,4
256,128,145780,1,4
224,72,146043,1,4
288,72,146306,1,4
256,16,146569,1,4
256,144,147096,5,0
256,272,147622,1,4
256,144,148148,1,4
256,272,148675,1,4
256,8,149727,6,4,B|256:8|256:88|360:144,1,130
320,120,150780,2,0,B|320:120|376:72,2,65
320,120,151832,2,4,B|320:120|368:176|320:272,1,130
332,242,152885,2,0,B|332:242|236:242,2,65
208,200,153938,6,4,B|208:200|120:176|80:96,2,130
232,72,155517,1,0
232,72,155780,1,0
232,72,156043,2,4,B|232:72|302:31|368:72,2,130
256,264,157885,5,4
256,264,158148,1,4
80,80,158938,1,4
80,80,159201,1,4
400,80,159990,1,4
400,80,160254,1,4
256,192,161832,12,0,162885
256,192,163938,12,0,164990
256,192,166043,12,0,167096
256,192,168148,12,0,170254
112,64,170780,5,4
152,112,171043,1,4
192,160,171306,1,4
240,120,171569,1,4
280,168,171832,1,4
256,296,172359,1,0
256,296,172885,1,4
144,184,173411,1,4
376,184,173938,1,4
256,192,174990,12,4,178148
