osu file format v14

[General]
AudioFilename: artistandtitle.mp3
AudioLeadIn: 0
PreviewTime: 57674
Countdown: 0
SampleSet: Soft
StackLeniency: 0.4
Mode: 0
LetterboxInBreaks: 0
WidescreenStoryboard: 0

[Editor]
Bookmarks: 10149,19654,29159,38664,48169,57674,67179,76684,88565,98070,107575
DistanceSpacing: 1.2
BeatDivisor: 4
GridSize: 4
TimelineZoom: 1.8

[Metadata]
Title:kirakira TIME*
TitleUnicode:きらきらタイム☆
Artist:Sawawa
ArtistUnicode:さわわ
Creator:Priti
Version:ADVANCED
Source:SOUND VOLTEX III GRAVITY WARS
Tags:SDVX3 Happy Hardcore Gamu
BeatmapID:780814
BeatmapSetID:354013

[Difficulty]
HPDrainRate:5
CircleSize:4
OverallDifficulty:7
ApproachRate:8
SliderMultiplier:1.38
SliderTickRate:1

[Events]
//Background and Video events
0,0,"bg.png",0,0
//Break Periods
2,48369,51578
2,67379,71182
2,86389,87518
//Storyboard Layer 0 (Background)
//Storyboard Layer 1 (Fail)
//Storyboard Layer 2 (Pass)
//Storyboard Layer 3 (Foreground)
//Storyboard Sound Samples

[TimingPoints]
645,297.029702970297,4,2,1,80,1,0
5397,-100,4,3,1,80,0,0
10149,-100,4,2,2,85,0,0
19654,-100,4,2,1,85,0,0
38664,-100,4,2,2,85,0,0
43417,-100,4,3,1,85,0,0
48169,-100,4,2,2,75,0,0
55298,-100,4,3,1,95,0,0
57674,-100,4,2,2,85,0,1
62427,-100,4,3,1,85,0,1
65843,-100,4,2,1,90,0,1
67179,-100,4,2,1,90,0,0
72006,-100,4,2,1,30,0,0
74902,-100,4,2,1,75,0,0
76684,-100,4,2,2,75,0,0
88565,-100,4,2,1,85,0,0
107575,-100,4,2,1,90,0,1
116783,-100,4,2,1,90,0,0

[Colours]
Combo1 : 156,237,192
Combo2 : 89,189,249
Combo3 : 204,241,135
Combo4 : 156,142,234

[HitObjects]
111,295,645,6,0,P|101:211|109:149,1,138,12|0,3:2|0:0,0:0:0:0:
150,88,1090,2,0,L|294:97,1,138,2|0,0:0|0:0,0:0:0:0:
324,171,1536,2,0,L|248:177,1,69,2|0,0:0|0:0,0:0:0:0:
214,248,1833,6,0,P|312:262|372:259,1,138,2|0,0:0|0:0,0:0:0:0:
403,197,2278,1,0,0:0:0:0:
425,117,2427,2,0,L|416:23,1,69,4|0,3:1|0:0,0:0:0:0:
338,25,2724,2,0,L|344:93,1,69,4|0,0:1|0:0,0:0:0:0:
265,118,3021,6,0,L|112:106,1,138,4|0,3:1|0:0,0:0:0:0:
51,138,3466,2,0,P|48:192|88:277,1,138,2|0,0:0|0:0,0:0:0:0:
155,303,3912,2,0,P|210:290|243:288,1,69,2|0,0:0|0:0,0:0:0:0:
299,318,4209,6,0,B|401:328|401:328|434:298,1,138,4|4,3:1|3:1,0:0:0:0:
448,224,4654,1,0,0:0:0:0:
403,153,4803,2,0,P|414:98|426:68,1,69,4|0,3:1|0:0,0:0:0:0:
459,13,5100,1,10,1:0:0:0:
459,13,5397,6,0,L|375:3,1,69,4|4,0:1|0:1,0:0:0:0:
319,48,5694,2,0,L|227:53,1,69,4|4,0:1|0:1,0:0:0:0:
171,25,5991,2,0,L|160:188,1,138,4|4,0:1|0:1,0:0:0:0:
191,240,6437,1,4,0:1:0:0:
220,317,6585,6,0,P|296:321|387:334,1,138,12|0,0:2|0:0,0:0:0:0:
437,351,7031,2,0,P|470:323|480:288,1,69,4|4,0:1|0:1,0:0:0:0:
462,218,7328,1,4,0:1:0:0:
422,145,7476,2,0,L|339:153,1,69,4|4,0:1|0:1,0:0:0:0:
308,224,7773,6,0,L|476:235,1,138,4|4,0:1|0:1,0:0:0:0:
498,165,8219,1,4,0:1:0:0:
490,82,8367,2,0,L|484:38,3,34.5,4|4|4|4,0:1|0:1|0:1|0:1,0:0:0:0:
473,35,8664,2,0,L|429:29,3,34.5,4|4|4|4,0:1|0:1|0:1|0:1,0:0:0:0:
426,42,8961,5,4,0:1:0:0:
490,82,9852,2,0,L|483:163,1,69,10|0,3:1|0:0,0:0:0:0:
420,203,10149,6,0,P|362:208|274:222,1,138,12|12,1:2|1:0,0:0:0:0:
203,241,10595,1,0,0:0:0:0:
124,215,10744,2,0,P|99:188|91:154,1,69,4|0,1:0|0:0,0:0:0:0:
116,78,11041,2,0,L|210:72,1,69,12|0,1:0|0:0,0:0:0:0:
237,9,11338,6,0,L|226:146,1,138,4|12,1:0|1:0,0:0:0:0:
304,173,11783,1,0,0:0:0:0:
382,200,11932,2,0,P|435:195|466:188,1,69,4|0,1:0|0:0,0:0:0:0:
479,114,12229,2,0,P|408:99|350:99,1,103.5,12|2,1:0|0:0,0:0:0:0:
366,83,12526,6,0,P|332:90|297:90,1,69,4|0,1:0|0:0,0:0:0:0:
220,61,12823,1,12,1:0:0:0:
139,77,12971,1,0,0:0:0:0:
104,152,13120,2,0,L|112:249,1,69,4|0,1:0|0:0,0:0:0:0:
178,267,13417,2,0,L|197:190,1,69,12|0,1:0|0:0,0:0:0:0:
272,172,13714,6,0,P|326:175|426:193,1,138,4|12,1:0|1:0,0:0:0:0:
473,240,14159,1,0,0:0:0:0:
503,162,14308,2,0,P|511:117|508:75,1,69,4|0,1:0|0:0,0:0:0:0:
466,23,14605,2,0,P|423:38|388:62,1,69,12|0,1:0|0:0,0:0:0:0:
333,95,14902,6,0,B|244:81|291:110|192:95,1,138,6|14,1:0|1:0,0:0:0:0:
116,73,15347,1,2,0:1:0:0:
49,122,15496,2,0,P|54:166|71:193,1,69,4|2,1:0|0:1,0:0:0:0:
140,223,15793,2,0,L|240:215,1,69,12|2,1:0|0:1,0:0:0:0:
290,201,16090,6,0,L|277:354,1,138,4|12,1:0|1:0,0:0:0:0:
197,357,16536,1,2,0:1:0:0:
150,290,16684,2,0,P|140:221|142:210,1,69,4|2,1:0|0:1,0:0:0:0:
172,146,16981,2,0,P|188:88|188:38,1,103.5,14|2,1:0|0:0,0:0:0:0:
180,29,17278,6,0,L|338:20,1,138,6|14,1:0|1:0,0:0:0:0:
398,40,17724,1,2,0:1:0:0:
426,117,17872,2,0,L|416:196,1,69,12|12,1:2|1:2,0:0:0:0:
417,185,18318,6,0,B|316:196|316:196|283:164,1,138,6|6,1:0|1:0,0:0:0:0:
254,96,18763,2,0,L|160:87,1,69,6|6,1:0|1:0,0:0:0:0:
112,128,19060,2,0,L|28:135,1,69,6|0,1:0|0:0,0:0:0:0:
19,54,19357,1,2,3:0:0:0:
19,54,19654,6,0,P|91:42|173:13,1,138,6|14,1:0|1:0,0:0:0:0:
234,37,20100,1,2,0:1:0:0:
300,86,20248,2,0,P|294:134|281:163,1,69,4|2,1:0|0:1,0:0:0:0:
213,192,20545,2,0,P|204:172|206:147,2,34.5,12|0|2,1:0|0:0|0:1,0:0:0:0:
247,268,20843,6,0,L|335:273,1,69,4|2,1:0|0:1,0:0:0:0:
393,243,21140,1,14,1:0:0:0:
455,296,21288,1,2,0:1:0:0:
496,223,21437,2,0,P|506:178|506:150,1,69,4|2,1:0|0:1,0:0:0:0:
467,81,21734,2,0,L|366:89,1,69,12|2,1:0|0:1,0:0:0:0:
322,120,22031,6,0,L|174:112,1,138,4|12,1:0|1:0,0:0:0:0:
105,88,22476,1,2,0:1:0:0:
31,127,22625,2,0,L|42:212,1,69,4|2,1:0|0:1,0:0:0:0:
91,260,22922,2,0,L|173:267,1,69,12|2,1:0|0:1,0:0:0:0:
235,230,23219,5,4,1:0:0:0:
272,303,23367,1,2,0:1:0:0:
342,256,23516,2,0,P|335:187|321:119,1,138,12|6,1:0|1:0,0:0:0:0:
270,54,23961,1,2,1:0:0:0:
253,57,24036,1,0,1:0:0:0:
236,60,24110,2,0,P|196:53|162:35,1,69,4|6,1:0|1:0,0:0:0:0:
100,85,24407,6,2,L|121:245,1,138,12|12,1:2|1:0,0:1:0:0:
179,276,24852,1,2,0:1:0:0:
201,355,25001,2,0,P|145:351|129:340,2,69,4|2|12,1:0|0:1|1:0,0:0:0:0:
279,330,25446,1,2,0:1:0:0:
360,347,25595,6,0,L|369:260,1,69,4|2,1:0|0:1,0:0:0:0:
310,217,25892,2,0,P|298:167|295:54,1,138,14|6,1:0|1:0,0:0:0:0:
449,27,26486,2,0,P|447:50|441:76,2,34.5,14|0|0,1:0|0:0|0:0,0:0:0:0:
366,34,26783,6,0,L|215:28,1,138,6|14,1:0|1:0,0:0:0:0:
147,8,27229,1,2,0:1:0:0:
71,41,27377,2,0,P|62:76|63:130,1,69,4|2,1:0|0:1,0:0:0:0:
117,169,27674,2,0,P|125:204|125:258,1,69,14|0,1:0|0:0,0:0:0:0:
89,311,27971,6,0,B|156:319|156:319|196:292,1,103.5,2|2,1:0|1:0,0:0:0:0:
213,181,28417,2,0,B|183:160|183:160|116:168,1,103.5,2|2,1:0|1:0,0:0:0:0:
27,255,28862,1,2,1:0:0:0:
27,255,29011,1,6,1:0:0:0:
40,172,29159,6,2,L|29:5,1,138,12|12,1:2|1:0,0:1:0:0:
113,41,29605,1,2,0:1:0:0:
194,53,29753,2,0,L|189:132,1,69,4|2,1:0|0:1,0:0:0:0:
155,198,30051,2,0,P|158:242|169:282,1,69,12|2,1:0|0:1,0:0:0:0:
188,345,30347,5,4,1:0:0:0:
244,284,30496,1,2,0:1:0:0:
268,362,30645,2,0,L|350:355,1,69,12|2,1:0|0:1,0:0:0:0:
390,293,30942,2,0,L|405:206,1,69,4|2,1:0|0:1,0:0:0:0:
375,146,31239,1,12,1:0:0:0:
433,88,31387,1,2,0:1:0:0:
372,31,31536,6,0,P|317:22|276:23,1,69,4|2,1:0|0:1,0:0:0:0:
238,73,31833,2,0,P|167:86|87:88,1,138,14|6,1:0|1:0,0:0:0:0:
85,169,32278,1,2,1:0:0:0:
69,250,32427,2,0,L|18:258,2,34.5,12|4|6,1:1|1:1|1:1,0:1:0:0:
145,282,32724,6,0,L|234:289,1,69,12|4,1:2|1:0,0:0:0:0:
228,278,32946,1,4,1:0:0:0:
242,268,33021,2,0,P|292:267|400:285,1,138,6|12,1:0|1:2,0:0:0:0:
453,314,33466,1,6,1:0:0:0:
510,253,33615,2,0,P|506:200|500:181,1,69,4|6,1:0|1:0,0:0:0:0:
450,119,33912,6,2,P|464:67|474:50,2,69,12|4|4,1:2|1:0|1:0,0:1:0:0:
419,195,34357,1,6,1:0:0:0:
351,243,34506,2,0,L|257:237,1,69,4|6,1:0|1:0,0:0:0:0:
282,238,34951,6,0,L|267:74,1,138,6|4,1:0|1:0,0:0:0:0:
195,62,35397,2,0,P|152:65|121:75,1,69,6|4,1:0|1:0,0:0:0:0:
69,132,35694,1,6,1:0:0:0:
110,203,35843,1,4,1:0:0:0:
105,219,35917,1,4,1:0:0:0:
100,235,35991,2,0,L|107:312,1,69,6|4,1:0|1:0,0:0:0:0:
177,346,36288,6,0,P|241:352|337:350,1,138,6|6,1:0|1:0,0:0:0:0:
389,315,36734,1,4,1:0:0:0:
350,242,36882,2,0,P|334:194|338:166,1,69,6|4,1:0|1:0,0:0:0:0:
387,106,37179,2,0,P|403:58|399:30,1,69,6|6,1:0|1:0,0:0:0:0:
319,54,37476,6,2,P|301:119|466:136,1,276,4|2,1:0|0:0,0:1:0:0:
451,16,38368,1,2,0:0:0:0:
319,54,38665,6,0,L|239:60,2,69,12|0|12,1:2|0:0|1:0,0:0:0:0:
387,106,39110,1,0,0:0:0:0:
387,106,39259,2,0,P|383:186|371:256,1,138,4|12,1:0|1:0,0:0:0:0:
316,302,39704,1,0,0:0:0:0:
239,271,39852,6,0,P|181:279|158:295,1,69,4|0,1:0|0:0,0:0:0:0:
93,309,40149,2,0,P|35:301|12:285,1,69,12|0,1:0|0:0,0:0:0:0:
1,217,40446,2,0,L|149:204,1,138,4|12,1:0|1:0,0:0:0:0:
157,124,40892,1,0,0:0:0:0:
176,43,41041,6,0,L|253:52,1,69,12|0,1:2|0:0,0:0:0:0:
316,96,41338,2,0,L|412:84,1,69,12|0,1:0|0:0,0:0:0:0:
456,48,41635,1,4,1:0:0:0:
500,116,41783,1,0,0:0:0:0:
448,180,41932,2,0,P|452:228|468:259,1,69,12|0,1:0|0:0,0:0:0:0:
493,322,42229,6,0,L|345:330,1,138,4|12,1:0|1:0,0:0:0:0:
206,256,42823,1,4,1:0:0:0:
128,284,42971,1,4,1:0:0:0:
125,267,43045,1,4,1:0:0:0:
122,249,43120,2,0,L|137:154,1,69,14|4,1:0|1:0,0:0:0:0:
190,120,43417,6,0,P|179:61|163:46,1,69,12|8,0:2|0:2,0:0:0:0:
106,103,43714,1,8,0:2:0:0:
132,180,43862,2,0,L|278:163,1,138,8|8,0:2|0:2,0:0:0:0:
346,194,44308,2,0,L|334:270,1,69,8|8,0:2|0:2,0:0:0:0:
325,276,44531,1,8,0:2:0:0:
315,290,44605,6,0,P|361:307|462:305,1,138,12|8,0:2|0:2,0:0:0:0:
508,251,45050,1,8,0:2:0:0:
465,179,45199,2,8,P|466:129|475:100,1,69,8|8,0:2|0:2,0:2:0:0:
505,35,45496,2,0,L|413:28,1,69,8|8,0:2|0:2,0:0:0:0:
356,53,45793,6,0,L|207:63,1,138,12|8,0:2|0:2,0:0:0:0:
137,41,46239,1,8,0:2:0:0:
82,102,46387,1,12,0:2:0:0:
131,168,46536,1,8,0:2:0:0:
60,210,46684,2,0,P|69:271|81:296,1,69,8|8,0:2|0:2,0:0:0:0:
137,328,46981,6,0,L|181:322,3,34.5,12|4|4|4,0:2|0:1|0:1|0:1,0:0:0:0:
183,311,47278,2,0,L|189:267,3,34.5,4|4|4|4,0:1|0:1|0:1|0:1,0:0:0:0:
175,264,47575,1,0,0:0:0:0:
119,202,47724,1,4,0:1:0:0:
200,185,47872,2,2,P|214:120|213:60,1,103.5,6|0,1:1|2:0,0:1:0:0:
203,65,48169,5,12,1:2:0:0:
252,43,52328,6,0,L|245:-2,4,34.5,4|2|2|2|4,1:0|0:0|0:0|0:0|1:0,0:0:0:0:
162,129,52922,6,0,L|315:123,1,138,12|12,1:2|1:0,0:0:0:0:
373,85,53367,1,0,0:0:0:0:
441,132,53516,2,0,L|431:226,1,69,4|2,1:0|0:1,0:0:0:0:
485,265,53813,2,0,L|475:359,1,69,12|2,1:0|0:1,0:0:0:0:
400,364,54110,6,0,P|332:352|263:353,1,138,12|12,1:2|1:0,0:0:0:0:
181,366,54555,1,0,0:0:0:0:
114,315,54704,2,0,P|102:264|100:240,1,69,4|2,1:0|0:1,0:0:0:0:
149,180,55001,2,0,P|161:129|163:105,1,69,12|2,1:0|0:1,0:0:0:0:
135,34,55298,6,0,L|221:27,1,69,12|8,1:2|0:2,0:0:0:0:
274,71,55595,2,0,L|369:82,1,69,8|8,0:2|0:2,0:0:0:0:
417,43,55892,1,12,1:2:0:0:
474,102,56041,1,8,0:2:0:0:
434,174,56189,1,8,0:2:0:0:
354,160,56338,6,0,P|281:163|206:173,1,138,6|6,1:0|1:0,0:0:0:0:
141,204,56783,2,0,P|89:197|60:175,1,69,6|6,1:0|1:0,0:0:0:0:
22,125,57080,1,6,1:0:0:0:
147,16,57377,2,0,L|233:21,1,69,6|0,1:0|2:0,0:0:0:0:
272,81,57674,6,0,L|439:71,1,138,4|12,1:0|1:0,0:0:0:0:
460,138,58120,1,2,0:1:0:0:
453,220,58268,2,0,P|439:259|408:294,1,69,4|2,1:0|0:1,0:0:0:0:
341,297,58565,2,0,L|262:293,1,69,12|2,1:0|0:1,0:0:0:0:
210,237,58862,5,4,1:0:0:0:
133,270,59011,1,2,0:1:0:0:
71,214,59159,2,0,P|50:157|51:60,1,138,12|4,1:0|1:0,0:0:0:0:
100,16,59605,1,2,0:1:0:0:
182,13,59753,2,0,P|169:66|152:82,1,69,12|2,1:0|0:1,0:0:0:0:
130,154,60050,6,0,L|294:141,1,138,6|14,1:0|1:0,0:0:0:0:
350,134,60496,1,2,0:1:0:0:
405,195,60645,2,0,L|395:267,1,69,4|2,1:0|0:1,0:0:0:0:
322,303,60942,2,0,P|304:260|293:241,1,69,12|0,1:0|0:0,0:0:0:0:
211,258,61239,6,0,P|134:261|62:235,1,138,6|14,1:0|1:0,0:0:0:0:
37,170,61684,1,0,0:0:0:0:
48,88,61832,2,0,P|113:68|182:72,1,138,6|14,1:0|1:0,0:0:0:0:
254,114,62278,1,0,0:0:0:0:
330,82,62427,6,8,L|336:3,1,69,12|8,0:2|0:2,0:2:0:0:
417,1,62724,2,8,L|428:73,1,69,8|8,0:2|0:2,0:2:0:0:
465,142,63021,2,8,P|463:176|442:282,1,138,8|8,0:2|0:2,0:2:0:0:
365,306,63466,1,8,0:2:0:0:
289,271,63615,6,8,P|224:262|150:328,1,138,12|8,0:2|0:2,0:2:0:0:
91,337,64060,1,0,0:0:0:0:
31,278,64209,2,8,P|16:238|23:202,1,69,8|8,0:2|0:2,0:2:0:0:
86,164,64506,2,0,P|101:124|94:88,1,69,8|0,0:2|0:0,0:0:0:0:
45,34,64803,6,8,L|12:24,12,34.5,12|8|8|8|8|8|8|8|12|8|8|8|8,0:2|0:2|0:2|0:2|0:2|0:2|0:2|0:2|0:2|0:2|0:2|0:2|0:2,0:2:0:0:
106,90,65843,6,0,P|164:86|264:70,1,138,6|6,1:0|1:0,0:0:0:0:
319,42,66288,1,6,1:0:0:0:
366,110,66437,1,6,1:0:0:0:
312,173,66585,2,0,B|298:265|298:265|322:323,1,138,6|4,1:0|3:0,0:0:0:0:
315,306,67179,5,6,1:2:0:0:
197,203,71932,5,12,1:2:0:0:
256,192,72006,12,12,74902,1:2:0:0:
361,261,75496,6,0,B|379:328|346:299|368:379,1,103.5,12|12,1:2|1:2,0:0:0:0:
451,273,75942,2,0,P|440:218|387:169,1,103.5,12|12,1:2|1:2,0:0:0:0:
292,213,76387,1,6,1:2:0:0:
292,213,76536,1,6,1:2:0:0:
305,131,76684,6,0,B|279:119|252:102|218:100|187:110|162:124|135:146|135:146|97:176|53:159|46:120|52:88|108:72|108:72|94:94|95:130,1,414,12|0,1:2|0:0,0:0:0:0:
24,274,77872,6,0,B|38:295|60:310|85:320|115:317|145:305|177:274|177:224|177:224|193:256|228:272|259:274|290:256|290:256|309:246|316:245|334:272|291:288,1,414,12|0,1:2|0:0,0:0:0:0:
461,335,79060,6,0,B|473:317|478:290|478:261|470:239|461:223|445:213|411:200|411:200|428:174|426:142|426:142|467:155|495:155|515:144|524:127|523:103|506:84|482:74|460:85|455:107|459:124|471:129|475:129|482:126|472:125,1,414,12|0,1:2|0:0,0:0:0:0:
315,167,80248,6,0,B|284:163|257:171|257:171|265:119|265:119|233:138|203:140|203:140|177:108|143:102|126:120|126:120|106:136|89:153|64:154|31:137|20:115|42:102|63:101|82:121,1,414,12|0,1:2|0:0,0:0:0:0:
141,270,81437,6,0,L|294:259,1,138,6|12,1:2|1:0,0:0:0:0:
440,293,82031,2,0,P|456:224|452:154,1,138,12|12,1:2|1:0,0:0:0:0:
319,59,82625,6,0,P|261:88|164:68,1,138,12|12,1:2|1:0,0:0:0:0:
40,10,83219,2,0,B|25:53|25:53|44:152,1,138,12|12,1:2|1:0,0:0:0:0:
156,264,83813,6,0,L|242:258,1,69,12|4,1:2|1:0,0:0:0:0:
295,215,84110,2,0,L|381:221,1,69,12|4,1:2|1:0,0:0:0:0:
440,252,84407,1,12,1:2:0:0:
493,188,84556,1,4,1:0:0:0:
448,117,84704,2,0,P|436:76|436:41,1,69,12|4,1:2|1:0,0:0:0:0:
358,18,85001,6,0,P|356:68|314:158,1,138,12|12,1:2|1:2,0:0:0:0:
240,160,85446,1,0,0:0:0:0:
169,115,85595,2,0,L|124:118,8,34.5,12|0|0|0|12|0|0|0|12,1:2|0:0|0:0|0:0|1:2|0:0|0:0|0:0|1:2,0:0:0:0:
169,115,88268,6,0,L|174:190,1,69,6|0,1:0|0:0,0:0:0:0:
244,227,88565,6,0,L|268:75,1,138,6|14,1:0|1:0,0:0:0:0:
314,23,89011,1,0,0:0:0:0:
394,40,89159,2,0,L|482:36,1,69,6|2,1:0|0:1,0:0:0:0:
499,111,89456,2,0,P|493:167|477:193,1,69,12|2,1:0|0:1,0:0:0:0:
420,225,89753,5,4,1:0:0:0:
345,188,89902,1,2,0:1:0:0:
264,206,90050,2,0,B|186:218|212:188|127:204,1,138,14|6,1:0|1:0,0:0:0:0:
46,221,90496,1,2,0:1:0:0:
18,142,90645,2,0,P|21:88|30:65,1,69,12|2,1:0|0:1,0:0:0:0:
102,41,90942,6,0,L|180:46,1,69,4|2,1:0|0:1,0:0:0:0:
240,90,91239,2,0,L|409:77,1,138,14|6,1:0|1:0,0:0:0:0:
458,95,91684,1,2,0:1:0:0:
499,161,91833,2,0,P|496:204|475:235,1,69,12|2,1:0|0:1,0:0:0:0:
414,272,92130,6,0,P|398:241|398:207,1,69,4|2,1:0|0:1,0:0:0:0:
319,180,92427,2,0,P|244:183|168:193,1,138,14|6,1:0|1:0,0:0:0:0:
101,209,92872,1,6,1:0:0:0:
84,206,92946,1,4,1:0:0:0:
66,203,93021,2,0,L|54:116,1,69,12|6,1:0|1:0,0:0:0:0:
97,62,93318,6,2,L|255:78,1,138,12|12,1:2|1:0,0:1:0:0:
313,97,93763,1,2,0:1:0:0:
319,180,93912,2,0,P|310:223|290:261,1,69,4|2,1:0|0:1,0:0:0:0:
243,306,94209,1,12,1:0:0:0:
282,378,94357,1,2,0:1:0:0:
362,363,94506,6,0,L|443:369,1,69,4|2,1:0|0:1,0:0:0:0:
475,298,94803,2,0,L|461:140,1,138,14|6,1:0|1:0,0:0:0:0:
412,95,95248,1,0,0:0:0:0:
332,71,95397,2,0,P|290:76|260:93,1,69,14|0,1:0|0:1,0:0:0:0:
195,131,95694,6,0,P|132:123|54:106,1,138,6|12,1:0|1:0,0:0:0:0:
7,171,96140,1,2,0:1:0:0:
7,171,96288,2,0,P|14:213|25:246,1,69,4|2,1:0|0:1,0:0:0:0:
96,273,96585,1,14,1:0:0:0:
102,257,96659,1,0,0:0:0:0:
108,240,96734,1,0,0:0:0:0:
185,212,96882,6,0,P|243:208|301:171,1,103.5,6|6,1:0|1:0,0:0:0:0:
205,89,97328,2,0,P|147:93|89:130,1,103.5,6|6,1:0|1:0,0:0:0:0:
108,240,97773,1,6,1:0:0:0:
108,240,97922,1,6,1:0:0:0:
80,318,98070,6,2,L|218:324,1,138,12|12,1:2|1:0,0:1:0:0:
299,307,98516,1,2,0:1:0:0:
372,343,98664,2,0,L|384:262,1,69,4|2,1:0|0:1,0:0:0:0:
350,197,98961,2,0,L|334:115,1,69,12|2,1:0|0:1,0:0:0:0:
383,60,99258,6,0,P|316:49|230:49,1,138,4|14,1:0|1:0,0:0:0:0:
173,87,99704,1,2,0:1:0:0:
157,168,99852,2,0,P|161:202|189:242,1,69,4|2,1:0|0:1,0:0:0:0:
239,287,100149,2,0,P|256:257|260:223,1,69,12|2,1:0|0:1,0:0:0:0:
238,143,100446,5,4,1:0:0:0:
293,81,100595,1,2,0:1:0:0:
369,114,100744,2,0,L|454:108,1,69,12|2,1:0|0:1,0:0:0:0:
501,163,101041,2,0,L|490:250,1,69,4|2,1:1|0:1,0:0:0:0:
420,273,101338,2,0,P|401:265|379:264,2,34.5,4|4|4,1:0|1:0|1:0,0:0:0:0:
468,340,101635,6,0,P|394:351|316:349,1,138,12|12,1:2|1:0,0:0:0:0:
255,316,102080,1,6,1:0:0:0:
173,330,102229,2,0,P|156:289|158:248,1,69,12|6,1:2|1:0,0:0:0:0:
200,195,102526,2,0,P|217:154|215:113,1,69,12|6,1:0|1:0,0:0:0:0:
196,49,102823,6,0,B|279:64|251:30|332:50,1,138,12|4,1:2|1:0,0:0:0:0:
398,99,103268,1,2,0:1:0:0:
428,180,103417,2,0,L|416:260,1,69,4|6,1:0|1:0,0:0:0:0:
260,301,103862,6,0,L|240:136,1,138,6|6,1:0|1:0,0:0:0:0:
183,105,104308,2,0,P|134:93|97:95,1,69,6|6,1:0|1:0,0:0:0:0:
53,147,104605,2,0,P|67:195|87:226,1,69,6|6,1:0|1:0,0:0:0:0:
88,223,104828,1,4,1:0:0:0:
100,235,104902,2,0,L|89:307,1,69,6|6,1:0|1:0,0:0:0:0:
148,364,105199,6,0,L|316:356,1,138,4|6,1:0|1:0,0:0:0:0:
340,296,105645,1,6,1:0:0:0:
417,325,105793,2,0,P|454:326|503:301,2,69,4|2|4,1:0|1:0|1:0,0:0:0:0:
402,243,106239,1,2,0:1:0:0:
387,161,106387,6,0,P|329:153|225:155,1,138,6|4,1:0|1:0,0:0:0:0:
93,207,106981,2,0,L|83:132,1,69,4|0,1:0|0:0,0:0:0:0:
115,61,107278,2,2,L|201:73,1,69,12|0,1:2|0:1,0:1:0:0:
260,38,107575,6,0,B|354:29|354:29|394:77,1,138,6|14,1:2|1:0,0:0:0:0:
404,142,108021,1,2,0:1:0:0:
362,213,108169,2,0,L|279:201,1,69,4|2,1:0|0:1,0:0:0:0:
214,228,108466,1,12,1:0:0:0:
143,183,108615,1,2,0:1:0:0:
64,207,108763,6,0,P|55:158|41:127,1,69,4|2,1:0|0:1,0:0:0:0:
12,65,109060,2,0,L|110:59,1,69,12|2,1:0|0:1,0:0:0:0:
155,96,109357,1,4,1:0:0:0:
199,25,109506,2,0,L|281:34,1,69,2|12,0:1|1:0,0:0:0:0:
336,80,109803,1,2,0:1:0:0:
336,80,109951,6,0,P|346:129|343:220,1,138,4|12,1:0|1:0,0:0:0:0:
304,288,110397,1,2,0:1:0:0:
224,264,110545,2,0,P|156:272|140:280,1,69,0|6,1:0|1:0,0:0:0:0:
82,311,110843,1,12,1:0:0:0:
64,308,110917,1,4,1:0:0:0:
45,303,110991,1,6,1:0:0:0:
13,226,111140,6,0,L|5:78,1,138,12|6,1:2|1:0,0:1:0:0:
83,60,111585,1,6,1:0:0:0:
148,110,111734,2,0,L|140:182,1,69,6|4,1:0|1:0,0:0:0:0:
200,235,112031,2,0,P|240:235|283:213,1,69,6|0,1:0|0:0,0:0:0:0:
337,181,112328,6,2,P|403:189|495:215,1,138,12|6,1:2|1:0,0:1:0:0:
499,284,112773,1,6,1:0:0:0:
433,335,112922,2,0,L|353:339,1,69,6|6,1:0|1:0,0:0:0:0:
287,305,113219,1,6,1:0:0:0:
214,346,113367,6,0,B|144:356|144:356|95:305,1,138,6|6,1:0|1:0,0:0:0:0:
75,227,113813,2,0,L|95:148,1,69,6|6,1:0|1:0,0:0:0:0:
164,202,114110,2,0,L|173:271,1,69,6|6,1:0|1:0,0:0:0:0:
232,328,114407,2,0,L|220:373,2,34.5,4|4|6,1:1|0:1|1:1,0:0:0:0:
288,266,114704,6,0,P|299:206|299:148,2,103.5,6|6|6,1:0|1:0|1:0,0:0:0:0:
314,344,115298,2,0,L|429:336,2,103.5,6|6|6,1:0|1:0|1:0,0:0:0:0:
232,328,115892,5,6,1:0:0:0:
256,192,115966,12,12,116783,1:2:0:0:
