osu file format v14

[General]
AudioFilename: Arctic-Pattern Fire.mp3
AudioLeadIn: 0
PreviewTime: -1
Countdown: 0
SampleSet: Normal
StackLeniency: 0.7
Mode: 1
LetterboxInBreaks: 0
WidescreenStoryboard: 0

[Editor]
DistanceSpacing: 0.8
BeatDivisor: 2
GridSize: 4
TimelineZoom: 1

[Metadata]
Title:Saigetsu~Pattern Fire
TitleUnicode:砕月~ぺったんファイヤー☆
Artist:Sawawa
ArtistUnicode:さわわ
Creator:[Izayoi Sakura]
Version:Futsuu
Source:東方Project
Tags:Arctic Touhou
BeatmapID:623161
BeatmapSetID:256013

[Difficulty]
HPDrainRate:4
CircleSize:4
OverallDifficulty:3
ApproachRate:5
SliderMultiplier:1.2
SliderTickRate:1

[Events]
//Background and Video events
0,0,"BG.png",0,0
//Break Periods
//Storyboard Layer 0 (Background)
//Storyboard Layer 1 (Fail)
//Storyboard Layer 2 (Pass)
//Storyboard Layer 3 (Foreground)
//Storyboard Sound Samples

[TimingPoints]
243,315.789473684211,4,1,0,100,1,0
45716,-100,4,1,0,100,0,1
64664,-100,4,1,0,100,0,0
76032,-100,4,1,0,100,0,1
84874,-100,4,1,0,100,0,0
179611,-100,4,1,0,100,0,1
198558,-100,4,1,0,100,0,0
199821,-100,4,1,0,100,0,1
218769,-100,4,1,0,100,0,0

[HitObjects]
256,192,874,12,0,2453,0:0:0:0:
256,192,2769,5,0,0:0:0:0:
256,192,2927,1,0,0:0:0:0:
256,192,3085,1,8,0:0:0:0:
256,192,3400,1,0,0:0:0:0:
256,192,3716,1,8,0:0:0:0:
256,192,4032,1,0,0:0:0:0:
256,192,4348,1,8,0:0:0:0:
256,192,4664,1,8,0:0:0:0:
256,192,4821,1,8,0:0:0:0:
256,192,4979,1,0,0:0:0:0:
256,192,5295,1,0,0:0:0:0:
256,192,5611,1,0,0:0:0:0:
256,192,5927,1,0,0:0:0:0:
256,192,6243,1,8,0:0:0:0:
256,192,6558,1,0,0:0:0:0:
256,192,6874,1,8,0:0:0:0:
256,192,7190,1,0,0:0:0:0:
256,192,7506,1,8,0:0:0:0:
256,192,7821,1,0,0:0:0:0:
256,192,8137,1,8,0:0:0:0:
256,192,8453,1,0,0:0:0:0:
256,192,8611,1,0,0:0:0:0:
256,192,8769,1,8,0:0:0:0:
256,192,9085,1,8,0:0:0:0:
256,192,9400,1,8,0:0:0:0:
256,192,9716,1,4,0:0:0:0:
256,192,10032,1,4,0:0:0:0:
256,192,10348,1,8,0:0:0:0:
256,192,10664,1,8,0:0:0:0:
256,192,10821,1,0,0:0:0:0:
256,192,11137,1,0,0:0:0:0:
256,192,11295,1,8,0:0:0:0:
256,192,11611,1,4,0:0:0:0:
256,192,11927,1,8,0:0:0:0:
256,192,12243,1,8,0:0:0:0:
256,192,12400,1,0,0:0:0:0:
256,192,12558,1,8,0:0:0:0:
256,192,12874,1,4,0:0:0:0:
256,192,13190,1,8,0:0:0:0:
256,192,13506,1,4,0:0:0:0:
256,192,13821,1,8,0:0:0:0:
256,192,14137,1,8,0:0:0:0:
256,192,14295,1,0,0:0:0:0:
256,192,14453,1,8,0:0:0:0:
256,192,14769,1,8,0:0:0:0:
256,192,14927,1,0,0:0:0:0:
256,192,15243,1,0,0:0:0:0:
256,192,15400,1,4,0:0:0:0:
256,192,15716,1,8,0:0:0:0:
256,192,16032,1,0,0:0:0:0:
256,192,16190,1,0,0:0:0:0:
256,192,16348,1,8,0:0:0:0:
256,192,16664,1,0,0:0:0:0:
256,192,16979,1,8,0:0:0:0:
256,192,17295,1,0,0:0:0:0:
256,192,17453,1,0,0:0:0:0:
256,192,17611,1,8,0:0:0:0:
256,192,17927,1,0,0:0:0:0:
256,192,18243,1,8,0:0:0:0:
256,192,18558,1,0,0:0:0:0:
256,192,18874,1,8,0:0:0:0:
256,192,19032,1,0,0:0:0:0:
256,192,19348,1,0,0:0:0:0:
256,192,19506,1,8,0:0:0:0:
256,192,19821,1,4,0:0:0:0:
256,192,20137,1,4,0:0:0:0:
256,192,20453,1,4,0:0:0:0:
256,192,20769,1,8,0:0:0:0:
256,192,21085,1,0,0:0:0:0:
256,192,21243,1,0,0:0:0:0:
256,192,21400,1,8,0:0:0:0:
256,192,21716,1,0,0:0:0:0:
256,192,22032,1,8,0:0:0:0:
256,192,22348,1,8,0:0:0:0:
256,192,22664,1,8,0:0:0:0:
256,192,22821,1,8,0:0:0:0:
256,192,22979,1,0,0:0:0:0:
256,192,23295,1,8,0:0:0:0:
256,192,23453,1,0,0:0:0:0:
256,192,23769,1,4,0:0:0:0:
256,192,24085,1,4,0:0:0:0:
256,192,24400,1,0,0:0:0:0:
256,192,24558,1,4,0:0:0:0:
256,192,24874,1,4,0:0:0:0:
256,192,25190,1,0,0:0:0:0:
256,192,25348,1,0,0:0:0:0:
256,192,25506,1,8,0:0:0:0:
256,192,25821,1,8,0:0:0:0:
256,192,25979,1,0,0:0:0:0:
256,192,26137,1,8,0:0:0:0:
256,192,26453,1,0,0:0:0:0:
256,192,26611,1,8,0:0:0:0:
256,192,26769,1,0,0:0:0:0:
256,192,27085,1,0,0:0:0:0:
256,192,27400,1,8,0:0:0:0:
256,192,27716,1,8,0:0:0:0:
256,192,27874,1,0,0:0:0:0:
256,192,28032,1,8,0:0:0:0:
256,192,28348,1,0,0:0:0:0:
256,192,28664,1,8,0:0:0:0:
256,192,28979,1,8,0:0:0:0:
256,192,29295,1,8,0:0:0:0:
256,192,29611,1,8,0:0:0:0:
256,192,30085,1,4,0:0:0:0:
256,192,30400,1,0,0:0:0:0:
256,192,30558,1,0,0:0:0:0:
256,192,30874,1,8,0:0:0:0:
256,192,31032,1,0,0:0:0:0:
256,192,31348,1,0,0:0:0:0:
256,192,31506,1,8,0:0:0:0:
256,192,31821,1,4,0:0:0:0:
256,192,32137,1,8,0:0:0:0:
256,192,32453,1,0,0:0:0:0:
256,192,32611,1,0,0:0:0:0:
256,192,32769,1,8,0:0:0:0:
256,192,33085,1,4,0:0:0:0:
256,192,33400,1,8,0:0:0:0:
256,192,33558,1,0,0:0:0:0:
256,192,33874,1,0,0:0:0:0:
256,192,34190,1,0,0:0:0:0:
256,192,34348,1,0,0:0:0:0:
256,192,34506,1,0,0:0:0:0:
256,192,34821,1,8,0:0:0:0:
256,192,34979,1,0,0:0:0:0:
256,192,35295,1,0,0:0:0:0:
256,192,35453,1,0,0:0:0:0:
256,192,35611,1,8,0:0:0:0:
256,192,35927,1,0,0:0:0:0:
256,192,36243,1,8,0:0:0:0:
256,192,36558,1,0,0:0:0:0:
256,192,36716,1,8,0:0:0:0:
256,192,36874,1,0,0:0:0:0:
256,192,37190,1,0,0:0:0:0:
256,192,37348,1,0,0:0:0:0:
256,192,37506,1,8,0:0:0:0:
256,192,37821,1,8,0:0:0:0:
256,192,37979,1,0,0:0:0:0:
256,192,38137,1,8,0:0:0:0:
256,192,38453,1,8,0:0:0:0:
256,192,38769,1,8,0:0:0:0:
256,192,39085,1,8,0:0:0:0:
256,192,39400,1,8,0:0:0:0:
256,192,39716,1,8,0:0:0:0:
256,192,39874,1,0,0:0:0:0:
256,192,40032,1,8,0:0:0:0:
256,192,40348,1,0,0:0:0:0:
256,192,40506,1,0,0:0:0:0:
256,192,40664,1,8,0:0:0:0:
256,192,40979,1,0,0:0:0:0:
256,192,41295,1,8,0:0:0:0:
256,192,41611,1,0,0:0:0:0:
256,192,41927,1,8,0:0:0:0:
256,192,42243,1,8,0:0:0:0:
256,192,42558,1,0,0:0:0:0:
256,192,42874,1,0,0:0:0:0:
256,192,43032,1,0,0:0:0:0:
256,192,43190,1,8,0:0:0:0:
256,192,43506,1,8,0:0:0:0:
256,192,43821,1,8,0:0:0:0:
256,192,44137,1,8,0:0:0:0:
256,192,44295,1,0,0:0:0:0:
256,192,44453,1,0,0:0:0:0:
256,192,44769,1,0,0:0:0:0:
256,192,44927,1,8,0:0:0:0:
256,192,45085,1,8,0:0:0:0:
256,192,45400,1,0,0:0:0:0:
256,192,45558,1,0,0:0:0:0:
256,192,45716,1,8,0:0:0:0:
256,192,46032,1,0,0:0:0:0:
256,192,46348,1,8,0:0:0:0:
256,192,46664,1,8,0:0:0:0:
256,192,46821,1,0,0:0:0:0:
256,192,46979,1,8,0:0:0:0:
256,192,47295,1,8,0:0:0:0:
256,192,47611,1,0,0:0:0:0:
256,192,47927,1,8,0:0:0:0:
256,192,48085,1,0,0:0:0:0:
256,192,48243,1,8,0:0:0:0:
256,192,48558,1,0,0:0:0:0:
256,192,48874,1,8,0:0:0:0:
256,192,49190,1,0,0:0:0:0:
256,192,49348,1,8,0:0:0:0:
256,192,49506,1,8,0:0:0:0:
256,192,49821,1,8,0:0:0:0:
256,192,50137,1,8,0:0:0:0:
256,192,50453,1,8,0:0:0:0:
256,192,50611,1,0,0:0:0:0:
256,192,50769,1,0,0:0:0:0:
256,192,51085,1,8,0:0:0:0:
256,192,51243,1,0,0:0:0:0:
256,192,51400,1,8,0:0:0:0:
256,192,51716,1,0,0:0:0:0:
256,192,52032,1,8,0:0:0:0:
256,192,52348,1,8,0:0:0:0:
256,192,52506,1,8,0:0:0:0:
256,192,52664,1,0,0:0:0:0:
256,192,52979,1,8,0:0:0:0:
256,192,53295,1,0,0:0:0:0:
256,192,53611,1,8,0:0:0:0:
256,192,53769,1,0,0:0:0:0:
256,192,53927,1,8,0:0:0:0:
256,192,54243,1,0,0:0:0:0:
256,192,54558,1,8,0:0:0:0:
256,192,55190,1,0,0:0:0:0:
256,192,55348,1,0,0:0:0:0:
256,192,55506,1,8,0:0:0:0:
256,192,55821,1,8,0:0:0:0:
256,192,56137,1,0,0:0:0:0:
256,192,56453,1,8,0:0:0:0:
256,192,56769,1,0,0:0:0:0:
256,192,56927,1,0,0:0:0:0:
256,192,57085,1,8,0:0:0:0:
256,192,57400,1,8,0:0:0:0:
256,192,57716,1,8,0:0:0:0:
256,192,57874,1,0,0:0:0:0:
256,192,58032,1,0,0:0:0:0:
256,192,58348,1,8,0:0:0:0:
256,192,58664,1,0,0:0:0:0:
256,192,58821,1,0,0:0:0:0:
256,192,58979,1,8,0:0:0:0:
256,192,59295,1,0,0:0:0:0:
256,192,59611,1,8,0:0:0:0:
256,192,59927,1,8,0:0:0:0:
256,192,60085,1,0,0:0:0:0:
256,192,60243,1,8,0:0:0:0:
256,192,60558,1,8,0:0:0:0:
256,192,60716,1,0,0:0:0:0:
256,192,60874,1,0,0:0:0:0:
256,192,61190,1,8,0:0:0:0:
256,192,61506,1,8,0:0:0:0:
256,192,61821,1,0,0:0:0:0:
256,192,61979,1,0,0:0:0:0:
256,192,62137,1,8,0:0:0:0:
256,192,62453,1,8,0:0:0:0:
256,192,62769,1,0,0:0:0:0:
256,192,63085,1,0,0:0:0:0:
256,192,63243,1,0,0:0:0:0:
256,192,63400,1,8,0:0:0:0:
256,192,63716,1,8,0:0:0:0:
256,192,63874,1,0,0:0:0:0:
256,192,64032,1,8,0:0:0:0:
256,192,64348,1,0,0:0:0:0:
256,192,64664,1,8,0:0:0:0:
256,192,65295,1,0,0:0:0:0:
256,192,65453,1,8,0:0:0:0:
256,192,65769,1,8,0:0:0:0:
256,192,65927,1,0,0:0:0:0:
256,192,66243,1,8,0:0:0:0:
256,192,66400,1,0,0:0:0:0:
256,192,66558,1,8,0:0:0:0:
256,192,66874,1,0,0:0:0:0:
256,192,67190,1,8,0:0:0:0:
256,192,67506,1,0,0:0:0:0:
256,192,67664,1,0,0:0:0:0:
256,192,67821,1,8,0:0:0:0:
256,192,68137,1,4,0:0:0:0:
256,192,68453,1,8,0:0:0:0:
256,192,68611,1,0,0:0:0:0:
256,192,68927,1,0,0:0:0:0:
256,192,69085,1,8,0:0:0:0:
256,192,69400,1,8,0:0:0:0:
256,192,69558,1,8,0:0:0:0:
256,192,69716,1,0,0:0:0:0:
256,192,70032,1,8,0:0:0:0:
256,192,70190,1,8,0:0:0:0:
256,192,70348,1,0,0:0:0:0:
256,192,70664,1,0,0:0:0:0:
256,192,70821,1,0,0:0:0:0:
256,192,70979,1,8,0:0:0:0:
256,192,71295,1,0,0:0:0:0:
256,192,71611,1,0,0:0:0:0:
256,192,71927,1,0,0:0:0:0:
256,192,72085,1,0,0:0:0:0:
256,192,72243,1,8,0:0:0:0:
256,192,72558,1,8,0:0:0:0:
256,192,72874,1,0,0:0:0:0:
256,192,73190,1,8,0:0:0:0:
256,192,73348,1,0,0:0:0:0:
256,192,73506,1,0,0:0:0:0:
256,192,73821,1,8,0:0:0:0:
256,192,74137,1,4,0:0:0:0:
256,192,74453,1,12,0:0:0:0:
252,188,74769,1,12,0:0:0:0:
252,188,75400,1,0,0:0:0:0:
252,188,75558,1,0,0:0:0:0:
252,188,75716,1,8,0:0:0:0:
252,188,76032,1,8,0:0:0:0:
252,188,76348,1,8,0:0:0:0:
252,188,76506,1,0,0:0:0:0:
252,188,76664,1,8,0:0:0:0:
252,188,76979,1,0,0:0:0:0:
252,188,77295,1,8,0:0:0:0:
252,188,77611,1,0,0:0:0:0:
252,188,77927,1,8,0:0:0:0:
252,188,78243,1,0,0:0:0:0:
252,188,78558,1,8,0:0:0:0:
252,188,78874,1,8,0:0:0:0:
252,188,79032,1,0,0:0:0:0:
252,188,79190,1,8,0:0:0:0:
252,188,79506,1,8,0:0:0:0:
252,188,79664,1,0,0:0:0:0:
252,188,79821,1,8,0:0:0:0:
252,188,80137,1,0,0:0:0:0:
252,188,80453,1,0,0:0:0:0:
252,188,80769,1,0,0:0:0:0:
252,188,81085,1,8,0:0:0:0:
252,188,81400,1,0,0:0:0:0:
252,188,81716,1,0,0:0:0:0:
252,188,82032,1,8,0:0:0:0:
252,188,82348,1,0,0:0:0:0:
252,188,82664,1,8,0:0:0:0:
252,188,82821,1,8,0:0:0:0:
252,188,82979,1,0,0:0:0:0:
252,188,83295,1,0,0:0:0:0:
252,188,83611,1,8,0:0:0:0:
252,188,83927,1,0,0:0:0:0:
252,188,84243,1,8,0:0:0:0:
252,188,84400,1,0,0:0:0:0:
252,188,84558,1,8,0:0:0:0:
252,188,84874,1,12,0:0:0:0:
252,188,85821,1,8,0:0:0:0:
252,188,85979,1,8,0:0:0:0:
252,188,86137,1,0,0:0:0:0:
252,188,86453,1,0,0:0:0:0:
252,188,86769,1,0,0:0:0:0:
252,188,87085,1,0,0:0:0:0:
252,188,87400,1,0,0:0:0:0:
252,188,87558,1,8,0:0:0:0:
252,188,87874,1,8,0:0:0:0:
252,188,88032,1,0,0:0:0:0:
252,188,88348,1,8,0:0:0:0:
252,188,88664,1,0,0:0:0:0:
252,188,88979,1,8,0:0:0:0:
252,188,89295,1,0,0:0:0:0:
252,188,89453,1,0,0:0:0:0:
252,188,89611,1,8,0:0:0:0:
252,188,89927,1,8,0:0:0:0:
252,188,90085,1,0,0:0:0:0:
252,188,90243,1,8,0:0:0:0:
252,188,90558,1,8,0:0:0:0:
252,188,90874,1,0,0:0:0:0:
252,188,91190,1,8,0:0:0:0:
252,188,91348,1,8,0:0:0:0:
252,188,91506,1,0,0:0:0:0:
252,188,91664,1,0,0:0:0:0:
252,188,92137,1,8,0:0:0:0:
252,188,92295,1,0,0:0:0:0:
252,188,92611,1,0,0:0:0:0:
252,188,92769,1,8,0:0:0:0:
252,188,93085,1,0,0:0:0:0:
252,188,93400,1,0,0:0:0:0:
252,188,93558,1,8,0:0:0:0:
252,188,93874,1,8,0:0:0:0:
252,188,94190,1,8,0:0:0:0:
252,188,94348,1,0,0:0:0:0:
252,188,94506,1,8,0:0:0:0:
252,188,94821,1,0,0:0:0:0:
252,188,94979,1,8,0:0:0:0:
248,192,95137,1,0,0:0:0:0:
248,192,95295,1,8,0:0:0:0:
248,192,95611,1,0,0:0:0:0:
248,192,95769,1,0,0:0:0:0:
248,192,95927,1,0,0:0:0:0:
248,192,96085,1,0,0:0:0:0:
248,192,96243,1,0,0:0:0:0:
248,192,96558,1,8,0:0:0:0:
248,192,96874,1,0,0:0:0:0:
248,192,97032,1,8,0:0:0:0:
248,192,97348,1,8,0:0:0:0:
248,192,97506,1,0,0:0:0:0:
248,192,97821,1,8,0:0:0:0:
248,192,97979,1,0,0:0:0:0:
248,192,98137,1,0,0:0:0:0:
248,192,98453,1,8,0:0:0:0:
248,192,98769,1,0,0:0:0:0:
248,192,99085,1,8,0:0:0:0:
248,192,99400,1,0,0:0:0:0:
248,192,99558,1,8,0:0:0:0:
248,192,99874,1,8,0:0:0:0:
248,192,100032,1,0,0:0:0:0:
248,192,100348,1,8,0:0:0:0:
248,192,100664,1,0,0:0:0:0:
248,192,100821,1,0,0:0:0:0:
248,192,100979,1,8,0:0:0:0:
248,192,101295,1,8,0:0:0:0:
248,192,101453,1,0,0:0:0:0:
248,192,101611,1,0,0:0:0:0:
248,192,101769,1,0,0:0:0:0:
248,192,102085,1,0,0:0:0:0:
248,192,102243,1,8,0:0:0:0:
248,192,102558,1,0,0:0:0:0:
248,192,102716,1,0,0:0:0:0:
248,192,102874,1,8,0:0:0:0:
248,192,103190,1,0,0:0:0:0:
248,192,103506,1,8,0:0:0:0:
248,192,103821,1,12,0:0:0:0:
248,192,104137,1,0,0:0:0:0:
248,192,104453,1,8,0:0:0:0:
248,192,104611,1,0,0:0:0:0:
248,192,104927,1,0,0:0:0:0:
248,192,105085,1,8,0:0:0:0:
248,192,105716,1,8,0:0:0:0:
248,192,106032,1,0,0:0:0:0:
248,192,106190,1,0,0:0:0:0:
256,192,106348,1,0,0:0:0:0:
256,192,106664,1,8,0:0:0:0:
256,192,106979,1,0,0:0:0:0:
248,192,107137,1,8,0:0:0:0:
256,192,107453,1,0,0:0:0:0:
256,192,107769,1,0,0:0:0:0:
256,192,107927,1,8,0:0:0:0:
256,192,108243,1,0,0:0:0:0:
256,192,108559,1,8,0:0:0:0:
256,192,108874,1,0,0:0:0:0:
256,192,109190,1,8,0:0:0:0:
256,192,109506,1,0,0:0:0:0:
256,192,109664,1,0,0:0:0:0:
256,192,109822,1,8,0:0:0:0:
256,192,110138,1,0,0:0:0:0:
256,192,110453,1,0,0:0:0:0:
256,192,110769,1,8,0:0:0:0:
256,192,111085,1,8,0:0:0:0:
256,192,111401,1,8,0:0:0:0:
256,192,111717,1,8,0:0:0:0:
256,192,111874,1,0,0:0:0:0:
256,192,112190,1,0,0:0:0:0:
256,192,112348,1,8,0:0:0:0:
256,192,112664,1,0,0:0:0:0:
256,192,112980,1,8,0:0:0:0:
256,192,113295,1,8,0:0:0:0:
256,192,113453,1,0,0:0:0:0:
256,192,113769,1,8,0:0:0:0:
256,192,113927,1,0,0:0:0:0:
256,192,114243,1,0,0:0:0:0:
256,192,114400,1,8,0:0:0:0:
256,192,114716,1,0,0:0:0:0:
256,192,114874,1,8,0:0:0:0:
256,192,115190,1,4,0:0:0:0:
256,192,115506,1,8,0:0:0:0:
256,192,115664,1,0,0:0:0:0:
256,192,115821,1,8,0:0:0:0:
256,192,116137,1,8,0:0:0:0:
256,192,116296,1,0,0:0:0:0:
256,192,116453,1,0,0:0:0:0:
256,192,116769,1,8,0:0:0:0:
256,192,117085,1,0,0:0:0:0:
256,192,117243,1,0,0:0:0:0:
256,192,117401,1,8,0:0:0:0:
256,192,117717,1,0,0:0:0:0:
256,192,118032,1,8,0:0:0:0:
256,192,118348,1,4,0:0:0:0:
256,192,118664,1,12,0:0:0:0:
256,192,118980,1,4,0:0:0:0:
256,192,119296,1,8,0:0:0:0:
256,192,119611,1,0,0:0:0:0:
256,192,119927,1,8,0:0:0:0:
256,192,120085,1,0,0:0:0:0:
256,192,120401,1,0,0:0:0:0:
256,192,120559,1,8,0:0:0:0:
256,192,120874,1,4,0:0:0:0:
256,192,121190,1,4,0:0:0:0:
256,192,121506,1,4,0:0:0:0:
256,192,121822,1,8,0:0:0:0:
256,192,122138,1,0,0:0:0:0:
256,192,122296,1,0,0:0:0:0:
256,192,122453,1,8,0:0:0:0:
256,192,122769,1,0,0:0:0:0:
256,192,122927,1,0,0:0:0:0:
256,192,123085,1,8,0:0:0:0:
256,192,123400,1,8,0:0:0:0:
256,192,123717,1,0,0:0:0:0:
256,192,123874,1,0,0:0:0:0:
256,192,124032,1,8,0:0:0:0:
256,192,124348,1,8,0:0:0:0:
256,192,124664,1,0,0:0:0:0:
256,192,124822,1,0,0:0:0:0:
256,192,124979,1,8,0:0:0:0:
256,192,125137,1,8,0:0:0:0:
256,192,125453,1,0,0:0:0:0:
256,192,125611,1,0,0:0:0:0:
256,192,125927,1,0,0:0:0:0:
256,192,126243,1,0,0:0:0:0:
256,192,126400,1,0,0:0:0:0:
256,192,126558,1,8,0:0:0:0:
256,192,126874,1,0,0:0:0:0:
256,192,127190,1,8,0:0:0:0:
256,192,127506,1,0,0:0:0:0:
256,192,127821,1,0,0:0:0:0:
256,192,128137,1,8,0:0:0:0:
256,192,128295,1,0,0:0:0:0:
256,192,128453,1,8,0:0:0:0:
256,192,128769,1,0,0:0:0:0:
256,192,129085,1,8,0:0:0:0:
256,192,129400,1,8,0:0:0:0:
256,192,129558,1,0,0:0:0:0:
256,188,129716,1,8,0:0:0:0:
256,188,130032,1,8,0:0:0:0:
256,188,130190,1,0,0:0:0:0:
256,188,130348,1,8,0:0:0:0:
256,188,130664,1,8,0:0:0:0:
256,188,130979,1,8,0:0:0:0:
256,188,131295,1,0,0:0:0:0:
256,188,131611,1,8,0:0:0:0:
256,188,131927,1,0,0:0:0:0:
256,188,132243,1,8,0:0:0:0:
256,188,132558,1,0,0:0:0:0:
256,188,132874,1,8,0:0:0:0:
256,188,133032,1,0,0:0:0:0:
256,188,133348,1,8,0:0:0:0:
256,188,133506,1,0,0:0:0:0:
256,188,133821,1,0,0:0:0:0:
256,188,133979,1,0,0:0:0:0:
256,188,134137,1,8,0:0:0:0:
256,188,134453,1,0,0:0:0:0:
256,188,134611,1,0,0:0:0:0:
256,188,134769,1,8,0:0:0:0:
256,188,135085,1,0,0:0:0:0:
256,188,135243,1,0,0:0:0:0:
256,188,135400,1,8,0:0:0:0:
256,188,135716,1,0,0:0:0:0:
256,188,136032,1,4,0:0:0:0:
256,188,136348,1,0,0:0:0:0:
256,188,136506,1,8,0:0:0:0:
257,188,136664,1,8,0:0:0:0:
257,188,136979,1,0,0:0:0:0:
257,188,137137,1,0,0:0:0:0:
257,188,137295,1,8,0:0:0:0:
256,188,137611,1,8,0:0:0:0:
256,188,137927,1,0,0:0:0:0:
256,188,138243,1,0,0:0:0:0:
257,188,138558,1,8,0:0:0:0:
257,188,138874,1,8,0:0:0:0:
257,188,139032,1,0,0:0:0:0:
256,188,139190,1,8,0:0:0:0:
256,188,139506,1,8,0:0:0:0:
256,188,139821,1,8,0:0:0:0:
256,188,140137,1,8,0:0:0:0:
257,188,140295,1,8,0:0:0:0:
257,188,140453,1,8,0:0:0:0:
257,188,140769,1,8,0:0:0:0:
256,188,140927,1,0,0:0:0:0:
256,188,141085,1,8,0:0:0:0:
256,188,141400,1,0,0:0:0:0:
256,188,141716,1,8,0:0:0:0:
256,188,142032,1,0,0:0:0:0:
257,188,142348,1,8,0:0:0:0:
256,188,142664,1,0,0:0:0:0:
256,188,142821,1,8,0:0:0:0:
256,188,142979,1,8,0:0:0:0:
256,188,143295,1,0,0:0:0:0:
256,188,143611,1,0,0:0:0:0:
257,188,143927,1,0,0:0:0:0:
257,188,144085,1,0,0:0:0:0:
257,188,144243,1,8,0:0:0:0:
256,188,144558,1,8,0:0:0:0:
256,188,144874,1,0,0:0:0:0:
256,183,145032,1,8,0:0:0:0:
256,183,145190,1,8,0:0:0:0:
257,188,145506,1,0,0:0:0:0:
257,188,145821,1,8,0:0:0:0:
257,188,146137,1,0,0:0:0:0:
256,188,146453,1,0,0:0:0:0:
256,188,146611,1,0,0:0:0:0:
256,188,146769,1,8,0:0:0:0:
256,188,147085,1,0,0:0:0:0:
257,188,147400,1,8,0:0:0:0:
253,189,147716,1,8,0:0:0:0:
256,188,148032,1,8,0:0:0:0:
256,188,148190,1,0,0:0:0:0:
256,188,148506,1,0,0:0:0:0:
256,188,148664,1,8,0:0:0:0:
257,188,148979,1,0,0:0:0:0:
257,188,149137,1,8,0:0:0:0:
253,189,149295,1,8,0:0:0:0:
253,188,149611,1,0,0:0:0:0:
256,188,149769,1,0,0:0:0:0:
256,188,149927,1,8,0:0:0:0:
256,188,150243,1,0,0:0:0:0:
256,188,150558,1,8,0:0:0:0:
256,188,150716,1,0,0:0:0:0:
253,189,151032,1,0,0:0:0:0:
253,188,151190,1,8,0:0:0:0:
256,188,151506,1,8,0:0:0:0:
256,188,151664,1,0,0:0:0:0:
256,188,151821,1,0,0:0:0:0:
256,188,152137,1,0,0:0:0:0:
252,187,152453,1,8,0:0:0:0:
252,187,152611,1,0,0:0:0:0:
253,189,152927,1,0,0:0:0:0:
256,188,153085,1,0,0:0:0:0:
256,188,153400,1,0,0:0:0:0:
256,188,153716,1,8,0:0:0:0:
256,188,153874,1,0,0:0:0:0:
252,187,154190,1,0,0:0:0:0:
253,189,154506,1,0,0:0:0:0:
253,189,154664,1,8,0:0:0:0:
256,188,154979,1,0,0:0:0:0:
256,188,155137,1,0,0:0:0:0:
256,188,155453,1,0,0:0:0:0:
256,188,155611,1,0,0:0:0:0:
252,187,155769,1,0,0:0:0:0:
252,187,155927,1,8,0:0:0:0:
256,188,156243,1,0,0:0:0:0:
256,188,156558,1,8,0:0:0:0:
256,188,156716,1,0,0:0:0:0:
256,188,156874,1,0,0:0:0:0:
256,188,157190,1,0,0:0:0:0:
252,187,157506,1,8,0:0:0:0:
252,187,157821,1,0,0:0:0:0:
256,188,157979,1,0,0:0:0:0:
256,188,158137,1,0,0:0:0:0:
256,188,158453,1,0,0:0:0:0:
256,188,158769,1,8,0:0:0:0:
256,188,159085,1,0,0:0:0:0:
252,187,159400,1,8,0:0:0:0:
256,188,159716,1,0,0:0:0:0:
256,188,160032,1,8,0:0:0:0:
252,187,160348,1,0,0:0:0:0:
256,188,160664,1,8,0:0:0:0:
256,188,160821,1,0,0:0:0:0:
252,187,161137,1,0,0:0:0:0:
252,187,161295,1,8,0:0:0:0:
251,191,161611,1,8,0:0:0:0:
249,190,161769,1,0,0:0:0:0:
249,190,161927,1,0,0:0:0:0:
256,188,162243,1,8,0:0:0:0:
256,188,162400,1,0,0:0:0:0:
252,187,162558,1,8,0:0:0:0:
252,187,162874,1,0,0:0:0:0:
249,190,163190,1,8,0:0:0:0:
254,189,163348,1,0,0:0:0:0:
254,189,163664,1,0,0:0:0:0:
256,188,163821,1,8,0:0:0:0:
250,193,164137,1,0,0:0:0:0:
250,193,164295,1,0,0:0:0:0:
250,193,164453,1,0,0:0:0:0:
252,187,164769,1,8,0:0:0:0:
249,190,164927,1,0,0:0:0:0:
248,192,165085,1,8,0:0:0:0:
248,192,165400,1,0,0:0:0:0:
250,193,165716,1,8,0:0:0:0:
250,193,165874,1,0,0:0:0:0:
250,193,166190,1,0,0:0:0:0:
248,192,166348,1,8,0:0:0:0:
249,190,166664,1,0,0:0:0:0:
248,192,166821,1,0,0:0:0:0:
250,193,166979,1,0,0:0:0:0:
250,193,167295,1,0,0:0:0:0:
250,193,167453,1,0,0:0:0:0:
250,193,167611,1,8,0:0:0:0:
250,193,167927,1,0,0:0:0:0:
250,197,168085,1,0,0:0:0:0:
251,196,168243,1,4,0:0:0:0:
250,193,168558,1,0,0:0:0:0:
250,193,168716,1,0,0:0:0:0:
250,193,168874,1,8,0:0:0:0:
250,193,169190,1,0,0:0:0:0:
250,193,169348,1,0,0:0:0:0:
250,193,169506,1,4,0:0:0:0:
250,197,169821,1,0,0:0:0:0:
251,196,169979,1,0,0:0:0:0:
250,193,170137,1,8,0:0:0:0:
250,193,170453,1,0,0:0:0:0:
250,193,170611,1,0,0:0:0:0:
250,193,170769,1,4,0:0:0:0:
250,193,171085,1,0,0:0:0:0:
250,193,171243,1,0,0:0:0:0:
250,197,171400,1,8,0:0:0:0:
251,196,171716,1,0,0:0:0:0:
250,193,171874,1,0,0:0:0:0:
250,193,172032,1,4,0:0:0:0:
250,193,172348,1,0,0:0:0:0:
250,193,172506,1,0,0:0:0:0:
250,193,172664,1,4,0:0:0:0:
250,193,172979,1,0,0:0:0:0:
250,197,173137,1,0,0:0:0:0:
251,196,173295,1,4,0:0:0:0:
250,193,173611,1,0,0:0:0:0:
250,193,173769,1,0,0:0:0:0:
250,193,173927,1,4,0:0:0:0:
250,193,174243,1,0,0:0:0:0:
250,193,174400,1,0,0:0:0:0:
250,193,174558,1,0,0:0:0:0:
250,193,174716,1,0,0:0:0:0:
250,197,174874,1,0,0:0:0:0:
251,196,175032,1,0,0:0:0:0:
250,193,175190,1,0,0:0:0:0:
250,193,175348,1,0,0:0:0:0:
250,193,175506,1,0,0:0:0:0:
250,193,175664,1,0,0:0:0:0:
250,193,175821,1,0,0:0:0:0:
250,193,175979,1,0,0:0:0:0:
24,76,176137,2,0,L|394:75,1,360
250,193,177400,5,0,0:0:0:0:
254,200,177558,1,0,0:0:0:0:
254,200,177716,1,8,0:0:0:0:
254,200,178032,1,0,0:0:0:0:
254,200,178348,1,0,0:0:0:0:
254,200,178664,1,0,0:0:0:0:
254,200,178979,1,0,0:0:0:0:
254,200,179295,1,0,0:0:0:0:
254,200,179453,1,0,0:0:0:0:
254,200,179611,1,8,0:0:0:0:
254,200,179927,1,0,0:0:0:0:
254,200,180085,1,0,0:0:0:0:
254,200,180243,1,8,0:0:0:0:
254,200,180558,1,8,0:0:0:0:
254,200,180874,1,8,0:0:0:0:
254,200,181032,1,0,0:0:0:0:
254,200,181348,1,0,0:0:0:0:
254,200,181506,1,8,0:0:0:0:
254,200,181821,1,8,0:0:0:0:
254,200,181979,1,0,0:0:0:0:
254,200,182137,1,8,0:0:0:0:
252,200,182453,1,0,0:0:0:0:
254,200,182769,1,8,0:0:0:0:
254,200,183085,1,0,0:0:0:0:
254,200,183243,1,0,0:0:0:0:
254,200,183400,1,8,0:0:0:0:
254,200,183716,1,0,0:0:0:0:
252,200,184032,1,8,0:0:0:0:
254,200,184348,1,8,0:0:0:0:
254,200,184506,1,0,0:0:0:0:
254,200,184664,1,0,0:0:0:0:
254,200,184979,1,8,0:0:0:0:
254,200,185137,1,0,0:0:0:0:
254,200,185295,1,8,0:0:0:0:
254,200,185611,1,0,0:0:0:0:
254,200,185927,1,8,0:0:0:0:
254,200,186243,1,0,0:0:0:0:
254,200,186558,1,0,0:0:0:0:
254,200,186874,1,0,0:0:0:0:
254,200,187190,1,8,0:0:0:0:
254,200,187506,1,8,0:0:0:0:
254,200,187664,1,0,0:0:0:0:
254,200,187821,1,0,0:0:0:0:
254,200,188137,1,0,0:0:0:0:
254,200,188295,1,0,0:0:0:0:
248,204,188453,1,8,0:0:0:0:
254,200,188769,1,8,0:0:0:0:
248,204,189085,1,0,0:0:0:0:
252,200,189243,1,0,0:0:0:0:
252,200,189400,1,0,0:0:0:0:
254,200,189716,1,8,0:0:0:0:
254,200,190032,1,0,0:0:0:0:
248,204,190190,1,8,0:0:0:0:
254,200,190348,1,8,0:0:0:0:
248,204,190664,1,8,0:0:0:0:
248,204,190821,1,0,0:0:0:0:
252,200,191137,1,0,0:0:0:0:
254,200,191295,1,8,0:0:0:0:
254,200,191611,1,8,0:0:0:0:
254,200,191769,1,0,0:0:0:0:
252,200,191927,1,0,0:0:0:0:
252,200,192243,1,8,0:0:0:0:
252,200,192558,1,0,0:0:0:0:
252,200,192716,1,8,0:0:0:0:
252,200,192874,1,8,0:0:0:0:
254,200,193190,1,0,0:0:0:0:
254,200,193506,1,8,0:0:0:0:
254,200,193821,1,0,0:0:0:0:
252,200,194137,1,8,0:0:0:0:
252,200,194453,1,8,0:0:0:0:
252,200,194611,1,0,0:0:0:0:
252,200,194769,1,0,0:0:0:0:
254,200,195085,1,8,0:0:0:0:
254,200,195243,1,0,0:0:0:0:
252,200,195400,1,8,0:0:0:0:
254,200,195716,1,0,0:0:0:0:
252,200,196032,1,12,0:0:0:0:
252,200,196348,1,8,0:0:0:0:
254,200,196664,1,0,0:0:0:0:
254,200,196979,1,0,0:0:0:0:
254,200,197137,1,0,0:0:0:0:
254,200,197295,1,8,0:0:0:0:
252,200,197611,1,8,0:0:0:0:
252,200,197769,1,0,0:0:0:0:
252,200,197927,1,8,0:0:0:0:
252,200,198243,1,0,0:0:0:0:
254,200,198558,1,8,0:0:0:0:
254,200,198874,1,0,0:0:0:0:
254,200,199032,1,0,0:0:0:0:
254,200,199348,1,0,0:0:0:0:
252,200,199506,1,8,0:0:0:0:
252,200,199821,1,8,0:0:0:0:
252,200,199979,1,0,0:0:0:0:
254,200,200137,1,0,0:0:0:0:
254,200,200453,1,8,0:0:0:0:
254,200,200769,1,0,0:0:0:0:
254,200,200927,1,8,0:0:0:0:
254,200,201085,1,0,0:0:0:0:
252,200,201243,1,8,0:0:0:0:
252,200,201558,1,0,0:0:0:0:
252,200,201716,1,8,0:0:0:0:
254,200,202032,1,0,0:0:0:0:
254,200,202348,1,8,0:0:0:0:
254,200,202664,1,8,0:0:0:0:
254,200,202821,1,0,0:0:0:0:
252,200,202979,1,8,0:0:0:0:
252,200,203295,1,8,0:0:0:0:
252,200,203453,1,0,0:0:0:0:
254,200,203611,1,8,0:0:0:0:
254,200,203927,1,8,0:0:0:0:
254,200,204243,1,0,0:0:0:0:
254,200,204558,1,0,0:0:0:0:
252,200,204874,1,8,0:0:0:0:
252,200,205190,1,0,0:0:0:0:
254,200,205506,1,0,0:0:0:0:
254,200,205821,1,8,0:0:0:0:
254,200,205979,1,0,0:0:0:0:
254,200,206137,1,8,0:0:0:0:
252,200,206453,1,8,0:0:0:0:
252,200,206769,1,0,0:0:0:0:
254,200,207085,1,0,0:0:0:0:
254,200,207243,1,0,0:0:0:0:
254,200,207400,1,8,0:0:0:0:
254,200,207716,1,8,0:0:0:0:
254,200,207874,1,0,0:0:0:0:
254,200,208032,1,0,0:0:0:0:
252,200,208348,1,8,0:0:0:0:
254,200,208664,1,8,0:0:0:0:
254,200,208821,1,0,0:0:0:0:
254,200,208979,1,8,0:0:0:0:
254,200,209295,1,8,0:0:0:0:
254,200,209453,1,0,0:0:0:0:
254,200,209611,1,8,0:0:0:0:
254,200,209769,1,0,0:0:0:0:
252,200,209927,1,8,0:0:0:0:
254,200,210243,1,8,0:0:0:0:
254,200,210400,1,0,0:0:0:0:
254,200,210558,1,8,0:0:0:0:
254,200,210874,1,0,0:0:0:0:
254,200,211190,1,8,0:0:0:0:
254,200,211506,1,8,0:0:0:0:
252,200,211821,1,0,0:0:0:0:
254,200,212137,1,0,0:0:0:0:
254,200,212453,1,8,0:0:0:0:
254,200,212611,1,0,0:0:0:0:
254,200,212927,1,0,0:0:0:0:
254,200,213085,1,8,0:0:0:0:
254,200,213400,1,8,0:0:0:0:
252,200,213558,1,0,0:0:0:0:
254,200,213716,1,8,0:0:0:0:
254,200,214032,1,8,0:0:0:0:
254,200,214190,1,8,0:0:0:0:
254,200,214348,1,0,0:0:0:0:
254,200,214664,1,0,0:0:0:0:
254,200,214979,1,8,0:0:0:0:
252,200,215295,1,0,0:0:0:0:
254,200,215611,1,0,0:0:0:0:
254,200,215927,1,8,0:0:0:0:
254,200,216243,1,8,0:0:0:0:
254,200,216400,1,0,0:0:0:0:
254,200,216716,1,0,0:0:0:0:
252,200,216874,1,8,0:0:0:0:
254,200,217190,1,0,0:0:0:0:
254,200,217348,1,0,0:0:0:0:
254,200,217506,1,0,0:0:0:0:
254,200,217821,1,8,0:0:0:0:
254,200,217979,1,0,0:0:0:0:
254,200,218137,1,8,0:0:0:0:
254,200,218453,1,0,0:0:0:0:
254,200,218769,1,12,0:0:0:0:
254,200,220032,1,0,0:0:0:0:
254,200,220190,1,0,0:0:0:0:
254,200,220348,1,0,0:0:0:0:
254,200,220664,1,8,0:0:0:0:
254,200,220979,1,8,0:0:0:0:
254,200,221137,1,0,0:0:0:0:
254,200,221295,1,8,0:0:0:0:
252,204,221611,1,0,0:0:0:0:
248,204,221927,1,8,0:0:0:0:
248,204,222085,1,0,0:0:0:0:
248,204,222400,1,0,0:0:0:0:
248,204,222558,1,8,0:0:0:0:
248,204,222874,1,8,0:0:0:0:
248,204,223032,1,0,0:0:0:0:
248,204,223190,1,8,0:0:0:0:
248,204,223506,1,8,0:0:0:0:
248,204,223664,1,0,0:0:0:0:
248,204,223821,1,8,0:0:0:0:
248,204,224137,1,0,0:0:0:0:
248,204,224453,1,8,0:0:0:0:
248,204,224611,1,0,0:0:0:0:
248,204,224769,1,8,0:0:0:0:
248,204,224927,1,0,0:0:0:0:
248,204,225085,1,8,0:0:0:0:
248,204,225400,1,0,0:0:0:0:
244,208,225558,1,0,0:0:0:0:
244,208,225716,1,8,0:0:0:0:
248,204,226032,1,0,0:0:0:0:
248,204,226348,1,8,0:0:0:0:
248,204,226664,1,8,0:0:0:0:
248,204,226821,1,0,0:0:0:0:
248,204,227137,1,0,0:0:0:0:
244,208,227295,1,8,0:0:0:0:
248,204,227611,1,8,0:0:0:0:
248,204,227769,1,0,0:0:0:0:
248,204,227927,1,8,0:0:0:0:
248,204,228243,1,8,0:0:0:0:
248,204,228558,1,0,0:0:0:0:
244,208,228874,1,8,0:0:0:0:
248,204,229032,1,0,0:0:0:0:
244,208,229190,1,8,0:0:0:0:
248,204,229506,1,8,0:0:0:0:
248,204,229664,1,8,0:0:0:0:
248,204,229821,1,0,0:0:0:0:
248,204,230137,1,8,0:0:0:0:
248,204,230453,1,8,0:0:0:0:
248,204,230769,1,0,0:0:0:0:
244,208,230927,1,0,0:0:0:0:
248,204,231085,1,8,0:0:0:0:
248,204,231400,1,8,0:0:0:0:
248,204,231716,1,0,0:0:0:0:
248,204,232032,1,8,0:0:0:0:
248,204,232190,1,0,0:0:0:0:
244,208,232506,1,0,0:0:0:0:
248,204,232664,1,8,0:0:0:0:
248,204,232979,1,8,0:0:0:0:
248,204,233295,1,0,0:0:0:0:
248,204,233611,1,8,0:0:0:0:
248,204,233927,1,8,0:0:0:0:
244,208,234243,1,8,0:0:0:0:
248,204,234558,1,8,0:0:0:0:
248,204,234716,1,0,0:0:0:0:
248,204,234874,1,8,0:0:0:0:
248,204,235032,1,0,0:0:0:0:
248,204,235190,1,8,0:0:0:0:
248,204,235506,1,0,0:0:0:0:
248,204,235664,1,0,0:0:0:0:
244,208,235821,1,0,0:0:0:0:
248,208,236137,1,8,0:0:0:0:
248,204,236295,1,8,0:0:0:0:
248,204,236453,1,0,0:0:0:0:
248,204,236769,1,8,0:0:0:0:
248,204,237085,1,8,0:0:0:0:
248,208,237243,1,0,0:0:0:0:
248,204,237400,1,8,0:0:0:0:
248,204,237558,1,0,0:0:0:0:
248,204,237716,1,8,0:0:0:0:
248,204,238032,1,0,0:0:0:0:
248,204,238190,1,0,0:0:0:0:
248,204,238348,1,8,0:0:0:0:
248,204,238664,1,4,0:0:0:0:
248,208,238979,1,8,0:0:0:0:
248,204,239137,1,0,0:0:0:0:
248,204,239295,1,8,0:0:0:0:
248,204,239453,1,0,0:0:0:0:
248,208,239611,1,8,0:0:0:0:
248,204,239927,1,8,0:0:0:0:
248,204,240243,1,0,0:0:0:0:
248,204,240558,1,0,0:0:0:0:
248,204,240874,1,0,0:0:0:0:
248,208,241190,1,8,0:0:0:0:
248,208,241348,1,0,0:0:0:0:
248,204,241506,1,0,0:0:0:0:
248,204,241821,1,8,0:0:0:0:
248,204,242137,1,0,0:0:0:0:
248,204,242453,1,8,0:0:0:0:
248,204,242611,1,0,0:0:0:0:
248,208,242927,1,0,0:0:0:0:
248,204,243085,1,8,0:0:0:0:
248,204,243400,1,0,0:0:0:0:
248,204,243716,1,8,0:0:0:0:
248,208,244032,1,0,0:0:0:0:
248,204,244190,1,0,0:0:0:0:
248,204,244348,1,8,0:0:0:0:
244,208,244664,1,8,0:0:0:0:
248,204,244821,1,0,0:0:0:0:
244,208,244979,1,0,0:0:0:0:
244,208,245295,1,0,0:0:0:0:
244,208,245453,1,8,0:0:0:0:
248,204,245611,1,8,0:0:0:0:
244,208,245769,1,0,0:0:0:0:
244,208,246085,1,0,0:0:0:0:
248,204,246243,1,8,0:0:0:0:
244,208,246558,1,0,0:0:0:0:
248,204,246874,1,8,0:0:0:0:
244,208,247032,1,0,0:0:0:0:
244,208,247348,1,0,0:0:0:0:
244,208,247506,1,0,0:0:0:0:
248,204,247664,1,8,0:0:0:0:
248,204,248137,1,0,0:0:0:0:
248,204,248453,1,8,0:0:0:0:
244,208,248769,1,0,0:0:0:0:
248,204,249085,1,8,0:0:0:0:
244,208,249243,1,0,0:0:0:0:
248,204,249400,1,8,0:0:0:0:
248,204,249716,1,8,0:0:0:0:
244,208,249874,1,0,0:0:0:0:
248,204,250032,1,8,0:0:0:0:
248,204,250190,1,0,0:0:0:0:
248,204,250348,1,8,0:0:0:0:
248,204,250664,1,8,0:0:0:0:
244,208,250979,1,0,0:0:0:0:
248,204,251295,1,8,0:0:0:0:
244,208,251611,1,0,0:0:0:0:
248,204,251927,1,8,0:0:0:0:
244,208,252243,1,0,0:0:0:0:
244,208,252558,1,8,0:0:0:0:
248,204,252716,1,0,0:0:0:0:
244,208,253032,1,0,0:0:0:0:
248,204,253190,1,8,0:0:0:0:
244,208,253506,1,0,0:0:0:0:
248,204,253821,1,8,0:0:0:0:
248,204,254137,1,8,0:0:0:0:
244,208,254295,1,0,0:0:0:0:
248,204,254453,1,8,0:0:0:0:
248,204,254769,1,8,0:0:0:0:
244,208,254927,1,0,0:0:0:0:
248,208,255085,1,8,0:0:0:0:
248,204,255400,1,8,0:0:0:0:
248,204,255716,1,8,0:0:0:0:
244,208,255874,1,0,0:0:0:0:
244,208,256190,1,0,0:0:0:0:
248,204,256348,1,8,0:0:0:0:
244,208,256664,1,0,0:0:0:0:
244,208,256821,1,0,0:0:0:0:
248,204,256979,1,8,0:0:0:0:
248,204,257295,1,0,0:0:0:0:
248,204,257611,1,8,0:0:0:0:
248,204,257769,1,0,0:0:0:0:
248,204,258085,1,0,0:0:0:0:
248,204,258243,1,8,0:0:0:0:
248,204,258558,1,0,0:0:0:0:
248,204,258716,1,0,0:0:0:0:
248,204,258874,1,8,0:0:0:0:
248,204,259032,1,0,0:0:0:0:
248,204,259190,1,8,0:0:0:0:
248,204,259506,1,8,0:0:0:0:
248,204,259664,1,0,0:0:0:0:
248,204,259821,1,8,0:0:0:0:
248,204,260137,1,8,0:0:0:0:
248,204,260295,1,0,0:0:0:0:
