osu file format v14

[General]
AudioFilename: qazw.mp3
AudioLeadIn: 0
PreviewTime: 191093
Countdown: 1
SampleSet: Normal
StackLeniency: 0.3
Mode: 0
LetterboxInBreaks: 1
WidescreenStoryboard: 0

[Editor]
Bookmarks: 13525,29904,211525
DistanceSpacing: 2
BeatDivisor: 4
GridSize: 32
TimelineZoom: 1.7

[Metadata]
Title:Delta Decision
TitleUnicode:Delta Decision
Artist:Sawashiro Miyuki, Terui Haruka & Uchida Maaya
ArtistUnicode:Sawashiro Miyuki, Terui Haruka & Uchida Maaya
Creator:pashty
Version:Chaos
Source:
Tags:
BeatmapID:1579855
BeatmapSetID:750167

[Difficulty]
HPDrainRate:5
CircleSize:3.5
OverallDifficulty:8.8
ApproachRate:9.3
SliderMultiplier:1.7
SliderTickRate:1

[Events]
//Background and Video events
0,0,"u777.jpg",0,0
//Break Periods
2,96590,101025
2,151077,160377
//Storyboard Layer 0 (Background)
//Storyboard Layer 1 (Fail)
//Storyboard Layer 2 (Pass)
//Storyboard Layer 3 (Foreground)
//Storyboard Sound Samples

[TimingPoints]
1688,324.324324324324,4,1,0,100,1,0
1688,-133.333333333333,4,1,0,100,0,0
9471,-200,4,1,0,100,0,0
11904,-100,4,1,0,100,0,0
19853,-100,4,1,0,100,0,0
20174,-83.3333333333333,4,1,0,100,0,0
20498,-71.4285714285714,4,1,0,100,0,0
20823,-62.5,4,1,0,100,0,0
21147,-55.5555555555556,4,1,0,100,0,0
23904,-100,4,1,0,100,0,0
24390,-83.3333333333333,4,1,0,100,0,0
24877,-71.4285714285714,4,1,0,100,0,0
25363,-62.5,4,1,0,100,0,0
28931,-100,4,1,0,100,0,0
29417,-83.3333333333333,4,1,0,100,0,0
29904,-71.4285714285714,4,1,0,100,0,0
30390,-62.5,4,1,0,100,0,0
31525,-100,4,1,0,100,0,0
32012,-83.3333333333333,4,1,0,100,0,0
32498,-71.4285714285714,4,1,0,100,0,0
32985,-62.5,4,1,0,100,0,0
34120,-100,4,1,0,100,0,0
34606,-83.3333333333333,4,1,0,100,0,0
35093,-71.4285714285714,4,1,0,100,0,0
35579,-62.5,4,1,0,100,0,0
36066,-55.5555555555556,4,1,0,100,0,0
37039,-100,4,1,0,100,0,0
40606,-200,4,1,0,100,0,0
41417,-100,4,1,0,100,0,0
42471,-100,4,1,0,100,0,0
42552,-25,4,1,0,100,0,0
42715,-400,4,1,0,100,0,0
43525,-100,4,1,0,100,0,0
44012,-400,4,1,0,100,0,0
47093,-100,4,1,0,100,0,0
62336,-400,4,1,0,100,0,0
65255,-100,4,1,0,100,0,0
65579,-90.9090909090909,4,1,0,100,0,0
66228,-83.3333333333333,4,1,0,100,0,0
67850,-83.3333333333333,4,1,0,100,0,1
73363,-66.6666666666667,4,1,0,100,0,1
73687,-83.3333333333333,4,1,0,100,0,1
83427,-83.3333333333333,4,1,0,100,0,0
84066,-200,4,1,0,100,0,0
86174,-100,4,1,0,100,0,0
86660,-83.3333333333333,4,1,0,100,0,0
87147,-71.4285714285714,4,1,0,100,0,0
88769,-100,4,1,0,100,0,0
91353,-133.333333333333,4,1,0,100,0,0
93958,-76.9230769230769,4,1,0,100,0,0
101904,-125,4,1,0,100,0,0
111796,-100,4,1,0,100,0,0
127201,-400,4,1,0,100,0,0
127619,-100,4,1,0,100,0,0
132715,-83.3333333333333,4,1,0,100,0,1
140985,-100,4,1,0,100,0,1
141309,-66.6666666666667,4,1,0,100,0,1
141633,-100,4,1,0,100,0,1
141958,-76.9230769230769,4,1,0,100,0,1
142282,-62.5,4,1,0,100,0,1
142606,-76.9230769230769,4,1,0,100,0,1
148282,-133.333333333333,4,1,0,100,0,1
150633,-100,4,1,0,100,0,1
151048,-100,4,1,0,100,0,0
166598,-200,4,1,0,100,0,0
167742,-166.666666666667,4,1,0,100,0,0
168147,-125,4,1,0,100,0,0
168471,-100,4,1,0,100,0,0
168715,-71.4285714285714,4,1,0,100,0,0
170093,-100,4,1,0,100,0,0
170179,-100,4,1,0,100,0,0
182336,-133.333333333333,4,1,0,100,0,0
186877,-76.9230769230769,4,1,0,100,0,0
191093,-100,4,1,0,100,0,0
197579,-76.9230769230769,4,1,0,100,0,1
200660,-100,4,1,0,100,0,1
200985,-76.9230769230769,4,1,0,100,0,1
201309,-100,4,1,0,100,0,1
201633,-76.9230769230769,4,1,0,100,0,1
201958,-66.6666666666667,4,1,0,100,0,1
203742,-76.9230769230769,4,1,0,100,0,1
210715,-71.4285714285714,4,1,0,100,0,1
218823,-100,4,1,0,100,0,1
219147,-83.3333333333333,4,1,0,100,0,1
219471,-76.9230769230769,4,1,0,100,0,1
219796,-71.4285714285714,4,1,0,100,0,1
226120,-71.4285714285714,4,1,0,100,0,0
226769,-100,4,1,0,100,0,0
228066,-400,4,1,0,100,0,0
228877,-100,4,1,0,100,0,0

[HitObjects]
128,112,1688,6,0,P|160:160|240:176,1,127.500004863739
304,112,2174,2,0,P|352:144|368:224,1,127.500004863739
288,192,2660,1,0,0:0:0:0:
160,96,2823,2,0,P|191:47|270:30,1,127.500004863739
288,32,3309,1,0,0:0:0:0:
416,64,3471,2,0,P|380:115|320:132,2,127.500004863739
464,176,4282,6,0,P|448:240|448:320,1,127.500004863739
352,224,4769,2,0,P|336:160|288:96,1,127.500004863739
256,256,5255,1,0,0:0:0:0:
176,112,5417,2,0,P|160:176|96:224,1,127.500004863739
80,240,5904,1,0,0:0:0:0:
64,112,6066,2,0,P|128:48|176:48,2,127.500004863739
192,112,6877,6,0,P|208:176|256:224,1,127.500004863739
368,144,7363,2,0,P|368:176|352:224,1,63.7500024318696
352,240,7687,1,0,0:0:0:0:
272,160,7850,1,0,0:0:0:0:
448,112,8012,2,0,P|416:80|320:48,1,127.500004863739
304,48,8498,1,0,0:0:0:0:
208,176,8660,2,0,P|197:241|216:318,2,127.500004863739
288,250,9471,6,0,B|333:280|333:280|359:280|398:257|398:257|458:258,1,170
334,178,10444,1,0,0:0:0:0:
461,124,10606,1,0,0:0:0:0:
376,282,10769,1,0,0:0:0:0:
376,282,11255,1,0,0:0:0:0:
461,124,11418,1,0,0:0:0:0:
334,178,11580,1,0,0:0:0:0:
112,256,11904,5,0,0:0:0:0:
133,219,11985,1,0,0:0:0:0:
155,183,12066,2,0,P|192:144|224:128,1,85
256,240,12390,2,0,P|219:279|187:295,1,85
192,176,12715,1,0,0:0:0:0:
272,48,12877,1,0,0:0:0:0:
304,224,13039,1,0,0:0:0:0:
144,32,13201,2,0,P|112:80|112:128,1,85
176,208,13525,2,0,P|208:160|208:112,1,85
112,144,13850,2,0,P|80:192|80:240,1,85
144,320,14174,6,0,P|176:272|176:224,1,85
64,272,14498,1,0,0:0:0:0:
256,208,14660,1,0,0:0:0:0:
112,160,14823,1,0,0:0:0:0:
256,320,14985,2,0,P|311:335|357:320,1,85
272,192,15309,1,0,0:0:0:0:
128,336,15471,2,0,L|208:256,1,85
384,256,15796,2,0,P|374:199|341:163,1,85
241,147,16120,2,0,P|250:203|283:239,1,85
331,152,16445,2,0,P|321:95|288:59,1,85
187,42,16769,6,0,P|196:98|229:134,1,85
288,32,17093,1,0,0:0:0:0:
144,160,17255,2,0,B|112:192|112:192|144:224,1,85
336,144,17579,2,0,P|320:208|272:240,1,85
256,144,17904,1,0,0:0:0:0:
448,64,18066,1,0,0:0:0:0:
368,224,18228,1,0,0:0:0:0:
320,32,18390,2,0,P|336:80|384:112,1,85
480,160,18715,2,0,P|448:208|400:224,1,85
320,160,19039,2,0,P|284:182|264:219,1,85
336,256,19363,6,0,P|316:293|280:315,1,85
288,128,19687,1,0,0:0:0:0:
144,224,19850,1,0,0:0:0:0:
149,265,19931,1,0,0:0:0:0:
170,302,20012,2,0,P|212:328|242:332,1,42.5
368,160,20174,5,0,0:0:0:0:
359,110,20255,1,0,0:0:0:0:
328,70,20336,2,0,P|299:49|265:53,1,50.9999984436036
144,223,20498,5,0,0:0:0:0:
156,281,20579,1,0,0:0:0:0:
197,323,20660,2,0,P|223:339|260:332,1,59.4999981842042
368,160,20823,5,0,0:0:0:0:
351,95,20904,1,0,0:0:0:0:
300,51,20985,2,0,P|237:36|184:95,1,136
256,192,21228,12,0,23579,0:0:0:0:
144,144,23742,5,0,0:0:0:0:
304,224,23904,2,0,L|368:256,2,42.5
138,279,24228,5,0,0:0:0:0:
318,161,24390,2,0,L|384:112,2,50.9999984436036
276,366,24715,5,0,0:0:0:0:
261,109,24877,2,0,L|256:0,2,59.4999981842042
449,274,25201,5,0,0:0:0:0:
173,136,25363,2,0,L|64:80,2,68
424,65,25687,5,0,0:0:0:0:
208,224,25850,1,0,0:0:0:0:
272,32,26012,2,0,P|320:96|320:176,1,136
192,112,26336,5,0,0:0:0:0:
336,256,26498,1,0,0:0:0:0:
336,256,26579,1,0,0:0:0:0:
336,256,26660,1,0,0:0:0:0:
332,96,26822,5,0,0:0:0:0:
160,268,26984,1,0,0:0:0:0:
160,268,27065,1,0,0:0:0:0:
160,268,27146,1,0,0:0:0:0:
163,76,27309,5,0,0:0:0:0:
371,284,27471,1,0,0:0:0:0:
371,284,27552,1,0,0:0:0:0:
371,284,27633,1,0,0:0:0:0:
366,53,27795,5,0,0:0:0:0:
117,302,27957,1,0,0:0:0:0:
117,302,28038,1,0,0:0:0:0:
117,302,28119,1,0,0:0:0:0:
145,53,28281,5,0,0:0:0:0:
320,256,28444,1,0,0:0:0:0:
448,64,28606,2,0,P|384:64|288:128,1,152.999995330811
96,112,28931,6,0,P|128:144|176:160,1,85
192,160,29174,1,0,0:0:0:0:
232,146,29255,1,0,0:0:0:0:
126,314,29417,6,0,P|167:295|208:256,1,101.999996887207
224,224,29660,1,0,0:0:0:0:
236,174,29741,1,0,0:0:0:0:
327,356,29904,6,0,P|323:311|288:240,1,118.999996368408
256,208,30147,1,0,0:0:0:0:
213,165,30228,1,0,0:0:0:0:
434,181,30390,6,0,P|390:169|297:172,1,136
235,201,30633,1,0,0:0:0:0:
172,230,30714,1,0,0:0:0:0:
307,20,30877,5,0,0:0:0:0:
176,256,31039,1,0,0:0:0:0:
464,192,31201,2,0,P|400:144|288:128,1,136
144,96,31525,6,0,L|192:144,1,42.5
256,208,31687,1,0,0:0:0:0:
282,241,31768,1,0,0:0:0:0:
309,274,31849,1,0,0:0:0:0:
346,39,32012,6,0,L|300:113,1,50.9999984436036
237,195,32174,1,0,0:0:0:0:
204,234,32255,1,0,0:0:0:0:
171,273,32336,1,0,0:0:0:0:
454,266,32498,6,0,L|357:227,1,59.4999981842042
248,170,32660,1,0,0:0:0:0:
186,134,32741,1,0,0:0:0:0:
125,98,32822,1,0,0:0:0:0:
217,379,32985,6,0,L|244:287,1,68
278,179,33147,1,0,0:0:0:0:
305,105,33228,1,0,0:0:0:0:
333,31,33309,1,0,0:0:0:0:
64,192,33471,5,0,0:0:0:0:
368,64,33633,1,0,0:0:0:0:
240,320,33796,2,0,P|288:224|288:176,1,136
414,278,34120,6,0,L|371:192,1,85
362,174,34444,1,0,0:0:0:0:
432,217,34606,6,0,L|359:148,1,101.999996887207
330,119,34930,1,0,0:0:0:0:
422,126,35093,6,0,L|300:99,1,118.999996368408
261,87,35417,1,0,0:0:0:0:
312,20,35579,6,0,L|210:111,1,136
158,156,35903,1,0,0:0:0:0:
135,55,36066,6,0,L|171:203,1,152.999995330811
194,294,36390,1,0,0:0:0:0:
85,258,36552,5,0,0:0:0:0:
328,301,36715,1,0,0:0:0:0:
368,128,37039,6,0,P|336:160|288:176,1,85
304,64,37525,1,0,0:0:0:0:
368,208,37850,2,0,P|352:256|304:304,1,85
320,160,38174,1,0,0:0:0:0:
432,80,38336,2,0,P|464:128|480:192,1,85
352,208,38823,2,0,P|368:247|393:281,1,85
384,112,39309,1,0,0:0:0:0:
192,128,39633,6,0,P|224:160|288:192,1,85
240,48,39958,1,0,0:0:0:0:
96,160,40120,2,0,P|128:208|176:240,1,85
144,64,40444,1,0,0:0:0:0:
240,224,40606,2,0,P|224:304|192:320,1,85
320,192,41093,1,0,0:0:0:0:
256,48,41417,2,0,L|176:80,2,85
160,32,41904,1,0,0:0:0:0:
224,288,42228,6,0,P|288:288|336:256,1,85
352,160,42715,2,0,L|288:176,1,63.75
144,112,43525,2,0,P|176:80|240:64,1,85
176,224,44012,1,0,0:0:0:0:
304,96,44174,1,0,0:0:0:0:
288,256,44336,1,0,0:0:0:0:
448,64,44498,2,0,P|464:96|448:144,1,85
336,224,45471,1,0,0:0:0:0:
336,224,45796,6,0,P|320:256|336:304,1,85
464,208,46606,1,0,0:0:0:0:
464,208,46687,1,0,0:0:0:0:
464,208,46769,1,0,0:0:0:0:
336,112,46931,1,0,0:0:0:0:
336,112,47012,1,0,0:0:0:0:
336,112,47093,2,0,L|240:144,1,85
176,272,47417,6,0,L|272:240,1,85
400,304,47742,1,0,0:0:0:0:
272,144,47904,1,0,0:0:0:0:
272,336,48066,1,0,0:0:0:0:
400,96,48228,2,0,L|368:208,1,85
480,240,48552,1,0,0:0:0:0:
336,80,48715,2,0,L|272:144,1,85
352,240,49039,5,0,0:0:0:0:
272,16,49201,1,0,0:0:0:0:
448,208,49363,1,0,0:0:0:0:
176,80,49525,1,0,0:0:0:0:
416,112,49687,2,0,L|368:192,1,85
368,0,50012,1,0,0:0:0:0:
288,176,50174,2,0,L|208:240,1,85
256,16,50498,5,0,0:0:0:0:
64,176,50660,1,0,0:0:0:0:
304,240,50823,1,0,0:0:0:0:
160,48,50985,2,0,L|112:144,1,85
320,64,51309,1,0,0:0:0:0:
240,240,51471,2,0,L|144:272,1,85
416,288,51796,1,0,0:0:0:0:
192,192,51958,1,0,0:0:0:0:
400,64,52120,2,0,L|464:16,1,42.5
464,32,52282,6,0,P|432:96|336:176,1,170
256,80,52769,2,0,P|192:128|176:160,1,85
256,224,53093,2,0,P|227:255|189:275,1,85
208,64,53417,1,0,0:0:0:0:
368,240,53579,2,0,P|415:194|419:136,2,85
288,112,54066,6,0,P|352:80|400:80,1,85
272,288,54390,2,0,P|224:272|192:256,1,85
368,368,54715,1,0,0:0:0:0:
352,192,54877,2,0,P|336:128|320:96,1,85
192,160,55201,2,0,P|192:224|208:256,1,85
96,64,55525,1,0,0:0:0:0:
48,256,55687,2,0,P|97:307|127:318,1,85
32,96,56012,1,0,0:0:0:0:
176,256,56174,1,0,0:0:0:0:
198,291,56255,1,0,0:0:0:0:
237,305,56336,6,0,L|288:320,1,42.5
288,160,56498,1,0,0:0:0:0:
265,124,56579,1,0,0:0:0:0:
226,110,56660,6,0,L|175:95,1,42.5
64,224,56823,1,0,0:0:0:0:
61,266,56904,1,0,0:0:0:0:
84,300,56985,6,0,L|116:341,1,42.5
448,160,57147,1,0,0:0:0:0:
451,118,57228,1,0,0:0:0:0:
428,84,57309,6,0,L|401:50,1,42.5
256,224,57471,1,0,0:0:0:0:
288,192,57796,1,0,0:0:0:0:
256,160,58120,1,0,0:0:0:0:
224,192,58444,1,0,0:0:0:0:
256,240,58769,5,0,0:0:0:0:
304,192,59094,1,0,0:0:0:0:
256,143,59418,1,0,0:0:0:0:
207,192,59742,1,0,0:0:0:0:
256,288,60066,5,0,0:0:0:0:
352,192,60391,1,0,0:0:0:0:
256,95,60715,1,0,0:0:0:0:
159,192,61039,1,0,0:0:0:0:
256,336,61363,5,0,0:0:0:0:
400,192,61688,1,0,0:0:0:0:
256,47,62012,1,0,0:0:0:0:
111,192,62336,6,0,L|158:191,1,42.5
320,192,62823,1,0,0:0:0:0:
226,117,62985,1,0,0:0:0:0:
223,254,63147,5,0,0:0:0:0:
327,126,63309,1,0,0:0:0:0:
161,178,63471,1,0,0:0:0:0:
303,279,63633,1,0,0:0:0:0:
291,66,63796,5,0,0:0:0:0:
161,257,63958,1,0,0:0:0:0:
147,38,64120,1,0,0:0:0:0:
339,247,64282,1,0,0:0:0:0:
99,147,64444,5,0,0:0:0:0:
360,85,64606,1,0,0:0:0:0:
204,312,64769,1,0,0:0:0:0:
243,39,64931,1,0,0:0:0:0:
370,331,65093,1,0,0:0:0:0:
73,89,65255,2,8,L|126:136,1,42.5
248,186,65417,2,8,L|195:139,1,42.5
39,90,65579,2,4,L|108:135,1,46.7500014266968
283,187,65741,2,4,L|204:148,1,46.7500014266968
11,89,65904,5,4,0:0:0:0:
30,130,65985,1,4,0:0:0:0:
67,159,66066,2,4,L|121:176,1,46.7500014266968
316,176,66228,5,4,0:0:0:0:
296,134,66309,1,4,0:0:0:0:
259,105,66390,2,4,L|203:89,1,50.9999984436036
233,250,66552,1,4,0:0:0:0:
260,212,67201,1,0,0:0:0:0:
293,178,67850,5,4,0:0:0:0:
368,80,68012,1,0,0:0:0:0:
384,256,68174,1,0,0:0:0:0:
256,64,68336,1,0,0:0:0:0:
272,272,68498,1,0,0:0:0:0:
416,48,68660,1,0,0:0:0:0:
208,176,68823,2,0,P|160:208|128:256,2,101.999996887207
32,240,69309,5,0,0:0:0:0:
208,336,69471,2,0,P|256:320|304:272,1,101.999996887207
208,192,69796,2,0,P|241:154|259:88,1,101.999996887207
96,112,70120,2,0,P|106:62|88:-3,1,101.999996887207
128,208,70444,5,0,0:0:0:0:
240,64,70606,1,0,0:0:0:0:
240,64,70687,1,0,0:0:0:0:
240,64,70769,2,0,P|288:96|304:160,1,101.999996887207
128,288,71093,1,0,0:0:0:0:
192,96,71255,1,0,0:0:0:0:
256,304,71417,2,0,P|320:272|352:224,1,101.999996887207
320,48,71742,1,0,0:0:0:0:
144,240,71904,6,0,P|213:256|268:240,1,101.999996887207
400,128,72228,2,0,P|357:70|304:47,1,101.999996887207
208,272,72552,1,0,0:0:0:0:
80,80,72715,2,0,P|32:128|16:192,1,101.999996887207
256,144,73039,1,0,0:0:0:0:
96,288,73201,1,0,0:0:0:0:
256,352,73363,2,0,P|320:320|400:240,1,127.500004863739
384,64,73687,1,0,0:0:0:0:
256,224,73850,2,0,P|336:192|368:160,1,101.999996887207
400,32,74174,6,0,P|320:32|272:64,2,101.999996887207
240,160,74660,1,0,0:0:0:0:
432,240,74823,2,0,P|400:288|352:320,1,101.999996887207
176,240,75147,2,0,P|128:208|112:128,1,101.999996887207
256,48,75471,5,0,0:0:0:0:
288,240,75633,1,0,0:0:0:0:
160,80,75796,1,0,0:0:0:0:
131,121,75877,1,0,0:0:0:0:
113,169,75958,1,0,0:0:0:0:
368,176,76120,1,0,0:0:0:0:
396,217,76201,1,0,0:0:0:0:
414,265,76282,5,0,0:0:0:0:
192,320,76444,1,0,0:0:0:0:
304,64,76606,1,0,0:0:0:0:
336,256,76769,1,0,0:0:0:0:
336,256,76850,1,0,0:0:0:0:
336,256,76931,1,0,0:0:0:0:
144,96,77093,1,0,0:0:0:0:
128,112,77174,1,0,0:0:0:0:
112,128,77255,1,0,0:0:0:0:
416,192,77417,1,0,0:0:0:0:
438,237,77498,1,0,0:0:0:0:
461,283,77579,5,0,0:0:0:0:
273,33,77742,1,0,0:0:0:0:
219,49,77823,1,0,0:0:0:0:
172,78,77904,1,0,0:0:0:0:
133,119,77985,1,0,0:0:0:0:
106,168,78066,1,0,0:0:0:0:
93,222,78147,1,0,0:0:0:0:
93,278,78228,5,0,0:0:0:0:
256,128,78390,1,0,0:0:0:0:
208,336,78552,1,0,0:0:0:0:
128,112,78715,1,0,0:0:0:0:
368,288,78877,1,0,0:0:0:0:
256,48,79039,1,0,0:0:0:0:
464,176,79201,2,0,P|448:224|384:272,1,101.999996887207
368,16,79525,1,0,0:0:0:0:
240,240,79687,6,0,P|208:208|192:144,1,101.999996887207
400,80,80012,1,0,0:0:0:0:
288,304,80174,1,0,0:0:0:0:
272,48,80336,2,0,P|224:64|160:112,1,101.999996887207
128,272,80660,2,0,P|192:256|256:224,1,101.999996887207
64,368,80985,1,0,0:0:0:0:
176,144,81147,2,0,P|224:96|240:48,1,101.999996887207
224,288,81471,5,0,0:0:0:0:
80,96,81633,2,0,P|32:144|16:208,1,101.999996887207
224,192,81958,1,0,0:0:0:0:
80,336,82120,2,0,P|144:352|224:352,1,101.999996887207
368,240,82444,1,0,0:0:0:0:
208,96,82606,1,0,0:0:0:0:
288,304,82769,1,0,0:0:0:0:
336,64,82931,1,0,0:0:0:0:
144,256,83093,1,0,0:0:0:0:
448,176,83255,1,0,0:0:0:0:
448,176,83336,1,0,0:0:0:0:
448,176,83417,5,0,0:0:0:0:
192,176,84066,2,0,L|112:240,1,85
272,256,84715,1,0,0:0:0:0:
272,192,85039,1,0,0:0:0:0:
272,128,85363,2,0,B|304:96|368:96|368:96|400:16,1,170
448,208,86174,2,0,L|464:256,2,42.5
464,80,86498,5,0,0:0:0:0:
304,240,86660,2,0,L|240:304,2,50.9999984436036
492,199,86985,5,0,0:0:0:0:
208,288,87147,2,0,L|128:320,2,59.4999981842042
456,316,87471,5,0,0:0:0:0:
128,240,87633,2,0,L|48:208,2,59.4999981842042
304,352,87958,5,0,0:0:0:0:
224,128,88120,1,0,0:0:0:0:
416,272,88282,1,0,0:0:0:0:
112,224,88444,1,0,0:0:0:0:
432,144,88606,1,0,0:0:0:0:
272,64,88769,1,0,0:0:0:0:
230,64,88850,1,0,0:0:0:0:
199,92,88931,1,0,0:0:0:0:
359,42,89093,5,0,0:0:0:0:
192,128,89256,1,0,0:0:0:0:
153,160,89337,1,0,0:0:0:0:
146,210,89418,1,0,0:0:0:0:
239,10,89579,5,0,0:0:0:0:
191,219,89742,1,0,0:0:0:0:
180,273,89823,1,0,0:0:0:0:
210,320,89904,1,0,0:0:0:0:
126,63,90066,5,0,0:0:0:0:
252,284,90229,1,0,0:0:0:0:
281,337,90310,1,0,0:0:0:0:
339,355,90391,1,0,0:0:0:0:
64,160,90552,5,0,0:0:0:0:
272,240,90715,1,0,0:0:0:0:
160,48,90877,1,0,0:0:0:0:
128,304,91039,1,0,0:0:0:0:
336,64,91201,1,0,0:0:0:0:
336,240,91363,1,0,0:0:0:0:
336,271,91444,1,0,0:0:0:0:
336,303,91525,1,0,0:0:0:0:
336,335,91606,1,0,0:0:0:0:
336,367,91687,1,0,0:0:0:0:
224,159,91850,5,0,0:0:0:0:
224,128,91931,1,0,0:0:0:0:
224,96,92012,1,0,0:0:0:0:
224,64,92093,1,0,0:0:0:0:
224,32,92174,1,0,0:0:0:0:
112,240,92336,5,0,0:0:0:0:
112,271,92417,1,0,0:0:0:0:
112,303,92498,1,0,0:0:0:0:
112,335,92579,1,0,0:0:0:0:
112,367,92660,1,0,0:0:0:0:
32,160,92823,5,0,0:0:0:0:
32,129,92904,1,0,0:0:0:0:
32,97,92985,1,0,0:0:0:0:
32,65,93066,1,0,0:0:0:0:
32,33,93147,5,0,0:0:0:0:
160,208,93309,1,0,0:0:0:0:
208,32,93471,1,0,0:0:0:0:
48,144,93633,1,0,0:0:0:0:
288,240,93796,1,0,0:0:0:0:
144,96,93958,1,0,0:0:0:0:
96,123,94039,1,0,0:0:0:0:
66,169,94120,1,0,0:0:0:0:
59,223,94201,1,0,0:0:0:0:
77,275,94282,6,0,P|121:315|156:300,1,55.2499974708558
208,272,94444,1,0,0:0:0:0:
255,245,94525,1,0,0:0:0:0:
272,194,94606,1,0,0:0:0:0:
250,144,94687,1,0,0:0:0:0:
211,107,94769,6,0,P|178:89|135:98,1,55.2499974708558
160,224,94931,1,0,0:0:0:0:
200,260,95012,1,0,0:0:0:0:
252,278,95093,1,0,0:0:0:0:
307,274,95174,1,0,0:0:0:0:
355,248,95255,6,0,P|390:200|379:173,1,55.2499974708558
320,112,95417,1,0,0:0:0:0:
265,105,95498,1,0,0:0:0:0:
214,125,95579,1,0,0:0:0:0:
179,167,95660,1,0,0:0:0:0:
167,220,95742,2,0,P|173:266|192:288,1,55.2499974708558
321,181,95904,1,0,0:0:0:0:
65,163,96066,1,0,0:0:0:0:
256,320,96228,1,0,0:0:0:0:
176,32,96390,1,0,0:0:0:0:
112,208,101579,5,0,0:0:0:0:
112,208,101904,2,0,L|176:160,1,68
304,144,102390,2,0,L|240:192,1,68
208,288,102715,2,0,P|272:304|352:288,1,136
273,213,103201,1,0,0:0:0:0:
342,129,103363,2,0,L|201:124,1,136
273,213,103850,1,0,0:0:0:0:
273,213,104174,5,0,0:0:0:0:
144,112,104498,2,0,L|96:176,1,68
80,288,104985,2,0,P|128:288|160:272,1,68
192,352,105309,2,0,P|240:336|288:240,1,136
224,144,105796,2,0,P|267:124|304:133,2,68
369,212,106282,1,0,0:0:0:0:
231,42,106444,1,0,0:0:0:0:
187,253,106606,1,0,0:0:0:0:
371,74,106769,1,0,0:0:0:0:
324,261,107093,6,0,L|246:210,1,68
264,112,107579,2,0,L|341:169,1,68
278,308,107904,2,0,P|235:338|114:267,1,204
206,251,108552,1,0,0:0:0:0:
394,192,108877,2,0,L|302:165,1,68
412,279,109201,1,0,0:0:0:0:
207,138,109363,5,0,0:0:0:0:
301,84,109525,1,0,0:0:0:0:
285,217,109687,1,0,0:0:0:0:
185,50,109850,1,0,0:0:0:0:
150,233,110012,5,0,0:0:0:0:
361,145,110174,1,0,0:0:0:0:
108,102,110336,1,0,0:0:0:0:
226,299,110498,1,0,0:0:0:0:
203,62,110660,5,0,0:0:0:0:
58,234,110823,1,0,0:0:0:0:
327,230,110985,1,0,0:0:0:0:
153,30,111147,1,0,0:0:0:0:
115,320,111309,5,0,0:0:0:0:
321,37,111471,1,0,0:0:0:0:
26,146,111633,1,0,0:0:0:0:
342,297,111796,2,0,L|237:248,1,85
367,251,112282,1,0,0:0:0:0:
111,243,112444,1,0,0:0:0:0:
343,298,112769,1,0,0:0:0:0:
170,87,113093,6,0,L|275:136,1,85
145,133,113579,1,0,0:0:0:0:
400,141,113741,1,0,0:0:0:0:
169,86,114066,2,0,P|196:152|242:170,1,85
385,221,114390,1,0,0:0:0:0:
86,109,114552,1,0,0:0:0:0:
353,281,114877,5,0,0:0:0:0:
150,35,115039,1,0,0:0:0:0:
385,221,115363,5,0,0:0:0:0:
86,109,115525,1,0,0:0:0:0:
278,287,115850,6,0,P|210:267|179:237,1,85
338,185,116174,1,0,0:0:0:0:
145,352,116336,1,0,0:0:0:0:
207,119,116498,1,0,0:0:0:0:
295,358,116660,1,0,0:0:0:0:
84,119,116823,2,0,P|111:167|157:191,1,85
372,229,117147,5,0,0:0:0:0:
144,77,117471,2,0,L|249:123,1,85
373,229,117958,1,0,0:0:0:0:
201,293,118282,5,0,0:0:0:0:
315,68,118444,1,0,0:0:0:0:
245,307,118769,2,0,L|243:205,1,85
316,68,119255,1,0,0:0:0:0:
366,292,119579,5,0,0:0:0:0:
192,55,119742,1,0,0:0:0:0:
301,333,120066,5,0,0:0:0:0:
227,48,120228,2,0,L|279:134,1,85
301,333,120552,1,0,0:0:0:0:
270,41,120715,2,0,P|230:92|180:114,1,85
40,153,121039,5,0,0:0:0:0:
184,259,121201,1,0,0:0:0:0:
115,81,121363,1,0,0:0:0:0:
61,279,121525,1,0,0:0:0:0:
244,128,121687,1,0,0:0:0:0:
175,330,121850,1,0,0:0:0:0:
145,48,122012,1,0,0:0:0:0:
297,286,122174,1,0,0:0:0:0:
36,91,122336,1,0,0:0:0:0:
133,188,122660,5,0,0:0:0:0:
203,238,122985,1,0,0:0:0:0:
256,256,123309,1,0,0:0:0:0:
476,91,123633,1,0,0:0:0:0:
379,188,123957,5,0,0:0:0:0:
309,238,124282,1,0,0:0:0:0:
256,256,124606,1,0,0:0:0:0:
83,21,124931,1,0,0:0:0:0:
141,146,125255,5,0,0:0:0:0:
190,217,125580,1,0,0:0:0:0:
234,252,125904,1,0,0:0:0:0:
428,21,126228,1,0,0:0:0:0:
370,146,126552,5,0,0:0:0:0:
321,217,126877,1,0,0:0:0:0:
277,252,127201,6,0,L|241:224,1,42.5
161,132,127687,1,0,0:0:0:0:
238,313,127850,1,0,0:0:0:0:
252,106,128012,1,0,0:0:0:0:
134,269,128174,5,0,0:0:0:0:
347,148,128336,1,0,0:0:0:0:
291,326,128498,1,0,0:0:0:0:
179,76,128660,1,0,0:0:0:0:
390,249,128823,5,0,0:0:0:0:
160,142,128985,1,0,0:0:0:0:
222,338,129147,1,0,0:0:0:0:
345,63,129309,1,0,0:0:0:0:
113,253,129472,5,0,0:0:0:0:
356,137,129633,1,0,0:0:0:0:
288,352,129795,1,0,0:0:0:0:
153,50,129957,1,0,0:0:0:0:
408,259,130120,1,4,0:0:0:0:
408,259,130201,1,4,0:0:0:0:
408,259,130282,6,4,L|361:235,1,42.5
254,305,130444,2,4,L|277:258,1,42.5
211,149,130606,2,4,L|258:173,1,42.5
365,103,130768,2,4,L|341:150,1,42.5
412,260,130931,1,4,0:0:0:0:
370,270,131012,1,4,0:0:0:0:
328,270,131093,1,4,0:0:0:0:
288,256,131174,1,4,0:0:0:0:
254,231,131255,1,4,0:0:0:0:
228,198,131336,1,4,0:0:0:0:
207,161,131417,1,8,0:0:0:0:
207,161,132066,1,0,0:0:0:0:
207,161,132715,5,4,0:0:0:0:
315,73,132877,1,0,0:0:0:0:
308,259,133039,1,0,0:0:0:0:
147,49,133201,1,0,0:0:0:0:
190,286,133363,1,0,0:0:0:0:
393,113,133525,1,0,0:0:0:0:
88,148,133687,2,0,P|154:175|216:178,1,101.999996887207
61,31,134012,5,0,0:0:0:0:
145,286,134174,1,0,0:0:0:0:
207,75,134336,2,0,P|247:131|299:148,1,101.999996887207
140,229,134660,2,0,P|208:234|255:205,1,101.999996887207
252,356,134985,2,0,P|300:306|307:252,1,101.999996887207
149,308,135309,5,0,0:0:0:0:
389,197,135471,1,0,0:0:0:0:
389,197,135552,1,0,0:0:0:0:
389,197,135633,1,0,0:0:0:0:
233,362,135796,1,0,0:0:0:0:
308,123,135958,1,0,0:0:0:0:
369,366,136120,1,0,0:0:0:0:
372,70,136282,2,0,P|335:133|297:159,1,101.999996887207
487,37,136606,5,0,0:0:0:0:
191,113,136769,1,0,0:0:0:0:
481,168,136931,1,0,0:0:0:0:
275,18,137093,2,0,P|293:79|332:139,1,101.999996887207
106,15,137417,5,0,0:0:0:0:
437,98,137579,1,0,0:0:0:0:
168,160,137742,2,0,P|206:227|262:259,1,101.999996887207
22,97,138066,1,0,0:0:0:0:
292,220,138228,2,0,P|331:268|399:295,1,101.999996887207
27,199,138552,1,0,0:0:0:0:
261,98,138715,2,0,P|247:147|195:216,1,101.999996887207
231,338,139039,2,0,P|290:303|315:263,2,101.999996887207
452,215,139525,5,0,0:0:0:0:
148,256,139687,2,0,P|195:196|246:173,1,101.999996887207
64,336,140012,1,0,0:0:0:0:
64,336,140093,1,0,0:0:0:0:
64,336,140174,6,0,P|66:259|111:205,1,101.999996887207
295,158,140498,1,0,0:0:0:0:
156,322,140660,1,0,0:0:0:0:
156,322,140742,1,0,0:0:0:0:
156,322,140823,5,0,0:0:0:0:
221,96,140985,1,0,0:0:0:0:
248,127,141066,1,0,0:0:0:0:
270,164,141147,5,0,0:0:0:0:
415,109,141309,2,0,P|436:169|418:251,1,127.500004863739
130,80,141633,1,0,0:0:0:0:
144,120,141714,1,0,0:0:0:0:
158,160,141796,5,0,0:0:0:0:
381,142,141958,1,0,0:0:0:0:
363,194,142039,1,0,0:0:0:0:
345,246,142120,5,0,0:0:0:0:
135,223,142282,1,0,0:0:0:0:
157,287,142363,1,0,0:0:0:0:
179,351,142444,5,0,0:0:0:0:
416,84,142606,1,0,0:0:0:0:
412,138,142687,1,0,0:0:0:0:
390,189,142768,1,0,0:0:0:0:
353,230,142849,1,0,0:0:0:0:
305,256,142930,1,0,0:0:0:0:
251,266,143011,1,0,0:0:0:0:
197,257,143092,5,0,0:0:0:0:
295,96,143255,1,0,0:0:0:0:
313,320,143417,1,0,0:0:0:0:
156,80,143579,1,0,0:0:0:0:
407,258,143742,1,0,0:0:0:0:
72,143,143904,1,0,0:0:0:0:
421,146,144066,2,0,P|374:179|287:200,1,110.499994941712
471,27,144390,5,0,0:0:0:0:
395,283,144552,2,0,P|341:327|279:336,1,110.499994941712
161,99,144877,2,0,P|192:158|245:198,1,110.499994941712
377,46,145201,2,0,P|347:94|284:128,1,110.499994941712
91,214,145525,2,0,P|153:260|223:289,1,110.499994941712
143,84,145850,2,0,L|111:28,1,55.2499974708558
95,21,146012,6,0,P|107:97|154:161,1,110.499994941712
304,235,146336,1,0,0:0:0:0:
36,263,146498,2,0,P|81:302|154:319,1,110.499994941712
383,147,146823,1,0,0:0:0:0:
183,373,146985,2,0,P|272:367|331:346,1,110.499994941712
486,132,147309,1,0,0:0:0:0:
385,244,147471,5,0,0:0:0:0:
426,58,147633,1,0,0:0:0:0:
247,217,147796,1,0,0:0:0:0:
311,11,147958,1,0,0:0:0:0:
182,114,148120,1,0,0:0:0:0:
182,114,148201,1,0,0:0:0:0:
182,114,148282,6,0,P|233:159|299:178,1,127.500004863739
62,58,148931,1,0,0:0:0:0:
109,144,149255,2,0,P|169:203|236:216,1,127.500004863739
108,38,149904,1,0,0:0:0:0:
243,113,150066,1,0,0:0:0:0:
243,113,150147,1,0,0:0:0:0:
243,113,150228,2,0,P|285:131|315:158,1,63.7500024318696
376,228,150471,2,0,L|344:244,1,31.8750012159348
234,292,150715,2,0,P|274:325|312:343,1,85
258,200,160931,6,0,L|316:230,2,42.5
340,128,161255,2,0,L|386:108,2,42.5
261,35,161579,1,0,0:0:0:0:
221,50,161660,1,0,0:0:0:0:
187,76,161741,1,0,0:0:0:0:
161,109,161822,1,0,0:0:0:0:
143,147,161904,6,4,L|131:198,1,42.5
202,283,162066,1,0,0:0:0:0:
243,291,162147,1,0,0:0:0:0:
285,284,162228,1,0,0:0:0:0:
322,263,162309,1,0,0:0:0:0:
349,231,162390,6,4,L|369:188,1,42.5
267,82,162552,1,0,0:0:0:0:
244,117,162633,1,0,0:0:0:0:
230,157,162714,1,0,0:0:0:0:
226,200,162795,1,0,0:0:0:0:
232,242,162877,5,0,0:0:0:0:
256,212,162958,1,0,0:0:0:0:
284,179,163039,1,0,0:0:0:0:
319,156,163120,6,0,L|371:135,2,42.5
163,208,163363,1,0,0:0:0:0:
181,245,163444,1,0,0:0:0:0:
211,276,163525,1,0,0:0:0:0:
248,296,163606,1,0,0:0:0:0:
289,304,163687,6,4,L|336:302,1,42.5
331,302,163850,1,0,0:0:0:0:
331,302,163931,1,0,0:0:0:0:
422,218,164012,2,4,L|354:220,1,42.5
264,222,164174,1,0,0:0:0:0:
221,221,164255,1,0,0:0:0:0:
184,202,164336,1,0,0:0:0:0:
158,168,164417,1,0,0:0:0:0:
149,127,164498,6,0,L|165:77,2,42.5
121,278,164823,1,0,0:0:0:0:
301,106,164985,5,0,0:0:0:0:
254,293,165147,1,0,0:0:0:0:
439,240,165309,1,0,0:0:0:0:
197,167,165471,5,0,0:0:0:0:
109,346,165633,1,0,0:0:0:0:
318,323,165796,1,0,0:0:0:0:
91,172,165958,1,0,0:0:0:0:
80,144,166120,1,0,0:0:0:0:
64,112,166282,6,0,L|48:64,1,42.5
98,228,166444,1,0,0:0:0:0:
210,152,166606,1,0,0:0:0:0:
222,135,166687,1,0,0:0:0:0:
241,124,166768,1,0,0:0:0:0:
262,121,166849,1,0,0:0:0:0:
282,127,166930,1,0,0:0:0:0:
299,140,167011,1,0,0:0:0:0:
309,158,167092,5,0,0:0:0:0:
312,179,167173,1,0,0:0:0:0:
307,199,167254,1,0,0:0:0:0:
294,216,167335,1,0,0:0:0:0:
276,227,167416,1,0,0:0:0:0:
255,230,167497,1,0,0:0:0:0:
235,225,167578,1,0,0:0:0:0:
218,212,167660,1,0,0:0:0:0:
208,201,167742,5,0,0:0:0:0:
222,180,167823,1,0,0:0:0:0:
243,166,167904,1,0,0:0:0:0:
268,161,167985,1,0,0:0:0:0:
298,163,168066,1,0,0:0:0:0:
324,183,168147,5,0,0:0:0:0:
340,213,168228,1,0,0:0:0:0:
341,247,168309,1,0,0:0:0:0:
324,278,168390,1,0,0:0:0:0:
288,299,168471,5,0,0:0:0:0:
246,298,168552,1,0,0:0:0:0:
211,274,168633,1,0,0:0:0:0:
196,235,168715,5,0,0:0:0:0:
204,176,168796,1,0,0:0:0:0:
236,127,168877,1,0,0:0:0:0:
286,95,168958,1,0,0:0:0:0:
345,86,169039,5,0,0:0:0:0:
304,240,169201,1,0,0:0:0:0:
464,192,169363,1,0,0:0:0:0:
332,60,169525,5,0,0:0:0:0:
317,234,169687,1,0,0:0:0:0:
481,152,169849,1,0,0:0:0:0:
313,35,170012,5,0,0:0:0:0:
330,226,170174,2,0,L|375:195,1,42.5
492,105,170336,1,0,0:0:0:0:
288,11,170498,5,0,0:0:0:0:
343,215,170660,2,0,L|382:176,1,42.5
495,53,170822,1,0,0:0:0:0:
193,154,170985,1,0,0:0:0:0:
401,174,171147,1,0,0:0:0:0:
424,209,171228,1,0,0:0:0:0:
432,250,171309,1,0,0:0:0:0:
424,292,171390,1,0,0:0:0:0:
401,328,171471,1,0,0:0:0:0:
367,352,171552,1,0,0:0:0:0:
326,362,171633,6,0,L|226:329,1,85
304,256,171958,2,0,L|204:223,1,85
272,144,172282,2,0,L|172:111,1,85
240,32,172606,2,0,L|140:-1,1,85
400,16,172931,6,0,L|300:49,1,85
378,122,173256,2,0,L|278:155,1,85
346,234,173580,2,0,L|246:267,1,85
314,346,173904,2,0,L|214:379,1,85
176,56,174228,6,0,L|206:158,1,85
332,223,174552,2,0,L|306:324,1,85
183,300,174877,2,0,L|206:218,1,85
339,133,175201,2,0,L|317:50,1,85
131,107,175525,6,0,L|204:181,1,85
98,266,175850,2,0,L|168:327,1,85
381,107,176174,2,0,L|308:181,1,85
414,266,176498,2,0,L|344:327,1,85
164,56,176823,6,0,L|193:161,1,85
348,56,177147,2,0,L|319:161,1,85
104,243,177471,2,0,L|183:328,1,85
408,243,177796,2,0,L|329:328,1,85
203,162,178120,5,0,0:0:0:0:
273,50,178282,1,0,0:0:0:0:
278,248,178444,1,0,0:0:0:0:
194,32,178606,1,0,0:0:0:0:
191,268,178769,1,0,0:0:0:0:
341,38,178931,1,0,0:0:0:0:
299,319,179093,1,0,0:0:0:0:
136,52,179255,1,0,0:0:0:0:
224,354,179417,6,0,L|166:271,1,85
312,273,179742,2,0,L|352:189,1,85
217,172,180066,2,0,L|159:89,1,85
305,91,180391,2,0,L|345:7,1,85
219,173,180715,5,0,0:0:0:0:
299,333,180877,1,0,0:0:0:0:
307,114,181039,1,0,0:0:0:0:
181,313,181201,1,0,0:0:0:0:
211,47,181363,1,0,0:0:0:0:
341,193,181525,1,0,0:0:0:0:
356,232,181606,1,0,0:0:0:0:
353,274,181687,1,0,0:0:0:0:
333,311,181768,1,0,0:0:0:0:
299,336,181849,1,0,0:0:0:0:
258,345,181930,1,0,0:0:0:0:
217,336,182011,5,0,0:0:0:0:
289,182,182336,2,0,P|364:163|418:205,2,127.500004863739
303,240,183309,5,0,0:0:0:0:
231,86,183634,2,0,P|156:67|102:109,2,127.500004863739
182,198,184606,5,0,0:0:0:0:
358,104,184931,1,0,0:0:0:0:
422,136,185255,1,0,0:0:0:0:
364,172,185417,2,0,L|364:258,2,63.7500024318696
455,70,185904,2,0,P|393:57|306:78,1,127.500004863739
402,157,186390,2,0,P|419:220|389:303,1,127.500004863739
289,253,186877,2,0,P|245:301|188:311,1,110.499994941712
391,253,187201,5,0,0:0:0:0:
230,198,187363,1,0,0:0:0:0:
326,328,187525,1,0,0:0:0:0:
319,144,187687,1,0,0:0:0:0:
375,305,187850,5,0,0:0:0:0:
214,176,188012,1,0,0:0:0:0:
270,363,188174,1,0,0:0:0:0:
338,151,188336,1,0,0:0:0:0:
334,346,188498,5,0,0:0:0:0:
217,153,188660,1,0,0:0:0:0:
203,367,188822,1,0,0:0:0:0:
354,174,188984,1,0,0:0:0:0:
279,374,189147,5,0,0:0:0:0:
230,130,189309,1,0,0:0:0:0:
136,347,189471,1,0,0:0:0:0:
364,203,189633,1,0,0:0:0:0:
215,371,189796,6,0,L|174:310,3,55.2499974708558
248,258,190120,2,0,L|251:187,3,55.2499974708558
346,194,190444,2,0,L|375:142,3,55.2499974708558
472,160,190769,1,0,0:0:0:0:
473,214,190850,1,0,0:0:0:0:
451,265,190931,1,0,0:0:0:0:
411,302,191012,1,0,0:0:0:0:
361,317,191093,6,0,B|282:318|179:220|179:220|286:178,1,297.5
299,183,191742,6,0,P|340:120|178:73,1,297.5
168,84,192390,1,0,0:0:0:0:
108,92,192552,1,0,0:0:0:0:
94,150,192715,1,0,0:0:0:0:
143,185,192877,1,0,0:0:0:0:
193,153,193039,1,0,0:0:0:0:
244,186,193201,1,0,0:0:0:0:
193,230,193363,6,0,L|294:294,1,85
328,313,193687,1,0,0:0:0:0:
427,256,193850,1,0,0:0:0:0:
323,196,194012,2,0,L|373:110,1,85
254,129,194336,2,0,L|255:38,1,85
159,88,194660,2,0,L|94:18,1,85
85,174,194985,2,0,P|124:247|231:279,1,170
166,133,195471,5,0,0:0:0:0:
148,355,195633,1,0,0:0:0:0:
295,148,195796,1,0,0:0:0:0:
127,224,195958,2,0,L|69:243,1,42.5
63,253,196120,2,0,P|124:293|226:264,1,170
240,254,196525,1,0,0:0:0:0:
270,224,196606,5,0,0:0:0:0:
256,354,196769,2,0,P|317:329|351:288,1,85
384,142,197093,2,0,P|323:156|294:188,1,85
461,35,197417,1,0,0:0:0:0:
312,282,197579,2,4,P|239:268|187:233,1,110.499994941712,4|0,0:0|0:0,0:0:0:0:
199,63,197904,2,0,P|276:98|313:141,1,110.499994941712
40,22,198228,1,0,0:0:0:0:
192,275,198390,2,0,P|254:238|292:200,1,110.499994941712
59,364,198715,1,0,0:0:0:0:
188,152,198877,6,0,P|234:94|225:22,2,110.499994941712
404,38,199363,2,0,P|383:119|409:183,1,110.499994941712
258,232,199687,1,0,0:0:0:0:
258,232,199769,1,0,0:0:0:0:
258,232,199850,2,0,P|214:281|151:288,1,110.499994941712
412,225,200174,1,0,0:0:0:0:
113,213,200336,1,0,0:0:0:0:
113,213,200417,1,0,0:0:0:0:
113,213,200498,5,0,0:0:0:0:
301,322,200660,1,0,0:0:0:0:
286,281,200741,1,0,0:0:0:0:
272,241,200822,5,0,0:0:0:0:
396,160,200985,2,0,L|288:86,1,110.499994941712
401,347,201309,1,0,0:0:0:0:
382,308,201390,1,0,0:0:0:0:
363,270,201471,5,0,0:0:0:0:
180,288,201633,1,0,0:0:0:0:
213,243,201714,1,0,0:0:0:0:
246,199,201795,5,0,0:0:0:0:
110,65,201958,1,0,0:0:0:0:
173,67,202039,1,0,0:0:0:0:
237,69,202120,5,0,0:0:0:0:
385,121,202282,1,0,0:0:0:0:
402,181,202363,1,0,0:0:0:0:
393,244,202444,1,0,0:0:0:0:
359,297,202525,1,0,0:0:0:0:
305,331,202606,1,0,0:0:0:0:
243,340,202687,1,0,0:0:0:0:
182,322,202768,5,0,0:0:0:0:
327,158,202931,1,0,0:0:0:0:
64,141,203093,1,0,0:0:0:0:
301,336,203255,1,0,0:0:0:0:
208,25,203417,1,0,0:0:0:0:
63,323,203579,1,0,0:0:0:0:
362,67,203742,1,0,0:0:0:0:
362,67,203823,1,0,0:0:0:0:
362,67,203904,6,0,P|361:134|310:204,1,110.499994941712
151,58,204228,2,0,P|176:130|226:165,1,110.499994941712
77,203,204552,2,0,P|142:242|203:236,1,110.499994941712
151,356,204877,2,0,P|226:343|269:300,1,110.499994941712
30,203,205201,6,0,P|72:162|121:136,1,110.499994941712
47,348,205525,1,0,0:0:0:0:
267,69,205687,2,0,P|356:88|393:118,1,110.499994941712
38,224,206012,1,0,0:0:0:0:
414,264,206174,2,0,P|369:323|297:350,1,110.499994941712
54,88,206498,5,0,0:0:0:0:
175,350,206660,1,0,0:0:0:0:
192,45,206823,1,0,0:0:0:0:
32,296,206985,1,0,0:0:0:0:
330,83,207147,1,0,0:0:0:0:
0,170,207309,1,0,0:0:0:0:
356,205,207471,1,0,0:0:0:0:
332,254,207552,1,0,0:0:0:0:
296,296,207633,5,0,0:0:0:0:
131,81,207796,1,0,0:0:0:0:
133,135,207877,1,0,0:0:0:0:
157,185,207958,5,0,0:0:0:0:
265,67,208120,1,0,0:0:0:0:
234,285,208282,1,0,0:0:0:0:
136,63,208444,1,0,0:0:0:0:
376,258,208606,1,0,0:0:0:0:
214,20,208769,1,0,0:0:0:0:
126,296,208931,1,0,0:0:0:0:
367,31,209093,1,0,0:0:0:0:
366,85,209174,1,0,0:0:0:0:
339,133,209255,5,0,0:0:0:0:
152,95,209417,1,0,0:0:0:0:
164,147,209498,1,0,0:0:0:0:
203,186,209579,1,0,0:0:0:0:
373,218,209742,2,0,P|335:283|294:314,1,110.499994941712
227,108,210066,1,0,0:0:0:0:
275,82,210147,1,0,0:0:0:0:
330,78,210228,1,0,0:0:0:0:
382,96,210309,1,0,0:0:0:0:
423,133,210390,1,0,0:0:0:0:
446,183,210471,1,0,0:0:0:0:
448,237,210552,5,0,0:0:0:0:
275,147,210715,1,0,0:0:0:0:
384,288,210877,5,0,0:0:0:0:
239,128,211040,1,0,0:0:0:0:
320,320,211201,5,0,0:0:0:0:
236,115,211364,1,0,0:0:0:0:
272,345,211525,5,0,0:0:0:0:
263,101,211688,1,0,0:0:0:0:
215,353,211850,5,0,0:0:0:0:
297,98,212013,1,0,0:0:0:0:
154,340,212174,6,0,P|213:294|231:239,1,118.999996368408
212,52,212498,2,0,P|146:83|108:131,1,118.999996368408
364,234,212823,2,0,P|386:169|356:89,1,118.999996368408
185,144,213147,5,0,0:0:0:0:
356,306,213309,1,0,0:0:0:0:
159,200,213471,5,0,0:0:0:0:
417,215,213633,1,0,0:0:0:0:
176,268,213796,5,0,0:0:0:0:
405,98,213958,1,0,0:0:0:0:
229,326,214120,2,0,P|268:258|268:198,1,118.999996368408
256,164,214363,1,0,0:0:0:0:
229,110,214444,5,0,0:0:0:0:
380,352,214606,1,0,0:0:0:0:
103,138,214769,1,0,0:0:0:0:
449,228,214931,1,0,0:0:0:0:
94,268,215093,1,0,0:0:0:0:
403,88,215255,2,0,P|385:148|334:188,1,118.999996368408
158,341,215579,1,0,0:0:0:0:
158,341,215660,1,0,0:0:0:0:
158,341,215742,5,0,0:0:0:0:
384,192,215904,1,0,0:0:0:0:
83,272,216066,5,0,0:0:0:0:
380,255,216228,1,0,0:0:0:0:
52,168,216390,5,0,0:0:0:0:
345,315,216552,1,0,0:0:0:0:
345,315,216633,1,0,0:0:0:0:
345,315,216715,2,0,P|277:256|279:149,1,178.499994552612
288,143,217039,5,0,0:0:0:0:
71,255,217201,1,0,0:0:0:0:
255,97,217363,5,0,0:0:0:0:
109,323,217525,1,0,0:0:0:0:
198,50,217687,5,0,0:0:0:0:
185,318,217849,1,0,0:0:0:0:
185,318,217931,1,0,0:0:0:0:
185,318,218012,5,0,0:0:0:0:
76,44,218174,2,0,P|102:118|149:134,1,118.999996368408
336,76,218498,1,0,0:0:0:0:
336,76,218579,1,0,0:0:0:0:
336,76,218660,1,0,0:0:0:0:
374,182,218823,1,0,0:0:0:0:
337,203,218904,1,0,0:0:0:0:
301,225,218985,1,0,0:0:0:0:
352,341,219147,1,0,0:0:0:0:
305,321,219228,1,0,0:0:0:0:
258,301,219309,5,0,0:0:0:0:
118,63,219471,1,0,0:0:0:0:
155,103,219552,1,0,0:0:0:0:
192,144,219633,1,0,0:0:0:0:
72,230,219796,1,0,0:0:0:0:
131,236,219877,1,0,0:0:0:0:
190,242,219958,1,0,0:0:0:0:
229,354,220120,1,0,0:0:0:0:
270,311,220201,1,0,0:0:0:0:
312,269,220282,5,0,0:0:0:0:
451,196,220444,1,0,0:0:0:0:
438,138,220525,1,0,0:0:0:0:
405,89,220606,1,0,0:0:0:0:
356,55,220687,1,0,0:0:0:0:
298,43,220768,1,0,0:0:0:0:
240,52,220849,1,0,0:0:0:0:
189,82,220930,5,0,0:0:0:0:
301,228,221093,1,0,0:0:0:0:
70,197,221255,1,0,0:0:0:0:
308,97,221417,1,0,0:0:0:0:
155,318,221579,1,0,0:0:0:0:
157,45,221742,1,0,0:0:0:0:
344,307,221904,1,0,0:0:0:0:
344,307,221985,1,0,0:0:0:0:
344,307,222066,6,0,P|377:248|371:172,1,118.999996368408
276,39,222390,2,0,P|237:107|236:194,1,118.999996368408
189,276,222715,2,0,P|121:240|86:169,1,118.999996368408
236,56,223039,2,0,P|279:103|284:201,1,118.999996368408
84,79,223363,5,0,0:0:0:0:
411,123,223525,1,0,0:0:0:0:
222,173,223687,1,0,0:0:0:0:
222,173,223769,1,0,0:0:0:0:
222,173,223850,2,0,P|265:232|312:258,1,118.999996368408
81,236,224174,1,0,0:0:0:0:
318,147,224336,2,0,P|358:88|416:80,1,118.999996368408
413,257,224660,2,0,P|356:323|272:323,1,118.999996368408
136,137,224985,2,0,P|191:69|260:43,1,118.999996368408
87,291,225309,5,0,0:0:0:0:
103,34,225471,1,0,0:0:0:0:
266,262,225633,1,0,0:0:0:0:
266,262,225715,1,0,0:0:0:0:
266,262,225796,6,0,L|191:157,1,118.999996368408
437,293,226120,1,0,0:0:0:0:
225,165,226769,6,0,P|162:140|126:44,1,170
191,287,227417,1,0,0:0:0:0:
220,76,227742,1,0,0:0:0:0:
316,253,228066,2,0,L|356:173,1,85
420,50,228877,2,0,L|445:2,2,42.5
163,203,229201,5,0,0:0:0:0:
435,130,229363,2,0,L|482:120,2,42.5
123,153,229687,5,0,0:0:0:0:
449,240,229849,2,0,L|504:258,2,42.5
128,66,230174,5,0,0:0:0:0:
414,351,230336,2,0,L|460:403,2,42.5
226,20,230660,5,0,0:0:0:0:
211,348,230823,1,0,0:0:0:0:
414,48,230985,1,0,0:0:0:0:
50,280,231147,1,0,0:0:0:0:
