osu file format v9

[General]
AudioFilename: Taitoru Nante Jibun te Kangae Nasanaina.mp3
AudioLeadIn: 0
PreviewTime: 35164
Countdown: 0
SampleSet: Normal
StackLeniency: 0.7
Mode: 0
LetterboxInBreaks: 1

[Editor]
DistanceSpacing: 0.4
BeatDivisor: 4
GridSize: 8

[Metadata]
Title:Title Nante Jibun de Kangae Nasanaina (TV Size)
Artist:Sawashiro Miyuki
Creator:Crazy Jay
Version:Venomous Maria
Source:Arakawa Under the Bridge
Tags:maria rockit

[Difficulty]
HPDrainRate:6
CircleSize:4
OverallDifficulty:8
ApproachRate:8
SliderMultiplier:1.6
SliderTickRate:0.5

[Events]
//Background and Video events
0,0,"BG.jpg"
//Break Periods
//Storyboard Layer 0 (Background)
//Storyboard Layer 1 (Fail)
//Storyboard Layer 2 (Pass)
//Storyboard Layer 3 (Foreground)
//Storyboard Sound Samples
//Background Colour Transformations
3,100,163,162,255

[TimingPoints]
759,465.116279069767,4,1,0,60,1,0
1631,-50,4,1,0,60,0,0
23956,-200,4,1,0,60,0,0
25352,-50,4,1,0,60,0,0
25876,-50,4,1,0,60,0,0
35176,-50,4,1,0,60,0,1
35408,-50,4,1,0,60,0,0
57503,-50,4,1,0,60,0,1
57735,-50,4,1,0,60,0,0
77967,-200,4,1,0,60,0,0
78277,-200,4,1,0,30,0,0
78587,-200,4,1,0,10,0,0
78897,-200,4,1,0,60,0,0
80990,-100,4,1,0,60,0,0
81687,-50,4,1,0,60,0,0

[Colours]
Combo1 : 192,192,192
Combo2 : 248,103,106
Combo3 : 255,139,83
Combo4 : 253,53,98

[HitObjects]
288,312,1689,2,0,B|384:344|448:256,1,160,6|8
432,144,2154,1,0
432,144,2270,1,0
376,96,2386,1,8
376,96,2503,1,0
304,88,2619,2,0,B|264:96|232:128,1,80
208,192,2852,1,8
144,232,2968,2,0,B|88:200|80:144|104:80,1,160,2|0
232,40,3433,5,2
232,40,3782,1,8
208,192,4014,2,0,B|216:240|248:272,1,80
368,168,4247,2,0,B|360:120|328:88,1,80,8|0
248,112,4479,2,0,B|208:112|168:72,2,80,0|0|8
288,184,4828,2,0,B|336:264|302:341,1,160,2|0
272,328,5119,2,0,B|184:304|109:329,1,160,0|0
88,344,5410,5,2
32,216,5642,1,8
176,160,5875,1,0
168,232,5991,1,0
224,280,6107,1,8
280,232,6224,2,0,B|336:232|360:176,2,80
272,160,6572,1,8
320,104,6689,2,0,B|259:46|168:80,1,160,2|0
88,200,7154,5,0
112,224,7270,2,0,B|344:128,1,240,6|0
360,160,7735,2,0,B|138:251,1,240,2|0
160,272,8200,1,2
288,336,8433,1,2
432,304,8665,2,2,B|476:229,2,53.3333333333333
408,256,8898,2,2,B|380:304,2,53.3333333333333
360,264,9131,5,4
224,312,9363,1,8
208,168,9596,1,0
344,112,9828,1,8
272,232,10061,2,0,B|232:248|176:240,1,80
48,152,10293,2,0,B|88:136|144:144,1,80,8|0
104,232,10526,1,0
104,232,10759,1,8
136,88,10991,6,0,B|192:48|256:64,1,120
344,160,11340,1,0
272,136,11456,2,0,B|264:232|360:280,1,160,0|8
440,160,11921,1,0
408,96,12038,2,0,B|416:56|464:24,2,80,0|8|0
336,80,12386,2,0,B|199:72,1,120,0|2
144,128,12619,2,0,B|277:136,1,120,10|2
272,192,12852,5,0
272,192,13084,2,0,B|200:200|184:272,1,106.666666666667,8|0
200,296,13317,2,0,B|264:368|368:312,1,160,0|8
432,216,13782,2,0,B|472:136,1,80
352,40,14014,2,0,B|312:120,1,80,8|0
392,128,14247,1,0
392,128,14479,1,8
248,96,14712,6,0,B|208:72|152:80,2,80,2|0|10
272,168,15061,2,0,B|312:192|368:184,2,80,0|2|0
208,208,15410,2,0,B|224:272|160:312,1,106.666666666667,10|0
128,320,15642,1,2
96,184,15875,2,0,B|72:88,2,80,10|0|0
200,40,16340,2,0,B|216:88|272:96,1,80,10|0
328,112,16572,6,0,B|408:104|464:168|432:224,1,160,4|8
376,232,16921,1,0
312,192,17038,2,0,B|248:224|248:288|272:344,2,160,0|8|0
288,120,17619,1,0
216,136,17735,2,0,B|169:143|133:100,1,80,8|0
88,64,17968,1,0
88,64,18200,1,8
64,208,18433,6,0,B|77:295|172:309,1,160,0|8
232,248,18782,1,0
288,304,18898,2,0,B|349:269|336:200|282:173,1,160,0|8
184,56,19363,2,0,B|144:128,2,80,0|0|8
256,16,19712,2,0,B|358:28|360:136,1,160,0|2
400,136,20061,2,0,B|406:201|346:223,1,106.666666666667,8|2
320,232,20293,5,0
176,296,20526,1,8
240,152,20759,1,0
88,208,20991,1,8
176,72,21224,2,0,B|136:112|176:176,1,80
312,224,21456,2,0,B|352:184|312:120,1,80,8|0
280,56,21689,1,0
280,56,21921,1,8
224,208,22154,6,0,B|216:264|280:296,2,80,2|0|10
232,128,22503,2,0,B|200:88|152:88,1,80,0|2
327,92,22852,1,10
400,136,22968,1,0
472,176,23084,2,0,B|496:272|440:352,1,160,2|8
40,208,23549,2,0,B|16:112|72:32,1,160,2|8
256,32,24014,6,0,B|256:208,1,160,4|2
256,344,25410,2,0,B|256:272,5,53.3333333333333
256,256,25875,5,4
112,328,26107,1,8
56,176,26340,1,0
152,48,26572,1,8
256,168,26805,1,0
360,48,27038,1,8
456,176,27270,1,0
400,328,27503,1,8
240,328,27735,6,0,B|152:312|112:216,1,160,0|8
272,56,28200,2,0,B|360:72|400:168,1,160,0|8
408,312,28665,2,0,B|272:208,1,160,0|8
152,120,29131,1,0
32,232,29363,2,0,B|64:264|112:264,1,80,8|8
144,328,29596,6,0,B|232:368|296:304,1,160,0|8
368,56,30061,2,0,B|280:16|216:80,1,160,0|8
360,152,30526,2,0,B|396:229|328:298,1,160,0|8
272,216,30875,2,0,B|256:128|161:116,1,160,0|0
88,144,31224,1,8
200,256,31456,6,0,B|136:272|144:304|144:304|152:336|80:352,2,160,2|0|0
256,104,32154,1,0
312,256,32386,2,0,B|376:272|368:304|368:304|360:336|432:352,2,160,2|0|0
328,152,33026,1,0
328,152,33084,2,0,B|288:200|218:200|180:142,1,160,2|0
256,192,33375,8,4,34712
392,304,35177,6,0,B|448:232|416:144,1,160,4|8
304,48,35642,1,0
152,88,35875,2,0,B|96:160|128:248,1,160,8|0
264,312,36340,1,8
312,248,36456,2,0,B|320:192|288:152,1,80
184,280,36805,2,0,B|160:320|112:312,1,80,8|0
40,296,37038,6,0,B|96:128,1,160,0|8
232,216,37503,2,0,B|288:48,2,160,0|8|0
392,232,38200,1,8
344,168,38317,2,0,B|360:128|408:128,1,80
472,80,38549,1,0
472,160,38665,2,0,B|498:193|474:235,1,80,8|0
448,312,38898,6,0,B|256:312,1,160,0|8
152,224,39363,2,0,B|344:224,1,160,0|8
224,88,39828,1,0
368,160,40061,1,8
424,216,40177,2,0,B|416:320|304:320,1,160,0|10
272,168,40642,1,10
200,128,40758,6,0,B|128:88,1,80,2|0
352,200,40991,2,0,B|424:240,1,80,2|0
312,104,41224,2,0,B|352:88|392:88,1,80,2|0
232,232,41456,2,0,B|192:248|152:248,1,80,2|0
112,184,41689,1,2
112,184,41805,1,0
48,232,41921,1,2
48,232,42038,1,0
88,296,42154,6,0,B|48:352,8,40,0|0|0|0|0|0|0|0|4
256,336,42852,1,8
216,192,43084,1,0
384,240,43317,1,8
312,96,43549,2,0,B|352:184|272:264,1,160,0|8
208,240,43898,1,2
144,288,44014,2,0,B|152:336|208:352,1,80,0|2
160,176,44247,2,0,B|152:128|96:112,1,80,10|0
88,224,44479,6,0,B|32:232|0:296|48:352,2,160,0|8|0
240,168,45177,1,8
336,296,45410,2,0,B|400:280|424:208|384:144,1,160,0|8
336,120,45758,2,0,B|328:72|368:48,2,80,2|0|2
312,200,46107,2,0,B|296:248|240:256,1,80,8|2
176,232,46340,5,0
80,104,46572,1,8
216,24,46805,1,0
312,152,47038,1,8
304,312,47270,2,0,B|408:328|440:224,1,160,0|8
432,160,47619,1,2
432,160,47852,6,0,B|328:144|296:248,1,160,2|0
240,280,48200,2,0,B|208:312|160:304,1,80,2|0
88,280,48433,2,0,B|44:268|27:222,1,80,10|0
8,152,48665,2,0,B|-3:108|27:70,1,80,2|0
96,112,48898,2,0,B|128:144|175:136,1,80,10|0
248,120,49131,2,0,B|291:108|308:62,1,80,2|0
336,0,49363,1,10
408,32,49479,2,0,B|488:88|448:192,1,160,2|0
440,192,49770,2,0,B|408:224,5,40,0|0|0|0|0|4
296,328,50293,6,0,B|232:304|216:240|232:192,1,160,8|0
384,144,50758,1,8
232,88,50991,2,0,B|190:73|126:89|102:153,1,160,0|8
56,304,51456,2,0,B|88:328|144:320,1,80,8|0
232,248,51689,2,0,B|200:224|144:232,1,80,8|0
240,336,51921,6,0,B|336:344|400:280,1,160,4|8
280,176,52386,1,0
432,224,52619,1,8
376,72,52852,2,0,B|320:8|224:32,1,160,0|8
152,64,53200,1,0
112,136,53317,2,0,B|128:184|88:216,2,80,8|0|8
72,64,53665,1,0
24,128,53782,6,0,B|-24:216|56:288,1,160,4|8
488,256,54247,2,0,B|536:168|456:96,1,160,0|8
176,352,54712,6,0,B|256:392|344:344,1,160,4|8
256,32,55177,2,0,L|248:64|264:80|256:112,2,80,2|0|10
424,104,55642,6,0,B|496:176|456:280,1,160,6|8
88,280,56107,2,0,B|16:208|56:104,1,160,6|8
344,328,56572,6,0,B|272:400|168:360,1,160,6|8
168,56,57038,2,0,B|240:-16|344:24,1,160,6|8
256,160,57503,5,4
136,264,57735,1,8
192,112,57968,1,0
72,216,58200,1,8
232,232,58433,2,0,B|328:264|363:175,1,160,0|10
344,104,58782,1,0
344,104,58898,1,2
288,48,59014,2,0,B|240:48,6,40,0|0|8|0|0|0|4
160,144,59596,5,8
320,176,59828,1,0
368,24,60061,1,8
248,128,60293,1,0
112,208,60526,2,0,B|144:248|200:232,1,80,10|0
232,328,60758,2,0,B|272:296|256:240,1,80,2|0
384,224,60991,2,0,B|352:184|296:200,1,80,10|0
240,176,61224,6,0,B|147:125|196:15,2,160,0|8|0
240,176,61921,1,8
376,96,62154,2,0,B|432:160|400:248,1,160,0|8
336,296,62503,2,0,B|232:320|168:248,1,160,0|2
144,192,62852,6,0,B|136:144|160:112,1,80,8|0
248,56,63084,2,0,B|256:104|232:136,2,80,2|0|10
232,216,63433,2,0,B|295:231|339:180,2,120,4|2|10
184,280,63898,2,0,B|168:320|120:328,1,80,0|2
24,304,64131,2,0,B|40:264|88:256,1,80,0|10
152,208,64363,1,0
104,144,64479,2,0,B|80:104,8,40,0|0|0|0|0|0|0|0|4
176,0,65177,5,8
336,0,65410,1,0
408,144,65642,1,8
256,96,65875,2,0,B|256:280,1,160,0|10
192,304,66224,2,0,B|176:344|120:352,1,80,0|2
104,184,66456,2,0,B|146:177|181:222,1,80,0|10
48,312,66689,2,0,B|15:283|27:227,1,80,0|2
64,80,67038,5,8
208,152,67270,1,0
360,112,67503,1,8
208,152,67735,2,0,B|160:240|240:296,1,160,0|10
304,336,68084,2,0,B|392:336,1,80,0|2
440,248,68317,2,0,B|352:248,2,80,0|10|0
464,168,68665,6,0,B|472:72|368:48,1,160,0|8
133,50,69131,2,0,B|40:72|48:168,1,160,0|8
176,264,69596,2,0,B|256:312|344:256,1,160,0|8
400,224,69945,1,10
112,224,70177,1,10
224,112,70410,1,10
288,72,70526,6,0,B|328:88|360:120,1,80,2|0
224,112,70758,2,0,B|184:128|152:160,1,80,10|0
312,152,70991,2,0,B|352:168|384:200,1,80,2|0
192,192,71224,2,0,B|152:208|120:240,1,80,10|0
184,288,71456,2,0,B|208:328|264:336,1,80,2|0
376,320,71689,2,0,B|352:280|296:272,1,80,10|0
256,216,71921,2,0,B|256:168,8,40,0|0|0|0|0|0|0|0|4
128,120,72619,5,8
128,120,72852,1,0
128,120,73084,1,8
112,280,73317,2,0,B|184:336|272:288,1,160,0|8
320,144,73782,2,0,B|368:152|376:208,1,80,8|0
344,272,74014,1,8
424,296,74131,2,0,B|472:288|480:232,1,80
440,88,74479,5,8
440,88,74712,1,0
440,88,74945,1,8
296,24,75177,2,0,B|208:16|152:104,1,160,0|8
160,176,75526,2,0,B|144:216|88:216,2,80,0|8|0
232,208,75875,2,0,B|320:248,1,80,8|0
376,272,76107,6,0,B|472:248|472:136,1,160,4|8
136,112,76572,2,0,B|40:136|40:248,1,160,0|8
256,344,77038,2,0,B|256:176,1,160,0|8
256,24,77503,1,2
256,24,77619,1,2
256,24,77735,1,8
256,24,77968,6,2,B|224:88|296:112|240:208,1,160,2|0
200,240,79131,1,0
120,256,79363,1,0
40,144,79828,2,0,B|48:48|144:24,1,160
216,24,80991,2,0,B|248:24,12,20,0|0|0|0|0|0|0|0|0|0|0|0|4
136,160,81921,5,8
296,176,82154,2,0,B|328:224|296:272,2,80,0|0|8
232,224,82503,2,0,B|200:176|232:128,2,80
240,304,82852,1,8
320,320,82968,2,0,B|416:328|448:240,1,160,0|2
352,112,83433,5,2
352,112,83782,1,8
192,80,84014,2,0,B|152:108|124:147,1,80
120,272,84247,2,0,B|159:243|187:204,1,80,8|0
328,184,84479,2,0,B|288:212|260:251,1,80
240,152,84712,1,8
240,152,84828,2,0,B|360:32,2,160,0|2|6
160,136,85410,6,0,B|109:192|110:276|172:340|248:336,1,280,2|4
263,335,85875,2,0,B|340:340|402:276|403:192|352:136,1,280,2|4
353,138,86340,1,2
160,136,86572,1,2
256,8,86805,1,0
256,32,86883,1,2
256,56,86960,1,0
256,80,87038,1,2
256,104,87115,1,0
256,128,87193,1,2
256,152,87270,1,0
256,352,87735,5,6
