osu file format v13

[General]
AudioFilename: aldnoahzero2op.mp3
AudioLeadIn: 0
PreviewTime: 63554
Countdown: 0
SampleSet: Soft
StackLeniency: 0.7
Mode: 0
LetterboxInBreaks: 0
WidescreenStoryboard: 0

[Editor]
DistanceSpacing: 1
BeatDivisor: 2
GridSize: 32
TimelineZoom: 0.8999999

[Metadata]
Title:&Z (TV size)
TitleUnicode:&Z(TV size)
Artist:SawanoHiroyuki[nZk]:mizuki
ArtistUnicode:SawanoHiroyuki[nZk]:mizuki
Creator:ZZHBOY
Version:Normal
Source:Aldnoah.Zero
Tags:season 2 opening s2 op アルドノア・ゼロ rakuen
BeatmapID:606555
BeatmapSetID:261145

[Difficulty]
HPDrainRate:4
CircleSize:3
OverallDifficulty:4
ApproachRate:4.5
SliderMultiplier:0.999999999999999
SliderTickRate:1

[Events]
//Background and Video events
0,0,"bg.png",0,0
Video,0,"video.avi"
//Break Periods
//Storyboard Layer 0 (Background)
//Storyboard Layer 1 (Fail)
//Storyboard Layer 2 (Pass)
//Storyboard Layer 3 (Foreground)
//Storyboard Sound Samples

[TimingPoints]
3554,379.746835443038,4,2,1,40,1,0
64313,-100,4,2,1,60,0,1
88237,-100,4,2,1,60,0,0

[Colours]
Combo1 : 201,201,201
Combo2 : 64,255,64
Combo3 : 94,166,255
Combo4 : 250,232,103

[HitObjects]
441,101,3554,6,0,L|433:37,2,50,14|8|0,0:0|0:0|0:0,0:0:0:0:
395,189,4313,2,0,P|347:213|291:213,1,99.9999999999999,8|2,0:0|0:0,0:0:0:0:
256,192,4883,1,8,0:0:0:0:
210,168,5072,2,0,P|161:172|117:195,1,99.9999999999999,0|10,0:0|0:0,0:0:0:0:
71,283,5832,2,0,L|79:347,2,50,10|0|0,0:0|0:0|0:0,0:0:0:0:
16,199,6591,6,0,P|3:151|14:102,1,99.9999999999999,14|0,0:0|0:0,0:0:0:0:
48,66,7161,1,2,0:0:0:0:
96,53,7351,2,0,P|145:52|192:26,1,99.9999999999999,8|2,0:0|0:0,0:0:0:0:
285,55,8110,1,0,0:0:0:0:
381,29,8490,1,10,0:0:0:0:
475,70,8870,2,0,P|483:119|476:168,1,99.9999999999999,10|0,0:0|0:0,0:0:0:0:
401,234,9629,6,0,L|403:292,2,50,14|8|0,0:0|0:0|0:0,0:0:0:0:
384,134,10389,2,0,P|318:139|261:174,1,99.9999999999999,8|2,0:0|0:0,0:0:0:0:
256,192,10959,1,8,0:0:0:0:
224,231,11148,2,0,P|177:249|128:250,1,99.9999999999999,0|10,0:0|0:0,0:0:0:0:
29,267,11908,2,0,L|15:320,2,50,10|0|0,0:0|0:0|0:0,0:0:0:0:
69,175,12667,5,10,0:0:0:0:
54,76,13047,2,0,L|125:72,1,50,0|2,0:0|0:0,0:0:0:0:
143,105,13427,2,0,P|191:121|240:114,1,99.9999999999999,8|2,0:0|0:0,0:0:0:0:
278,81,13997,1,10,0:0:0:0:
311,43,14186,2,0,P|360:36|407:51,1,99.9999999999999,0|10,0:0|0:0,0:0:0:0:
461,136,14946,2,0,L|446:202,1,50,8|2,0:0|0:0,0:0:0:0:
406,209,15326,2,0,L|421:272,1,50,2|2,0:0|0:0,0:0:0:0:
419,307,15705,5,6,0:0:0:0:
321,330,16085,1,0,0:0:0:0:
240,271,16465,2,0,L|225:215,2,50,8|0|0,0:0|0:0|0:0,0:0:0:0:
163,335,17224,1,2,0:0:0:0:
77,283,17604,1,0,0:0:0:0:
97,184,17984,2,0,P|93:126|70:91,1,99.9999999999999,8|0,0:0|0:0,0:0:0:0:
1,163,18743,5,2,0:0:0:0:
97,184,19123,1,0,0:0:0:0:
196,176,19503,2,0,L|206:245,2,50,8|0|0,0:0|0:0|0:0,0:0:0:0:
252,93,20262,2,0,P|294:140|292:205,1,99.9999999999999,2|0,0:0|0:0,0:0:0:0:
398,163,21022,2,0,P|409:210|445:244,1,99.9999999999999,8|0,0:0|0:0,0:0:0:0:
418,339,21781,5,2,0:0:0:0:
343,272,22161,1,0,0:0:0:0:
251,312,22541,2,0,L|226:360,2,50,8|0|0,0:0|0:0|0:0,0:0:0:0:
262,210,23300,2,0,P|250:153|203:100,1,99.9999999999999,2|0,0:0|0:0,0:0:0:0:
155,48,24060,1,8,0:0:0:0:
125,143,24440,1,0,0:0:0:0:
58,67,24819,6,0,P|25:110|26:160,1,99.9999999999999,2|0,0:0|0:0,0:0:0:0:
81,237,25579,2,0,L|80:302,2,50,8|0|0,0:0|0:0|0:0,0:0:0:0:
180,231,26338,2,0,P|242:251|304:228,1,99.9999999999999,2|0,0:0|0:0,0:0:0:0:
240,150,27098,1,8,0:0:0:0:
67,49,27857,6,0,P|62:117|77:155,1,99.9999999999999,6|0,0:0|0:0,0:0:0:0:
154,203,28617,2,0,L|153:263,2,50,8|0|0,0:0|0:0|0:0,0:0:0:0:
240,150,29376,2,0,P|300:143|357:158,1,99.9999999999999,2|0,0:0|0:0,0:0:0:0:
349,250,30136,2,0,P|398:258|447:250,1,99.9999999999999,8|0,0:0|0:0,0:0:0:0:
466,204,30705,1,0,0:0:0:0:
477,155,30895,6,0,P|478:98|460:41,1,99.9999999999999,2|0,0:0|0:0,0:0:0:0:
366,56,31655,2,0,L|359:7,2,50,8|0|0,0:0|0:0|0:0,0:0:0:0:
292,123,32414,2,0,P|236:133|194:120,1,99.9999999999999,2|0,0:0|0:0,0:0:0:0:
175,74,32984,1,0,0:0:0:0:
158,26,33174,2,0,P|110:13|61:23,1,99.9999999999999,8|0,0:0|0:0,0:0:0:0:
106,112,33933,5,2,0:0:0:0:
61,201,34313,1,0,0:0:0:0:
122,279,34693,2,0,L|117:335,2,50,8|0|0,0:0|0:0|0:0,0:0:0:0:
165,188,35452,1,2,0:0:0:0:
221,266,35832,1,0,0:0:0:0:
256,172,36212,2,0,P|315:165|359:175,1,99.9999999999999,8|0,0:0|0:0,0:0:0:0:
407,88,36971,6,0,P|456:96|505:89,2,99.9999999999999,2|0|8,0:0|0:0|0:0,0:0:0:0:
362,65,37921,1,0,0:0:0:0:
316,44,38110,2,0,P|266:37|216:42,1,99.9999999999999,0|2,0:0|0:0,0:0:0:0:
148,115,38870,1,0,0:0:0:0:
53,81,39250,1,8,0:0:0:0:
129,16,39629,1,0,0:0:0:0:
148,115,40009,6,0,P|139:184|143:214,1,99.9999999999999,6|2,0:0|0:0,0:0:0:0:
240,238,40769,1,2,0:0:0:0:
321,295,41148,1,2,0:0:0:0:
331,195,41528,1,2,0:0:0:0:
419,148,41908,2,0,P|429:207|412:253,2,99.9999999999999,2|0|0,0:0|0:0|0:0,0:0:0:0:
504,98,43047,6,0,P|464:60|402:49,1,99.9999999999999,2|2,0:0|0:0,0:0:0:0:
331,93,43807,2,0,P|282:101|224:95,1,99.9999999999999,2|2,0:0|0:0,0:0:0:0:
146,48,44566,2,0,P|96:44|47:53,1,99.9999999999999,2|2,0:0|0:0,0:0:0:0:
15,148,45326,1,2,0:0:0:0:
64,234,45705,2,0,L|136:224,1,50,2|0,0:0|0:0,0:0:0:0:
160,224,46085,6,0,P|209:226|256:209,1,99.9999999999999,2|2,0:0|0:0,0:0:0:0:
282,166,46655,2,0,L|354:156,1,50,2|2,0:0|0:0,0:0:0:0:
366,65,47224,2,0,L|438:55,1,50,2|0,0:0|0:0,0:0:0:0:
463,37,47604,2,0,P|488:81|499:129,1,99.9999999999999,2|2,0:0|0:0,0:0:0:0:
465,166,48174,2,0,L|452:214,1,50,0|2,0:0|0:0,0:0:0:0:
496,304,48743,1,2,0:0:0:0:
392,304,49123,6,0,P|328:320|264:312,1,99.9999999999999,2|2,0:0|0:0,0:0:0:0:
256,288,49693,1,0,0:0:0:0:
218,254,49883,2,0,P|168:254|120:268,1,99.9999999999999,2|2,0:0|0:0,0:0:0:0:
22,249,50642,2,0,L|0:305,2,50,2|0|2,0:0|0:0|0:0,0:0:0:0:
84,170,51402,2,0,L|97:115,1,50,2|0,0:0|0:0,0:0:0:0:
97,71,51781,2,0,L|131:22,1,50,2|0,0:0|0:0,0:0:0:0:
175,25,52161,5,2,0:0:0:0:
233,106,52541,1,2,0:0:0:0:
273,14,52921,2,0,P|317:29|379:31,1,99.9999999999999,10|2,0:0|0:0,0:0:0:0:
450,91,53680,2,0,L|472:218,2,99.9999999999999,2|2|10,0:0|0:0|0:0,0:0:0:0:
354,120,54819,1,2,0:0:0:0:
312,210,55199,5,2,0:0:0:0:
348,303,55579,1,2,0:0:0:0:
249,287,55959,2,0,P|172:295|116:268,1,99.9999999999999,10|2,0:0|0:0,0:0:0:0:
89,210,56718,1,2,0:0:0:0:
47,119,57098,1,2,0:0:0:0:
146,124,57478,1,10,0:0:0:0:
103,33,57857,1,2,0:0:0:0:
202,42,58237,6,0,P|235:78|241:142,1,99.9999999999999,2|2,0:0|0:0,0:0:0:0:
238,226,58997,2,0,L|221:280,2,50,10|0|2,0:0|0:0|0:0,0:0:0:0:
330,181,59756,2,0,P|378:191|417:222,1,99.9999999999999,2|2,0:0|0:0,0:0:0:0:
443,319,60516,2,0,L|455:367,2,50,10|0|2,0:0|0:0|0:0,0:0:0:0:
343,306,61275,6,0,L|355:354,2,50,2|0|2,0:0|0:0|0:0,0:0:0:0:
250,267,62035,2,0,L|169:262,1,50,10|0,0:0|0:0,0:0:0:0:
154,243,62414,2,0,L|94:248,1,50,2|8,0:0|0:0,0:0:0:0:
225,27,63554,5,8,0:0:0:0:
324,33,63933,2,0,L|382:45,1,50
418,65,64313,6,0,P|425:137|415:202,1,100,14|0,0:0|0:0,0:0:0:0:
400,209,64883,2,0,P|398:260|404:308,1,100,10|0,0:0|0:0,0:0:0:0:
388,356,65452,1,10,0:0:0:0:
293,321,65832,2,0,L|291:255,2,50,10|0|0,0:0|0:0|0:0,0:0:0:0:
258,357,66402,2,0,P|209:367|160:357,1,100,0|10,0:0|0:0,0:0:0:0:
135,313,66971,2,0,L|60:280,1,50
55,250,67351,6,0,L|65:128,1,100,10|0,0:0|0:0,0:0:0:0:
108,125,67921,2,0,P|166:112|243:126,1,100,10|0,0:0|0:0,0:0:0:0:
241,152,68490,1,10,0:0:0:0:
330,195,68870,2,0,P|391:205|461:187,1,100,2|0,0:0|0:0,0:0:0:0:
477,112,69629,2,0,L|512:76,2,50,8|0|10,0:0|0:0|0:0,0:0:0:0:
377,101,70389,6,0,L|280:45,1,100,14|0,0:0|0:0,0:0:0:0:
241,40,70959,1,10,0:0:0:0:
191,36,71148,2,0,P|141:41|94:57,1,100,0|10,0:0|0:0,0:0:0:0:
87,157,71908,2,0,P|137:151|184:135,1,100,10|0,0:0|0:0,0:0:0:0:
233,147,72478,1,10,0:0:0:0:
277,168,72667,2,0,P|303:222|299:278,1,100,0|10,0:0|0:0,0:0:0:0:
262,290,73237,1,0,0:0:0:0:
213,300,73427,6,0,L|205:357,2,50,10|0|0,0:0|0:0|0:0,0:0:0:0:
118,267,74186,2,0,L|126:324,2,50,2|0|10,0:0|0:0|0:0,0:0:0:0:
123,166,74946,2,0,L|53:153,2,50,2|10|0,0:0|0:0|0:0,0:0:0:0:
178,82,75705,2,0,L|141:26,2,50,10|8|10,0:0|0:0|0:0,0:0:0:0:
223,171,76465,6,0,P|280:188|346:178,1,100,6|8,0:0|0:0,0:0:0:0:
419,171,77224,1,0,0:0:0:0:
443,267,77604,1,10,0:0:0:0:
370,335,77984,2,0,P|310:348|244:337,1,100,0|8,0:0|0:0,0:0:0:0:
172,331,78743,2,0,L|131:366,2,50,0|0|10,0:0|0:0|0:0,0:0:0:0:
234,252,79503,6,0,P|229:202|208:157,1,100,2|8,0:0|0:0,0:0:0:0:
127,98,80262,2,0,L|70:100,2,50,0|0|10,0:0|0:0|0:0,0:0:0:0:
216,51,81022,2,0,L|334:59,1,100,0|8,0:0|0:0,0:0:0:0:
350,93,81591,1,2,0:0:0:0:
386,127,81781,2,0,L|504:135,1,100,0|10,0:0|0:0,0:0:0:0:
469,232,82541,5,6,0:0:0:0:
436,326,82921,1,8,0:0:0:0:
376,246,83300,2,0,L|259:242,1,100,0|10,0:0|0:0,0:0:0:0:
208,168,84060,1,2,0:0:0:0:
175,262,84440,1,8,0:0:0:0:
115,182,84819,2,0,L|89:86,1,100,0|10,0:0|0:0,0:0:0:0:
125,51,85389,1,8,0:0:0:0:
166,23,85579,6,0,P|225:23|271:51,1,100,2|8,0:0|0:0,0:0:0:0:
290,137,86338,2,0,L|273:197,2,50,0|0|10,0:0|0:0|0:0,0:0:0:0:
386,110,87098,2,0,L|399:61,2,50,2|0|8,0:0|0:0|0:0,0:0:0:0:
432,198,87857,2,0,L|397:297,1,100,8|14,0:0|0:0,0:0:0:0:
