osu file format v13

[General]
AudioFilename: aldnoahzero2op.mp3
AudioLeadIn: 0
PreviewTime: 63554
Countdown: 0
SampleSet: Soft
StackLeniency: 0.7
Mode: 0
LetterboxInBreaks: 0
WidescreenStoryboard: 0

[Editor]
DistanceSpacing: 1.4
BeatDivisor: 4
GridSize: 4
TimelineZoom: 1.9

[Metadata]
Title:&Z (TV size)
TitleUnicode:&Z(TV size)
Artist:SawanoHiroyuki[nZk]:mizuki
ArtistUnicode:SawanoHiroyuki[nZk]:mizuki
Creator:ZZHBOY
Version:Hard
Source:Aldnoah.Zero
Tags:season 2 opening s2 op アルドノア・ゼロ rakuen
BeatmapID:606553
BeatmapSetID:261145

[Difficulty]
HPDrainRate:5
CircleSize:4
OverallDifficulty:5
ApproachRate:6.5
SliderMultiplier:1.2
SliderTickRate:1

[Events]
//Background and Video events
0,0,"bg.png",0,0
Video,0,"video.avi"
//Break Periods
//Storyboard Layer 0 (Background)
//Storyboard Layer 1 (Fail)
//Storyboard Layer 2 (Pass)
//Storyboard Layer 3 (Foreground)
//Storyboard Sound Samples

[TimingPoints]
3554,379.746835443038,4,2,1,40,1,0
27098,-133.333333333333,4,2,1,40,0,0
27857,-100,4,2,1,40,0,0
64313,-100,4,2,1,60,0,1
88237,-100,4,2,1,60,0,0

[Colours]
Combo1 : 201,201,201
Combo2 : 64,255,64
Combo3 : 94,166,255
Combo4 : 250,232,103

[HitObjects]
63,183,3554,6,0,P|110:201|182:180,1,120,14|0,0:0|0:0,0:0:0:0:
233,123,4123,1,2,0:0:0:0:
293,59,4313,2,0,P|323:55|353:57,1,60,8|8,0:0|0:0,0:0:0:0:
374,137,4693,2,0,P|344:141|314:139,1,60,2|8,0:0|0:0,0:0:0:0:
434,70,5072,2,0,P|463:126|451:184,1,120,0|10,0:0|0:0,0:0:0:0:
378,223,5642,1,0,0:0:0:0:
451,263,5832,2,0,P|459:308|450:345,1,60,10|0,0:0|0:0,0:0:0:0:
374,304,6212,1,0,0:0:0:0:
265,385,6591,6,0,P|247:338|268:266,1,120,14|0,0:0|0:0,0:0:0:0:
344,249,7161,1,2,0:0:0:0:
406,193,7351,2,0,P|411:164|409:134,1,60,8|8,0:0|0:0,0:0:0:0:
330,108,7731,2,0,P|325:137|327:167,1,60,2|8,0:0|0:0,0:0:0:0:
394,49,8110,2,0,P|343:21|286:35,1,120,0|10,0:0|0:0,0:0:0:0:
244,104,8680,1,0,0:0:0:0:
204,34,8870,2,0,P|159:23|122:32,1,60,10|0,0:0|0:0,0:0:0:0:
80,89,9250,1,0,0:0:0:0:
163,108,9440,1,0,0:0:0:0:
105,168,9629,6,0,P|96:226|102:300,1,120,14|0,0:0|0:0,0:0:0:0:
149,358,10199,1,2,0:0:0:0:
230,335,10389,2,0,L|307:338,1,60,8|0,0:0|0:0,0:0:0:0:
339,255,10769,2,0,L|280:253,1,60,2|8,0:0|0:0,0:0:0:0:
376,330,11148,2,0,P|418:290|423:231,1,120,0|10,0:0|0:0,0:0:0:0:
369,166,11718,1,0,0:0:0:0:
297,122,11908,2,0,L|281:52,1,60,10|0,0:0|0:0,0:0:0:0:
199,51,12288,1,0,0:0:0:0:
365,28,12667,5,10,0:0:0:0:
447,43,12857,1,8,0:0:0:0:
449,131,13047,2,0,L|477:209,1,60,0|2,0:0|0:0,0:0:0:0:
459,271,13427,2,0,P|417:311|350:324,1,120,8|2,0:0|0:0,0:0:0:0:
280,294,13997,1,10,0:0:0:0:
199,270,14186,2,0,L|139:279,1,60,0|0,0:0|0:0,0:0:0:0:
66,236,14566,1,10,0:0:0:0:
54,152,14756,1,0,0:0:0:0:
42,68,14946,2,0,L|34:3,2,60,8|2|2,0:0|0:0|0:0,0:0:0:0:
42,68,15705,5,6,0:0:0:0:
198,128,16085,1,0,0:0:0:0:
352,62,16465,2,0,L|438:68,2,60,8|0|0,0:0|0:0|0:0,0:0:0:0:
185,38,17224,1,2,0:0:0:0:
145,201,17604,1,0,0:0:0:0:
307,158,17984,1,8,0:0:0:0:
185,38,18364,1,0,0:0:0:0:
60,156,18743,6,0,P|53:218|81:274,1,120,2|0,0:0|0:0,0:0:0:0:
241,236,19503,2,0,L|290:283,1,60,8|0,0:0|0:0,0:0:0:0:
310,357,19883,1,0,0:0:0:0:
447,260,20262,2,0,P|466:183|429:131,1,120,2|0,0:0|0:0,0:0:0:0:
321,40,21022,1,8,0:0:0:0:
371,201,21402,1,0,0:0:0:0:
478,72,21781,5,2,0:0:0:0:
478,72,22161,1,0,0:0:0:0:
321,40,22541,2,0,L|256:60,1,60,8|0,0:0|0:0,0:0:0:0:
179,65,22921,1,0,0:0:0:0:
39,158,23300,2,0,P|74:205|152:228,1,120,2|0,0:0|0:0,0:0:0:0:
294,187,24060,2,0,L|377:178,1,60,8|0,0:0|0:0,0:0:0:0:
399,256,24440,2,0,L|482:261,1,60,0|0,0:0|0:0,0:0:0:0:
318,291,24819,6,0,P|260:289|212:250,1,120,2|0,0:0|0:0,0:0:0:0:
180,88,25579,2,0,L|116:128,1,60,8|0,0:0|0:0,0:0:0:0:
142,204,25959,1,0,0:0:0:0:
106,40,26338,1,2,0:0:0:0:
268,84,26718,1,0,0:0:0:0:
142,204,27098,6,0,L|130:313,1,90.0000034332277,8|0,0:0|0:0,0:0:0:0:
88,131,27857,6,0,P|149:115|209:144,1,120,6|0,0:0|0:0,0:0:0:0:
250,203,28427,1,0,0:0:0:0:
330,178,28617,1,8,0:0:0:0:
328,92,28807,1,0,0:0:0:0:
248,67,28997,1,0,0:0:0:0:
248,67,29376,2,0,L|158:70,1,60,2|0,0:0|0:0,0:0:0:0:
328,92,29756,2,0,L|387:90,1,60,0|0,0:0|0:0,0:0:0:0:
448,152,30136,2,0,P|467:218|435:299,1,120,8|0,0:0|0:0,0:0:0:0:
381,306,30705,1,0,0:0:0:0:
297,298,30895,6,0,L|223:320,1,60,2|0,0:0|0:0,0:0:0:0:
109,288,31275,2,0,L|167:271,1,60,0|0,0:0|0:0,0:0:0:0:
188,189,31655,1,8,0:0:0:0:
113,150,31845,1,0,0:0:0:0:
59,215,32035,1,0,0:0:0:0:
59,215,32414,1,2,0:0:0:0:
118,57,32794,1,0,0:0:0:0:
188,189,33174,2,0,L|270:177,1,60,8|0,0:0|0:0,0:0:0:0:
326,210,33554,2,0,L|414:196,1,60,0|0,0:0|0:0,0:0:0:0:
464,227,33933,5,2,0:0:0:0:
453,59,34313,1,0,0:0:0:0:
290,101,34693,2,0,L|227:99,1,60,8|0,0:0|0:0,0:0:0:0:
146,107,35072,1,0,0:0:0:0:
17,215,35452,2,0,L|76:216,1,60,2|0,0:0|0:0,0:0:0:0:
141,271,35832,2,0,L|200:272,1,60,0|0,0:0|0:0,0:0:0:0:
264,217,36212,1,8,0:0:0:0:
348,219,36402,1,0,0:0:0:0:
393,289,36591,1,0,0:0:0:0:
477,291,36781,1,0,0:0:0:0:
437,216,36971,6,0,L|450:94,1,120,2|0,0:0|0:0,0:0:0:0:
296,26,37731,2,0,L|288:88,1,60,8|0,0:0|0:0,0:0:0:0:
224,140,38110,1,0,0:0:0:0:
56,128,38490,2,0,L|64:69,1,60,2|0,0:0|0:0,0:0:0:0:
140,136,38870,2,0,L|132:195,1,60,0|0,0:0|0:0,0:0:0:0:
164,272,39250,2,0,L|194:329,1,60,8|0,0:0|0:0,0:0:0:0:
248,256,39629,2,0,L|281:315,1,60
328,240,40009,6,0,L|452:244,1,120,6|2,0:0|0:0,0:0:0:0:
500,84,40769,2,0,L|380:80,1,120,2|2,0:0|0:0,0:0:0:0:
232,160,41528,2,0,L|351:156,1,120,2|2,0:0|0:0,0:0:0:0:
216,52,42288,2,0,L|96:55,1,120,2|2,0:0|0:0,0:0:0:0:
92,224,43047,5,2,0:0:0:0:
244,296,43427,2,0,L|316:296,1,60,2|0,0:0|0:0,0:0:0:0:
388,296,43807,1,2,0:0:0:0:
456,144,44186,2,0,L|396:144,1,60,2|0,0:0|0:0,0:0:0:0:
312,144,44566,1,2,0:0:0:0:
172,240,44946,1,2,0:0:0:0:
316,324,45326,1,2,0:0:0:0:
460,240,45705,2,0,L|464:176,1,60,2|0,0:0|0:0,0:0:0:0:
485,98,46085,5,2,0:0:0:0:
373,223,46465,2,0,L|269:231,1,60,2|0,0:0|0:0,0:0:0:0:
239,186,46845,1,2,0:0:0:0:
299,29,47224,2,0,L|195:21,1,60,2|0,0:0|0:0,0:0:0:0:
165,64,47604,2,0,L|97:68,1,60,2|0,0:0|0:0,0:0:0:0:
23,47,47984,1,2,0:0:0:0:
24,240,48364,2,0,L|56:308,1,60,2|0,0:0|0:0,0:0:0:0:
116,244,48743,2,0,L|168:296,1,60,2|0,0:0|0:0,0:0:0:0:
200,212,49123,5,2,0:0:0:0:
217,44,49503,1,2,0:0:0:0:
242,124,49693,1,0,0:0:0:0:
306,70,49883,2,0,L|374:70,1,60,2|0,0:0|0:0,0:0:0:0:
448,88,50262,1,2,0:0:0:0:
393,246,50642,2,0,L|473:278,1,60,2|0,0:0|0:0,0:0:0:0:
506,206,51022,1,2,0:0:0:0:
341,169,51402,1,2,0:0:0:0:
263,200,51591,1,0,0:0:0:0:
182,223,51781,2,0,L|90:223,1,60,2|0,0:0|0:0,0:0:0:0:
51,176,52161,5,2,0:0:0:0:
157,306,52541,1,2,0:0:0:0:
163,137,52921,2,0,L|239:117,1,60,10|0,0:0|0:0,0:0:0:0:
283,65,53300,2,0,L|347:73,1,60,2|0,0:0|0:0,0:0:0:0:
411,125,53680,2,0,P|431:65|403:13,2,120,2|2|10,0:0|0:0|0:0,0:0:0:0:
258,195,54819,1,2,0:0:0:0:
96,147,55199,5,2,0:0:0:0:
216,36,55579,2,0,L|292:56,1,60,2|0,0:0|0:0,0:0:0:0:
356,36,55959,2,0,L|376:96,1,60,10|0,0:0|0:0,0:0:0:0:
380,176,56338,1,2,0:0:0:0:
360,256,56528,1,0,0:0:0:0:
340,336,56718,2,0,P|428:308|440:240,2,120,2|2|10,0:0|0:0|0:0,0:0:0:0:
196,248,57857,1,2,0:0:0:0:
112,260,58047,1,0,0:0:0:0:
28,272,58237,6,0,P|5:217|11:158,1,120,2|2,0:0|0:0,0:0:0:0:
60,92,58807,1,0,0:0:0:0:
112,24,58997,2,0,L|231:29,1,120,10|2,0:0|0:0,0:0:0:0:
316,44,59566,1,0,0:0:0:0:
400,60,59756,1,2,0:0:0:0:
372,224,60136,1,2,0:0:0:0:
308,276,60326,1,0,0:0:0:0:
384,308,60516,1,10,0:0:0:0:
296,192,60895,2,0,L|242:218,1,60,2|0,0:0|0:0,0:0:0:0:
160,236,61275,5,2,0:0:0:0:
80,212,61465,1,0,0:0:0:0:
4,176,61655,2,0,L|36:100,1,60,2|0,0:0|0:0,0:0:0:0:
167,100,62035,2,0,L|143:155,1,60,10|0,0:0|0:0,0:0:0:0:
160,236,62414,1,2,0:0:0:0:
179,317,62604,1,8,0:0:0:0:
304,76,63554,5,8,0:0:0:0:
428,92,64123,1,0,0:0:0:0:
428,92,64313,6,0,P|440:168|424:224,1,120,14|0,0:0|0:0,0:0:0:0:
356,252,64883,1,10,0:0:0:0:
276,276,65072,2,0,L|212:288,1,60,0|0,0:0|0:0,0:0:0:0:
108,176,65452,2,0,L|166:164,1,60,10|0,0:0|0:0,0:0:0:0:
146,247,65832,1,10,0:0:0:0:
216,76,66212,1,0,0:0:0:0:
216,76,66402,1,10,0:0:0:0:
296,52,66591,1,0,0:0:0:0:
296,52,66781,1,0,0:0:0:0:
376,30,66971,2,0,L|435:39,1,60,10|8,0:0|0:0,0:0:0:0:
397,114,67351,6,0,L|447:157,1,60,10|0,0:0|0:0,0:0:0:0:
298,240,67921,2,0,L|283:314,1,60,10|0,0:0|0:0,0:0:0:0:
153,194,68490,2,0,L|66:202,1,60,10|0,0:0|0:0,0:0:0:0:
78,116,68870,2,0,L|213:107,1,120,2|0,0:0|0:0,0:0:0:0:
281,119,69440,1,2,0:0:0:0:
363,129,69629,2,0,L|416:101,1,60,8|0,0:0|0:0,0:0:0:0:
383,210,70009,2,0,L|329:237,1,60,10|0,0:0|0:0,0:0:0:0:
277,303,70389,6,0,P|198:304|134:261,1,120,14|0,0:0|0:0,0:0:0:0:
93,237,70959,1,10,0:0:0:0:
33,178,71148,2,0,L|14:111,1,60,0|0,0:0|0:0,0:0:0:0:
96,94,71528,2,0,L|112:151,1,60,10|0,0:0|0:0,0:0:0:0:
172,210,71908,2,0,P|233:210|294:160,1,120,10|0,0:0|0:0,0:0:0:0:
305,97,72478,1,10,0:0:0:0:
360,159,72667,2,0,L|434:188,1,60,0|0,0:0|0:0,0:0:0:0:
397,263,73047,2,0,L|341:241,1,60,10|0,0:0|0:0,0:0:0:0:
256,212,73427,6,0,L|236:274,1,60,10|0,0:0|0:0,0:0:0:0:
147,126,73997,2,0,L|90:165,1,60,10|0,0:0|0:0,0:0:0:0:
256,212,74566,1,10,0:0:0:0:
338,197,74756,1,0,0:0:0:0:
420,179,74946,2,0,L|499:165,1,60,0|10,0:0|0:0,0:0:0:0:
450,88,75326,2,0,L|390:98,1,60,0|0,0:0|0:0,0:0:0:0:
309,77,75705,2,0,L|278:46,2,30,10|0|8,0:0|0:0|0:0,0:0:0:0:
211,60,76085,2,0,L|180:29,2,30,10|0|8,0:0|0:0|0:0,0:0:0:0:
108,46,76465,6,0,P|108:122|131:171,1,120,6|8,0:0|0:0,0:0:0:0:
193,211,77035,1,2,0:0:0:0:
116,244,77224,2,0,L|96:303,1,60,0|0,0:0|0:0,0:0:0:0:
41,192,77604,2,0,L|21:251,2,60,2|8|0,0:0|0:0|0:0,0:0:0:0:
83,28,78364,1,8,0:0:0:0:
236,95,78743,2,0,L|361:78,1,120,0|2,0:0|0:0,0:0:0:0:
435,105,79313,1,8,0:0:0:0:
371,160,79503,6,0,P|378:232|419:294,1,120,2|8,0:0|0:0,0:0:0:0:
481,295,80072,1,2,0:0:0:0:
312,291,80452,2,0,L|228:290,1,60,0|10,0:0|0:0,0:0:0:0:
170,269,80832,1,0,0:0:0:0:
87,245,81022,2,0,P|66:190|75:132,1,120,0|8,0:0|0:0,0:0:0:0:
153,101,81591,1,2,0:0:0:0:
85,50,81781,2,0,L|35:7,2,60,0|0|10,0:0|0:0|0:0,0:0:0:0:
253,58,82541,5,6,0:0:0:0:
417,94,82921,2,0,L|462:133,1,60,8|2,0:0|0:0,0:0:0:0:
499,208,83300,2,0,P|490:266|448:307,1,120,0|2,0:0|0:0,0:0:0:0:
369,278,83870,1,8,0:0:0:0:
290,244,84060,2,0,P|231:237|174:254,1,120,2|8,0:0|0:0,0:0:0:0:
69,123,84819,1,0,0:0:0:0:
137,73,85009,1,0,0:0:0:0:
145,156,85199,2,0,L|223:156,1,60,2|8,0:0|0:0,0:0:0:0:
224,72,85579,6,0,L|344:72,1,120,2|8,0:0|0:0,0:0:0:0:
315,151,86148,2,0,L|435:151,1,120,2|8,0:0|0:0,0:0:0:0:
475,225,86718,1,10,0:0:0:0:
475,225,86908,1,0,0:0:0:0:
475,225,87098,2,0,L|483:284,1,60,2|0,0:0|0:0,0:0:0:0:
398,275,87478,2,0,L|406:334,1,60,8|2,0:0|0:0,0:0:0:0:
322,321,87857,2,0,L|330:380,2,60,8|0|14,0:0|0:0|0:0,0:0:0:0:
