osu file format v13

[General]
AudioFilename: aldnoahzero2op.mp3
AudioLeadIn: 0
PreviewTime: 63554
Countdown: 0
SampleSet: Soft
StackLeniency: 0.4
Mode: 0
LetterboxInBreaks: 0
WidescreenStoryboard: 0

[Editor]
Bookmarks: 5832,81781
DistanceSpacing: 1.2
BeatDivisor: 4
GridSize: 4
TimelineZoom: 1.8

[Metadata]
Title:&Z (TV size)
TitleUnicode:&Z(TV size)
Artist:SawanoHiroyuki[nZk]:mizuki
ArtistUnicode:SawanoHiroyuki[nZk]:mizuki
Creator:ZZHBOY
Version:Aldnoah
Source:Aldnoah.Zero
Tags:season 2 opening s2 op アルドノア・ゼロ rakuen
BeatmapID:597469
BeatmapSetID:261145

[Difficulty]
HPDrainRate:6
CircleSize:4
OverallDifficulty:7
ApproachRate:8.5
SliderMultiplier:1.4
SliderTickRate:1

[Events]
//Background and Video events
0,0,"bg.png",0,0
Video,0,"video.avi"
//Break Periods
//Storyboard Layer 0 (Background)
//Storyboard Layer 1 (Fail)
//Storyboard Layer 2 (Pass)
//Storyboard Layer 3 (Foreground)
//Storyboard Sound Samples

[TimingPoints]
3554,379.746835443038,4,2,69,40,1,0
15705,-100,4,2,70,40,0,0
27098,-200,4,2,1,40,0,0
27857,-100,4,2,1,40,0,0
40009,-100,4,2,71,40,0,0
63554,-100,4,2,1,40,0,0
64313,-100,4,2,69,60,0,1
88237,-100,4,2,1,60,0,0

[Colours]
Combo1 : 201,201,201
Combo2 : 64,255,64
Combo3 : 94,166,255
Combo4 : 250,232,103

[HitObjects]
256,208,3554,5,14,0:0:0:0:
320,176,3743,1,8,0:0:0:0:
384,144,3933,2,0,L|448:176,1,70,0|2,0:0|0:0,0:0:0:0:
256,288,4313,1,8,0:0:0:0:
320,256,4503,1,0,0:0:0:0:
384,224,4693,2,0,L|448:256,1,70,2|8,0:0|0:0,0:0:0:0:
192,240,5072,6,0,L|112:208,1,70,0|0,0:0|0:0,0:0:0:0:
28,292,5452,2,0,L|98:320,1,70,8|0,0:0|0:0,0:0:0:0:
48,208,5832,1,10,0:0:0:0:
64,128,6022,1,0,0:0:0:0:
80,48,6212,2,0,L|160:80,1,70,0|0,0:0|0:0,0:0:0:0:
256,208,6591,5,14,0:0:0:0:
320,240,6781,1,8,0:0:0:0:
384,272,6971,2,0,L|448:240,1,70,0|2,0:0|0:0,0:0:0:0:
256,128,7351,1,8,0:0:0:0:
320,160,7541,1,0,0:0:0:0:
384,192,7731,2,0,L|448:160,1,70,2|8,0:0|0:0,0:0:0:0:
192,176,8110,6,0,L|112:208,1,70,0|0,0:0|0:0,0:0:0:0:
28,68,8490,2,0,L|92:42,1,70,10|0,0:0|0:0,0:0:0:0:
48,208,8870,1,10,0:0:0:0:
64,288,9060,1,0,0:0:0:0:
80,368,9250,2,0,L|160:336,1,70,0|0,0:0|0:0,0:0:0:0:
256,208,9629,5,14,0:0:0:0:
240,128,9819,1,8,0:0:0:0:
224,48,10009,2,0,L|144:48,1,70,0|2,0:0|0:0,0:0:0:0:
176,208,10389,1,8,0:0:0:0:
192,288,10579,1,0,0:0:0:0:
208,368,10769,2,0,L|288:368,1,70,2|8,0:0|0:0,0:0:0:0:
390,160,11148,6,0,L|320:160,1,70,0|0,0:0|0:0,0:0:0:0:
122,288,11528,2,0,L|192:288,1,70,10|0,0:0|0:0,0:0:0:0:
336,240,11908,1,10,0:0:0:0:
304,80,12098,1,0,0:0:0:0:
160,128,12288,1,0,0:0:0:0:
192,288,12478,1,0,0:0:0:0:
144,48,12667,6,0,L|48:64,1,70,4|8,0:0|0:0,0:0:0:0:
80,144,13047,1,0,0:0:0:0:
88,227,13237,1,2,0:0:0:0:
208,384,13427,2,0,L|304:368,1,70,8|0,0:0|0:0,0:0:0:0:
272,288,13807,1,2,0:0:0:0:
268,204,13997,1,10,0:0:0:0:
272,48,14186,6,0,L|341:36,1,70,0|0,0:0|0:0,0:0:0:0:
485,132,14566,2,0,L|416:144,1,70,10|0,0:0|0:0,0:0:0:0:
272,48,14946,1,8,0:0:0:0:
416,144,15136,1,2,0:0:0:0:
256,208,15326,1,2,0:0:0:0:
272,48,15516,1,2,0:0:0:0:
416,144,15705,5,6,0:0:0:0:
400,240,16085,1,0,0:0:0:0:
272,48,16465,2,0,L|192:64,1,70,8|0,0:0|0:0,0:0:0:0:
176,192,16845,1,0,0:0:0:0:
192,272,17224,5,2,0:0:0:0:
208,352,17604,1,0,0:0:0:0:
384,256,17984,2,0,L|256:272,1,70,8|0,0:0|0:0,0:0:0:0:
208,352,18364,1,0,0:0:0:0:
192,272,18743,5,2,0:0:0:0:
176,192,19123,1,0,0:0:0:0:
16,96,19503,2,0,L|32:176,1,70,8|0,0:0|0:0,0:0:0:0:
176,192,19883,1,0,0:0:0:0:
256,160,20262,5,2,0:0:0:0:
336,128,20642,1,0,0:0:0:0:
400,288,21022,2,0,L|304:272,1,70,8|0,0:0|0:0,0:0:0:0:
336,128,21402,1,0,0:0:0:0:
368,208,21781,5,2,0:0:0:0:
400,288,22161,1,0,0:0:0:0:
493,142,22541,2,0,L|424:136,1,70,8|0,0:0|0:0,0:0:0:0:
400,288,22921,1,0,0:0:0:0:
304,272,23300,5,2,0:0:0:0:
208,256,23680,1,0,0:0:0:0:
272,96,24060,2,0,L|272:176,1,70,8|0,0:0|0:0,0:0:0:0:
112,310,24440,2,0,L|112:240,1,70,0|0,0:0|0:0,0:0:0:0:
176,80,24819,6,0,P|134:134|67:144,1,140,2|0,0:0|0:0,0:0:0:0:
272,96,25579,2,0,P|307:97|338:113,1,70,8|0,0:0|0:0,0:0:0:0:
392,208,25959,1,0,0:0:0:0:
288,348,26338,1,2,0:0:0:0:
224,192,26718,1,0,0:0:0:0:
392,208,27098,6,0,L|488:208,1,70,8|0,0:0|0:0,0:0:0:0:
224,192,27857,5,6,0:0:0:0:
128,192,28047,1,0,0:0:0:0:
32,192,28237,2,0,L|0:256,1,70,0|0,0:0|0:0,0:0:0:0:
80,112,28617,1,8,0:0:0:0:
176,112,28807,1,0,0:0:0:0:
272,112,28997,1,0,0:0:0:0:
272,112,29376,5,2,0:0:0:0:
272,112,29756,1,0,0:0:0:0:
272,112,30136,1,8,0:0:0:0:
272,112,30516,2,0,L|202:123,1,70
272,112,30895,5,2,0:0:0:0:
320,192,31085,1,0,0:0:0:0:
368,272,31275,2,0,L|352:352,1,70,0|0,0:0|0:0,0:0:0:0:
272,272,31655,1,8,0:0:0:0:
224,192,31845,1,0,0:0:0:0:
176,112,32035,1,0,0:0:0:0:
176,112,32414,5,2,0:0:0:0:
176,112,32794,1,0,0:0:0:0:
176,112,33174,2,0,L|96:112,1,70
256,80,33554,2,0,L|332:80,1,70
176,112,33933,5,2,0:0:0:0:
96,144,34123,1,0,0:0:0:0:
16,176,34313,2,0,L|0:256,1,70,0|0,0:0|0:0,0:0:0:0:
32,80,34693,1,8,0:0:0:0:
112,48,34883,1,0,0:0:0:0:
192,16,35072,1,0,0:0:0:0:
256,80,35452,5,2,0:0:0:0:
224,176,35832,1,0,0:0:0:0:
304,240,36212,1,8,0:0:0:0:
384,176,36591,1,0,0:0:0:0:
352,80,36971,5,2,0:0:0:0:
256,80,37351,1,0,0:0:0:0:
160,80,37731,2,0,L|80:80,1,70,8|0,0:0|0:0,0:0:0:0:
56,80,38110,1,0,0:0:0:0:
28,80,38490,5,2,0:0:0:0:
64,160,38680,1,0,0:0:0:0:
112,240,38870,1,0,0:0:0:0:
160,320,39060,1,0,0:0:0:0:
208,240,39250,1,8,0:0:0:0:
256,160,39440,1,0,0:0:0:0:
288,80,39629,1,0,0:0:0:0:
192,80,39819,1,0,0:0:0:0:
96,80,40009,5,6,0:0:0:0:
112,112,40389,1,2,0:0:0:0:
128,144,40769,1,2,0:0:0:0:
144,176,41148,1,2,0:0:0:0:
192,296,41528,1,2,0:0:0:0:
160,312,41908,1,2,0:0:0:0:
128,328,42288,1,2,0:0:0:0:
96,344,42667,1,2,0:0:0:0:
312,288,43047,5,2,0:0:0:0:
344,304,43427,1,2,0:0:0:0:
376,320,43807,1,2,0:0:0:0:
408,336,44186,1,2,0:0:0:0:
312,176,44566,1,2,0:0:0:0:
328,144,44946,1,2,0:0:0:0:
344,112,45326,1,2,0:0:0:0:
360,80,45705,2,0,L|440:96,1,70,2|0,0:0|0:0,0:0:0:0:
192,80,46085,6,0,L|272:96,1,70,2|0,0:0|0:0,0:0:0:0:
96,80,46465,1,2,0:0:0:0:
48,160,46655,1,0,0:0:0:0:
144,160,46845,2,0,L|224:176,1,70,2|0,0:0|0:0,0:0:0:0:
96,240,47224,1,2,0:0:0:0:
48,320,47414,1,0,0:0:0:0:
144,320,47604,6,0,L|224:336,1,70,2|0,0:0|0:0,0:0:0:0:
256,96,47984,1,2,0:0:0:0:
304,176,48174,1,0,0:0:0:0:
352,96,48364,2,0,L|420:82,1,70,2|0,0:0|0:0,0:0:0:0:
256,256,48743,1,2,0:0:0:0:
304,336,48933,1,0,0:0:0:0:
352,256,49123,6,0,L|420:242,1,70,2|0,0:0|0:0,0:0:0:0:
256,256,49503,2,0,L|187:269,1,70,2|0,0:0|0:0,0:0:0:0:
48,208,49883,1,2,0:0:0:0:
48,104,50072,1,0,0:0:0:0:
160,32,50262,1,2,0:0:0:0:
160,136,50452,1,0,0:0:0:0:
160,240,50642,6,0,L|148:309,1,70,2|0,0:0|0:0,0:0:0:0:
48,308,51022,1,2,0:0:0:0:
378,139,51402,2,0,L|448:128,1,70,2|0,0:0|0:0,0:0:0:0:
365,240,51781,2,0,L|296:252,1,70,2|0,0:0|0:0,0:0:0:0:
488,264,52161,5,2,0:0:0:0:
64,288,52541,2,0,L|133:276,1,70,2|0,0:0|0:0,0:0:0:0:
224,176,52921,2,0,L|154:187,1,70,10|0,0:0|0:0,0:0:0:0:
24,152,53300,1,2,0:0:0:0:
288,120,53680,6,0,L|368:128,2,70,2|0|2,0:0|0:0|0:0,0:0:0:0:
224,304,54440,2,0,L|72:280,2,140,10|2|2,0:0|0:0|0:0,0:0:0:0:
304,320,55389,5,0,0:0:0:0:
384,336,55579,1,2,0:0:0:0:
360,256,55769,1,0,0:0:0:0:
344,176,55959,1,10,0:0:0:0:
360,256,56148,1,0,0:0:0:0:
384,336,56338,1,2,0:0:0:0:
344,176,56718,5,2,0:0:0:0:
472,64,57098,1,2,0:0:0:0:
320,96,57478,1,10,0:0:0:0:
360,256,57857,1,2,0:0:0:0:
296,312,58047,1,0,0:0:0:0:
224,360,58237,6,0,P|128:360|72:312,1,140,2|2,0:0|0:0,0:0:0:0:
64,256,58807,1,0,0:0:0:0:
48,176,58997,2,0,L|54:106,1,70,10|0,0:0|0:0,0:0:0:0:
160,32,59376,2,0,L|153:101,1,70,2|0,0:0|0:0,0:0:0:0:
160,184,59756,1,2,0:0:0:0:
168,264,59946,1,0,0:0:0:0:
176,344,60136,1,2,0:0:0:0:
256,128,60516,5,10,0:0:0:0:
264,208,60705,1,0,0:0:0:0:
272,288,60895,1,2,0:0:0:0:
280,368,61085,1,0,0:0:0:0:
344,320,61275,2,0,L|413:326,1,70,2|0,0:0|0:0,0:0:0:0:
488,232,61655,2,0,L|419:226,1,70,2|0,0:0|0:0,0:0:0:0:
264,208,62035,5,10,0:0:0:0:
104,192,62224,1,0,0:0:0:0:
153,37,62414,1,2,0:0:0:0:
174,124,62604,1,8,0:0:0:0:
85,101,63554,1,8,0:0:0:0:
196,304,64123,1,0,0:0:0:0:
256,192,64313,5,12,0:0:0:0:
360,176,64503,1,0,0:0:0:0:
464,160,64693,2,0,L|416:256,1,70,0|10,0:0|0:0,0:0:0:0:
256,192,65072,5,0,0:0:0:0:
190,109,65262,1,0,0:0:0:0:
124,27,65452,2,0,L|231:21,1,70,10|0,0:0|0:0,0:0:0:0:
256,192,65832,5,10,0:0:0:0:
217,290,66022,1,0,0:0:0:0:
168,384,66212,2,0,L|109:295,1,70,0|10,0:0|0:0,0:0:0:0:
256,192,66591,5,0,0:0:0:0:
360,176,66781,1,0,0:0:0:0:
256,192,66971,1,10,0:0:0:0:
152,208,67161,1,8,0:0:0:0:
392,80,67351,5,10,0:0:0:0:
320,272,67541,1,0,0:0:0:0:
256,192,67731,1,0,0:0:0:0:
120,304,67921,5,10,0:0:0:0:
192,112,68110,1,0,0:0:0:0:
256,192,68300,1,0,0:0:0:0:
216,288,68490,1,10,0:0:0:0:
296,96,68680,1,0,0:0:0:0:
320,272,68870,6,0,L|416:280,1,70,2|8,0:0|0:0,0:0:0:0:
432,184,69250,1,0,0:0:0:0:
472,88,69440,1,2,0:0:0:0:
192,272,69629,6,0,L|96:280,1,70,8|0,0:0|0:0,0:0:0:0:
80,184,70009,1,10,0:0:0:0:
40,88,70199,1,0,0:0:0:0:
256,144,70389,6,0,L|256:240,1,70,14|0,0:0|0:0,0:0:0:0:
256,56,70769,1,0,0:0:0:0:
192,271,70959,1,8,0:0:0:0:
80,184,71148,6,0,L|-3:232,1,70,0|0,0:0|0:0,0:0:0:0:
256,144,71528,1,8,0:0:0:0:
164,144,71718,1,0,0:0:0:0:
432,184,71908,6,0,L|515:232,1,70,10|0,0:0|0:0,0:0:0:0:
256,144,72288,1,0,0:0:0:0:
348,144,72478,1,10,0:0:0:0:
256,288,72667,5,0,0:0:0:0:
256,288,72857,1,0,0:0:0:0:
256,144,73047,1,8,0:0:0:0:
404,156,73237,1,0,0:0:0:0:
386,303,73427,6,0,P|318:315|255:287,1,140,10|0,0:0|0:0,0:0:0:0:
256,192,73997,1,10,0:0:0:0:
336,144,74186,2,0,L|404:156,1,70,10|0,0:0|0:0,0:0:0:0:
176,144,74566,2,0,L|108:156,1,70,10|0,0:0|0:0,0:0:0:0:
256,192,74946,5,0,0:0:0:0:
256,104,75136,1,10,0:0:0:0:
320,44,75326,1,0,0:0:0:0:
404,68,75516,1,0,0:0:0:0:
256,192,75705,5,10,0:0:0:0:
216,184,75800,1,0,0:0:0:0:
184,152,75895,1,8,0:0:0:0:
168,112,75990,1,0,0:0:0:0:
176,72,76085,1,10,0:0:0:0:
200,32,76180,1,0,0:0:0:0:
240,16,76275,1,8,0:0:0:0:
280,24,76370,1,8,0:0:0:0:
320,44,76465,5,6,0:0:0:0:
256,192,76845,1,8,0:0:0:0:
344,184,77035,1,2,0:0:0:0:
80,120,77414,1,0,0:0:0:0:
168,112,77604,1,0,0:0:0:0:
256,104,77794,1,8,0:0:0:0:
80,208,78174,5,0,0:0:0:0:
168,200,78364,1,8,0:0:0:0:
256,192,78554,1,0,0:0:0:0:
344,184,78743,2,0,P|375:201|401:225,1,70,0|0,0:0|0:0,0:0:0:0:
168,112,79123,2,0,P|137:95|111:71,1,70,2|8,0:0|0:0,0:0:0:0:
344,184,79503,6,0,P|383:239|371:306,1,140,2|8,0:0|0:0,0:0:0:0:
296,340,80072,1,2,0:0:0:0:
216,352,80262,2,0,L|146:358,1,70,0|0,0:0|0:0,0:0:0:0:
16,208,80642,2,0,L|85:201,1,70,10|0,0:0|0:0,0:0:0:0:
168,208,81022,5,0,0:0:0:0:
248,224,81212,1,0,0:0:0:0:
328,240,81402,1,8,0:0:0:0:
304,160,81591,1,2,0:0:0:0:
120,72,81781,5,0,0:0:0:0:
104,152,81971,1,0,0:0:0:0:
88,232,82161,1,10,0:0:0:0:
168,208,82351,1,0,0:0:0:0:
383,175,82541,6,0,P|412:244|386:302,1,140,6|8,0:0|0:0,0:0:0:0:
304,160,83110,1,2,0:0:0:0:
360,96,83300,1,0,0:0:0:0:
408,32,83490,1,0,0:0:0:0:
260,16,83680,2,0,L|284:88,1,70,2|8,0:0|0:0,0:0:0:0:
328,240,84060,6,0,P|273:283|197:271,1,140,2|8,0:0|0:0,0:0:0:0:
336,152,84629,1,2,0:0:0:0:
408,200,84819,1,0,0:0:0:0:
484,244,85009,1,0,0:0:0:0:
484,104,85199,2,0,L|414:109,1,70,2|8,0:0|0:0,0:0:0:0:
328,100,85579,5,2,0:0:0:0:
244,92,85769,1,0,0:0:0:0:
160,84,85959,1,8,0:0:0:0:
64,192,86148,1,2,0:0:0:0:
148,200,86338,1,0,0:0:0:0:
232,208,86528,1,0,0:0:0:0:
392,320,86718,1,10,0:0:0:0:
308,312,86908,1,0,0:0:0:0:
224,304,87098,5,2,0:0:0:0:
316,208,87288,1,0,0:0:0:0:
236,104,87478,1,8,0:0:0:0:
148,200,87667,1,2,0:0:0:0:
224,304,87857,5,8,0:0:0:0:
224,304,87952,1,8,0:0:0:0:
224,304,88047,1,0,0:0:0:0:
236,104,88237,1,14,0:0:0:0:
