osu file format v13

[General]
AudioFilename: Hiroyuki Sawano - aLIEz.mp3
AudioLeadIn: 0
PreviewTime: 57375
Countdown: 0
SampleSet: Soft
StackLeniency: 0.7
Mode: 0
LetterboxInBreaks: 0
WidescreenStoryboard: 0

[Editor]
Bookmarks: 67375
DistanceSpacing: 1.9
BeatDivisor: 4
GridSize: 8
TimelineZoom: 3

[Metadata]
Title:aLIEz
TitleUnicode:aLIEz
Artist:SawanoHiroyuki[nZk]:mizuki
ArtistUnicode:SawanoHiroyuki[nZk]:mizuki
Creator:Liiraye
Version:Hard
Source:アルドノア・ゼロ
Tags:澤野弘之 ALDNOAH. ZERO Mizuki Ending ED 2 ZLOdeuka- Asphyxia short version
BeatmapID:477836
BeatmapSetID:196990

[Difficulty]
HPDrainRate:6
CircleSize:4
OverallDifficulty:6
ApproachRate:8
SliderMultiplier:1.2
SliderTickRate:2

[Events]
//Background and Video events
0,0,"AZ.jpg",0,0
Video,9000,"sup.avi"
//Break Periods
//Storyboard Layer 0 (Background)
//Storyboard Layer 1 (Fail)
//Storyboard Layer 2 (Pass)
//Storyboard Layer 3 (Foreground)
//Storyboard Sound Samples
//Background Colour Transformations
3,100,163,162,255

[TimingPoints]
246,606.060606060606,4,2,1,55,1,0
246,-50,4,2,1,55,0,0
28730,-66.6666666666667,4,2,1,55,0,0
29336,-50,4,2,1,55,0,0
57064,-50,4,2,1,30,0,0
57518,-76.9230769230769,4,2,1,55,0,0
57821,-76.9230769230769,4,2,1,5,0,0
57973,-76.9230769230769,4,2,1,55,0,0
58276,-76.9230769230769,4,2,1,5,0,0
58427,-50,4,2,1,65,0,1
67518,-50,4,2,1,65,0,0
67821,-50,4,2,1,75,0,0
67973,-50,4,2,1,90,0,0
68124,-50,4,2,1,65,0,1
97064,-50,4,2,1,35,0,1
97215,-50,4,2,1,35,0,0

[Colours]
Combo1 : 255,128,128
Combo2 : 255,116,49
Combo3 : 85,170,255
Combo4 : 176,176,176

[HitObjects]
177,112,246,6,0,P|184:170|162:226,1,120,4|2,0:0|2:0,0:0:0:0:
310,302,852,2,0,P|288:247|289:187,1,120,8|8,0:0|1:0,0:0:0:0:
409,70,1458,6,0,B|434:187|434:187|422:270,1,180,2|0,0:0|0:0,0:0:0:0:
425,246,2064,1,8,0:0:0:0:
260,280,2367,1,0,0:0:0:0:
132,170,2670,6,0,L|122:98,2,60,8|0|2,1:0|0:0|2:0,0:0:0:0:
280,142,3276,2,0,L|297:12,1,120,8|10,0:0|1:0,0:0:0:0:
421,133,3882,6,0,P|459:167|477:197,1,60,2|8,0:0|2:0,0:0:0:0:
342,266,4185,2,0,P|356:228|376:206,1,60,0|8,0:0|1:0,0:0:0:0:
477,293,4488,2,0,P|441:348|321:351,1,180,8|0,0:0|0:0,0:0:0:0:
255,325,5094,6,0,P|196:321|142:345,1,120,8|2,1:0|0:0,0:0:0:0:
87,290,5549,1,0,0:0:0:0:
87,290,5700,2,0,P|64:234|69:175,1,120,10|10,0:0|1:0,0:0:0:0:
297,80,6306,6,0,P|301:167|256:246,1,180,0|0,0:0|0:0,0:0:0:0:
256,245,6912,1,8,0:0:0:0:
139,127,7215,1,0,0:0:0:0:
46,267,7518,6,0,L|27:340,2,60,8|0|2,1:0|0:0|0:0,0:0:0:0:
202,327,8124,1,8,0:0:0:0:
335,225,8427,2,0,P|362:203|391:167,1,60,2|8,0:0|0:0,0:0:0:0:
278,65,8730,6,0,P|299:97|329:118,1,60,8|8,1:0|0:0,0:0:0:0:
428,82,9033,2,0,P|456:99|482:127,1,60,0|8,0:0|1:0,0:0:0:0:
456,225,9336,2,0,P|453:284|351:366,1,180,8|0,0:0|0:0,0:0:0:0:
288,337,9942,6,0,L|250:209,1,120,6|0,0:0|0:0,0:0:0:0:
131,105,10549,2,0,B|100:192|100:192|112:244,2,120,10|8|0,0:0|1:0|0:0,0:0:0:0:
289,48,11458,5,0,0:0:0:0:
398,175,11761,2,0,B|420:213|456:236|456:236|424:239|398:274|398:274|412:300|412:300|402:332|408:352,1,240,8|2,0:0|0:0,0:0:0:0:
271,256,12670,5,0,0:0:0:0:
203,101,12973,2,0,P|261:86|320:95,1,120,8|8,0:0|1:0,0:0:0:0:
440,212,13579,6,0,P|473:204|499:190,2,60,0|8|0,0:0|0:0|0:0,0:0:0:0:
296,299,14185,2,0,P|275:243|279:183,1,120,8|0,0:0|0:0,0:0:0:0:
374,45,14791,5,2,0:0:0:0:
219,111,15094,1,2,0:0:0:0:
170,271,15397,1,8,0:0:0:0:
107,114,15700,1,8,1:0:0:0:
246,207,16003,6,0,P|273:219|302:227,1,60,2|0,0:0|0:0,0:0:0:0:
319,140,16306,2,0,P|348:135|377:126,1,60,0|2,0:0|0:0,0:0:0:0:
309,50,16609,2,0,P|250:37|183:47,1,120,8|0,0:0|0:0,0:0:0:0:
117,84,17064,1,0,0:0:0:0:
116,84,17215,6,0,P|84:134|72:192,1,120,2|2,0:0|0:0,0:0:0:0:
239,259,17821,1,8,0:0:0:0:
391,164,18124,2,0,P|416:147|444:136,1,60,8|8,1:0|1:0,0:0:0:0:
471,222,18427,6,0,L|470:294,1,60,2|8,0:0|0:0,0:0:0:0:
353,330,18730,1,0,0:0:0:0:
353,330,18882,1,2,0:0:0:0:
309,203,19033,2,0,L|300:131,1,60,8|8,0:0|0:0,0:0:0:0:
179,79,19336,2,0,L|176:141,1,60,8|8,1:0|1:0,0:0:0:0:
100,234,19639,6,0,B|138:270|138:270|264:287,1,180,4|8,0:0|1:0,0:0:0:0:
353,276,20246,1,8,0:0:0:0:
414,106,20549,1,8,1:0:0:0:
414,106,20700,1,8,1:0:0:0:
414,106,20852,6,0,B|422:68|422:68|414:28,2,60,0|8|0,0:0|1:0|0:0,0:0:0:0:
336,151,21306,1,0,0:0:0:0:
246,142,21458,2,0,B|238:172|248:205|248:205|272:227|272:227|286:248|289:275,1,120,8|0,0:0|0:0,0:0:0:0:
240,326,21912,2,0,L|200:352,2,30,0|0|2,0:0|0:0|0:0,0:0:0:0:
418,301,22367,6,0,P|420:271|417:241,1,60,0|8,0:0|1:0,0:0:0:0:
372,163,22670,2,0,L|380:84,1,60,8|0,0:0|0:0,0:0:0:0:
457,60,22973,1,8,1:0:0:0:
457,60,23124,1,8,1:0:0:0:
288,120,23276,6,0,L|207:97,1,60,0|8,0:0|1:0,0:0:0:0:
135,123,23579,2,0,P|120:150|113:179,1,60,0|0,0:0|0:0,0:0:0:0:
219,214,23882,2,0,P|224:273|217:333,1,120,8|0,0:0|0:0,0:0:0:0:
55,255,24488,6,0,P|42:229|31:201,2,60,2|0|0,0:0|0:0|0:0,0:0:0:0:
136,296,24942,1,8,1:0:0:0:
224,279,25094,2,0,P|283:283|329:319,1,120,8|8,0:0|1:0,0:0:0:0:
250,367,25549,1,8,1:0:0:0:
165,209,25852,5,8,1:0:0:0:
165,209,26003,2,0,L|172:131,1,60,0|0,0:0|0:0,0:0:0:0:
260,149,26306,2,0,L|280:30,1,120,8|0,0:0|0:0,0:0:0:0:
363,64,26761,1,0,0:0:0:0:
431,121,26912,6,0,L|440:240,1,120,8|0,1:0|0:0,0:0:0:0:
393,317,27367,1,0,0:0:0:0:
304,300,27518,2,0,P|234:301|186:334,1,120,8|8,0:0|1:0,0:0:0:0:
114,282,27973,1,8,1:0:0:0:
126,197,28124,6,0,L|183:217,1,60,8|0,0:0|0:0,0:0:0:0:
181,105,28427,2,0,L|110:117,1,60,8|0,1:0|0:0,0:0:0:0:
150,15,28730,6,0,L|335:27,1,180.000006866455,8|4,0:0|0:0,0:0:0:0:
388,94,29488,5,0,0:0:0:0:
430,172,29639,2,0,L|414:236,1,60,0|0,0:0|0:0,0:0:0:0:
338,172,29942,2,0,P|280:158|208:173,1,120,8|8,0:0|1:0,0:0:0:0:
167,240,30397,1,8,1:0:0:0:
167,240,30549,6,0,L|156:325,2,60,0|8|0,0:0|1:0|0:0,0:0:0:0:
143,133,31003,1,0,0:0:0:0:
213,48,31155,2,0,B|247:98|247:98|263:155,1,120,8|0,0:0|0:0,0:0:0:0:
324,220,31609,1,0,0:0:0:0:
413,205,31761,6,0,P|427:148|417:89,1,120,2|0,0:0|0:0,0:0:0:0:
253,165,32367,1,8,0:0:0:0:
252,165,32670,2,0,P|167:152|128:72,1,180,8|0,1:0|0:0,0:0:0:0:
221,74,33276,6,0,P|252:63|274:46,1,60,0|0,0:0|0:0,0:0:0:0:
350,93,33579,2,0,P|376:168|361:272,1,180,8|0,0:0|0:0,0:0:0:0:
294,325,34185,6,0,P|261:322|227:303,1,60,2|0,0:0|0:0,0:0:0:0:
112,258,34488,2,0,P|147:251|176:231,1,60,0|8,0:0|1:0,0:0:0:0:
240,122,34791,2,0,B|179:109|179:109|141:116|141:116|100:109,2,120,8|8|0,0:0|1:0|0:0,0:0:0:0:
316,169,35549,5,8,1:0:0:0:
405,169,35700,2,0,L|432:97,1,60,0|0,0:0|0:0,0:0:0:0:
341,81,36003,2,0,P|283:83|240:122,1,120,8|0,0:0|0:0,0:0:0:0:
244,298,36609,5,2,0:0:0:0:
189,226,36761,1,0,0:0:0:0:
106,190,36912,2,0,L|41:168,1,60,0|8,0:0|1:0,0:0:0:0:
155,100,37215,2,0,L|268:138,1,120,8|8,0:0|1:0,0:0:0:0:
335,198,37670,1,8,1:0:0:0:
421,175,37821,6,0,B|432:147|432:147|435:117,2,60,0|8|0,0:0|0:0|0:0,0:0:0:0:
408,264,38276,1,8,1:0:0:0:
408,264,38427,2,0,L|418:323,1,60,8|8,0:0|0:0,0:0:0:0:
309,254,38730,2,0,L|298:194,1,60,0|0,0:0|1:0,0:0:0:0:
419,115,39033,6,0,B|471:176|471:176|485:220,2,120,6|0|8,0:0|0:0|0:0,0:0:0:0:
239,116,39942,1,8,1:0:0:0:
239,116,40094,6,0,P|172:107|151:5,1,180,8|0,1:0|0:0,0:0:0:0:
325,47,40852,2,0,L|334:166,1,120,8|0,0:0|0:0,0:0:0:0:
297,247,41306,6,0,P|240:235|160:322,1,180,0|0,0:0|0:0,0:0:0:0:
339,341,42064,1,8,0:0:0:0:
451,200,42367,1,8,1:0:0:0:
331,64,42670,6,0,P|308:82|291:107,1,60,0|8,0:0|0:0,0:0:0:0:
362,230,42973,2,0,P|373:199|375:167,1,60,0|8,0:0|1:0,0:0:0:0:
267,201,43276,2,0,L|237:253,1,60,8|0,0:0|0:0,0:0:0:0:
177,171,43579,2,0,L|145:227,1,60,0|0,0:0|0:0,0:0:0:0:
87,139,43882,6,0,B|51:202|51:202|49:249,2,120,2|0|8,0:0|0:0|0:0,0:0:0:0:
257,80,44791,1,8,1:0:0:0:
257,80,44942,6,0,B|275:140|275:140|270:196|270:196|287:253,1,180,8|0,1:0|0:0,0:0:0:0:
457,280,45700,2,0,P|433:224|399:176,1,120,8|0,0:0|0:0,0:0:0:0:
287,187,46155,6,0,P|301:119|398:63,1,180,0|0,0:0|0:0,0:0:0:0:
398,177,46912,1,8,0:0:0:0:
265,279,47215,2,0,P|256:236|257:205,1,60,8|8,1:0|1:0,0:0:0:0:
272,76,47518,5,0,0:0:0:0:
197,116,47670,1,8,0:0:0:0:
151,186,47821,2,0,P|135:227|127:259,1,60,0|8,0:0|1:0,0:0:0:0:
46,251,48124,2,0,P|48:289|46:327,2,60,8|8|0,0:0|0:0|0:0,0:0:0:0:
31,167,48579,1,8,1:0:0:0:
31,167,48730,6,0,B|16:138|28:98|28:98|53:87|53:87|86:63,1,120,4|0,0:0|0:0,0:0:0:0:
238,84,49336,2,0,P|281:125|353:142,1,120,8|8,0:0|1:0,0:0:0:0:
421,142,49791,1,8,1:0:0:0:
496,106,49942,6,0,L|472:42,1,60,0|8,0:0|0:0,0:0:0:0:
402,215,50245,2,0,L|423:271,1,60,0|0,0:0|0:0,0:0:0:0:
312,351,50549,2,0,B|276:355|245:333|245:333|222:334|222:334|198:323,1,120,8|0,0:0|0:0,0:0:0:0:
144,259,51003,1,0,0:0:0:0:
183,183,51155,6,0,P|235:157|294:164,1,120,2|0,0:0|0:0,0:0:0:0:
417,49,51761,1,8,0:0:0:0:
252,82,52064,1,0,0:0:0:0:
90,34,52367,6,0,P|50:115|48:204,1,180,0|8,0:0|1:0,0:0:0:0:
114,256,52973,2,0,P|131:232|143:205,1,60,8|8,0:0|0:0,0:0:0:0:
240,249,53276,2,0,P|259:275|269:301,1,60,0|0,0:0|0:0,0:0:0:0:
165,324,53579,6,0,B|129:355|129:355|43:363,2,120,2|0|8,0:0|0:0|0:0,0:0:0:0:
301,172,54488,1,8,1:0:0:0:
301,172,54639,6,0,B|332:192|348:227|348:227|376:243|376:243|395:282|438:295,1,180,8|0,1:0|0:0,0:0:0:0:
481,225,55245,1,0,0:0:0:0:
467,141,55397,2,0,L|371:55,1,120,8|0,0:0|0:0,0:0:0:0:
256,192,55852,12,8,57064,1:0:0:0:
344,174,57518,6,0,P|329:138|301:112,1,77.9999964294435,2|0,2:0|0:0,0:0:0:0:
174,184,57973,2,0,P|164:221|162:260,1,77.9999964294435,2|0,2:0|0:0,0:0:0:0:
301,288,58427,6,0,P|353:315|411:302,1,120,4|0,0:0|0:0,0:0:0:0:
453,215,58882,1,8,1:0:0:0:
453,215,59033,2,0,B|441:182|455:153|455:153|448:119|418:102,1,120,8|8,0:0|1:0,0:0:0:0:
333,134,59488,1,8,1:0:0:0:
244,97,59639,6,0,L|227:20,1,60,0|8,0:0|1:0,0:0:0:0:
150,146,59942,2,0,L|170:203,1,60,0|0,0:0|0:0,0:0:0:0:
266,195,60245,1,8,0:0:0:0:
305,283,60397,1,0,0:0:0:0:
215,318,60549,2,0,P|179:309|146:285,1,60,0|0,0:0|0:0,0:0:0:0:
306,283,60852,6,0,P|394:283|459:343,1,180,4|8,0:0|1:0,0:0:0:0:
482,232,61458,2,0,B|479:185|492:152|492:152|473:137|456:106,1,120,8|8,0:0|1:0,0:0:0:0:
396,45,61912,1,8,1:0:0:0:
324,119,62064,6,0,L|310:194,1,60,0|8,0:0|1:0,0:0:0:0:
229,322,62367,2,0,P|180:289|156:235,1,120,0|8,0:0|0:0,0:0:0:0:
209,141,62821,1,0,2:0:0:0:
124,72,62973,2,0,L|45:58,1,60,8|8,0:0|0:0,0:0:0:0:
223,44,63276,6,0,B|341:24|341:24|416:39,1,180,4|8,0:0|1:0,0:0:0:0:
461,124,63882,2,0,B|465:165|465:165|477:199|477:199|477:243,1,120,8|8,0:0|1:0,0:0:0:0:
424,335,64336,1,8,1:0:0:0:
318,358,64488,6,0,P|303:316|307:275,1,60,0|8,0:0|1:0,0:0:0:0:
268,200,64791,1,0,0:0:0:0:
374,217,64942,1,0,0:0:0:0:
364,109,65094,2,0,L|344:52,1,60,8|0,0:0|0:0,0:0:0:0:
255,113,65397,2,0,L|214:46,1,60,0|0,0:0|0:0,0:0:0:0:
134,199,65700,6,0,P|143:257|181:302,2,120,4|0|12,0:0|0:0|0:0,0:0:0:0:
349,216,66609,1,8,1:0:0:0:
449,174,66761,1,8,1:0:0:0:
323,94,66912,6,0,L|310:27,2,60,4|8|0,0:0|0:0|0:0,0:0:0:0:
268,187,67367,1,8,1:0:0:0:
299,289,67518,2,0,P|336:334|394:346,1,120,8|8,0:0|0:0,0:0:0:0:
455,257,67973,1,8,0:0:0:0:
268,187,68124,6,0,B|236:173|212:174|212:174|188:153|188:153|139:169|87:151,1,180,4|8,0:0|1:0,0:0:0:0:
169,35,68730,2,0,B|198:45|212:54|212:54|244:48|244:48|259:67|291:76,1,120,8|8,0:0|1:0,0:0:0:0:
477,149,69336,6,0,L|486:70,1,60,0|8,0:0|1:0,0:0:0:0:
375,100,69639,2,0,L|362:219,1,120,0|8,0:0|0:0,0:0:0:0:
379,325,70094,2,0,P|349:275|295:252,1,120,8|0,0:0|0:0,0:0:0:0:
106,211,70549,6,0,P|109:122|156:47,1,180,4|0,0:0|0:0,0:0:0:0:
259,81,71155,2,0,B|304:104|304:104|373:104,1,120,8|8,0:0|1:0,0:0:0:0:
387,319,71761,5,0,0:0:0:0:
387,319,71912,1,8,1:0:0:0:
387,318,72064,2,0,P|394:259|381:201,1,120,0|8,0:0|0:0,0:0:0:0:
253,127,72518,1,8,0:0:0:0:
253,127,72670,2,0,P|266:169|293:200,1,60,0|0,0:0|0:0,0:0:0:0:
222,325,72973,6,0,B|189:331|166:347|166:347|112:333|112:333|86:347|51:355,1,180,4|8,0:0|1:0,0:0:0:0:
32,247,73579,2,0,L|28:127,1,120,8|8,0:0|1:0,0:0:0:0:
97,44,74033,1,8,1:0:0:0:
283,153,74336,5,8,1:0:0:0:
283,152,74488,2,0,P|331:118|363:68,1,120,0|8,0:0|0:0,0:0:0:0:
428,154,74942,2,0,B|440:212|440:212|434:272,1,120,8|0,0:0|0:0,0:0:0:0:
287,257,75397,6,0,P|239:290|215:344,1,120,2|2,0:0|0:0,0:0:0:0:
118,296,75852,1,10,1:0:0:0:
136,186,76003,2,0,L|79:205,1,60,8|2,0:0|0:0,0:0:0:0:
108,92,76306,1,2,0:0:0:0:
202,50,76458,2,0,L|207:20,2,30,8|8|8,1:0|1:0|0:0,0:0:0:0:
271,133,76761,5,8,1:0:0:0:
386,89,76912,2,0,L|455:101,1,60,8|2,0:0|0:0,0:0:0:0:
343,221,77215,2,0,L|419:211,1,60,8|8,0:0|0:0,0:0:0:0:
394,338,77518,2,0,L|460:309,1,60,8|8,0:0|0:0,0:0:0:0:
296,293,77821,6,0,B|250:301|250:301|177:288,1,120,4|0,0:0|0:0,0:0:0:0:
159,72,78427,2,0,P|224:136|220:228,1,180,8|8,0:0|1:0,0:0:0:0:
115,179,79033,6,0,L|50:171,1,60,0|8,0:0|1:0,0:0:0:0:
91,273,79336,2,0,P|136:323|207:333,1,120,0|8,0:0|0:0,0:0:0:0:
269,266,79791,2,0,P|322:244|373:271,1,120,0|0,0:0|0:0,0:0:0:0:
428,364,80246,6,0,L|450:246,1,120,4|0,0:0|0:0,0:0:0:0:
414,143,80700,1,8,1:0:0:0:
413,142,80852,2,0,P|363:112|304:117,1,120,8|8,0:0|1:0,0:0:0:0:
234,198,81306,1,8,1:0:0:0:
251,299,81458,6,0,P|279:291|303:273,1,60,0|8,0:0|0:0,0:0:0:0:
170,112,81761,2,0,P|135:158|140:243,1,120,0|8,0:0|0:0,0:0:0:0:
167,324,82215,1,0,0:0:0:0:
167,324,82367,2,0,L|108:309,1,60,8|8,0:0|0:0,0:0:0:0:
210,230,82670,6,0,B|242:211|242:211|345:204,2,120,4|0|8,0:0|0:0|0:0,0:0:0:0:
31,107,83579,1,8,1:0:0:0:
131,144,83730,1,8,1:0:0:0:
214,76,83882,6,0,L|200:15,2,60,0|8|0,0:0|1:0|0:0,0:0:0:0:
314,115,84336,1,0,0:0:0:0:
422,115,84488,2,0,L|400:260,1,120,8|8,0:0|0:0,0:0:0:0:
404,234,84942,1,8,0:0:0:0:
403,233,85094,6,0,P|345:244|302:284,2,120,10|0|8,1:0|0:0|0:0,0:0:0:0:
315,37,86003,2,0,L|304:119,1,60,8|8,1:0|1:0,0:0:0:0:
200,169,86306,6,0,L|185:94,2,60,2|8|2,0:0|0:0|0:0,0:0:0:0:
296,217,86761,1,8,1:0:0:0:
185,296,86912,2,0,P|175:325|171:355,1,60,8|8,0:0|0:0,0:0:0:0:
273,302,87215,2,0,P|290:332|316:355,1,60,8|8,0:0|0:0,0:0:0:0:
139,220,87518,6,0,P|80:230|31:264,1,120,4|0,0:0|0:0,0:0:0:0:
37,156,87973,1,0,0:0:0:0:
37,156,88124,2,0,B|90:109|90:109|195:81,1,180,8|8,0:0|1:0,0:0:0:0:
297,118,88730,6,0,P|326:112|353:99,1,60,0|8,0:0|1:0,0:0:0:0:
460,112,89033,2,0,L|473:242,1,120,0|8,0:0|0:0,0:0:0:0:
376,223,89488,1,0,0:0:0:0:
286,255,89639,1,0,0:0:0:0:
234,336,89791,1,0,0:0:0:0:
183,240,89942,6,0,P|147:192|96:161,1,120,4|0,0:0|0:0,0:0:0:0:
52,299,90397,1,8,1:0:0:0:
52,299,90549,2,0,B|84:340|84:340|224:356,1,180,8|8,0:0|1:0,0:0:0:0:
386,285,91155,6,0,L|317:272,1,60,0|8,0:0|0:0,0:0:0:0:
246,193,91458,2,0,L|381:149,1,120,2|8,0:0|0:0,0:0:0:0:
465,199,91912,1,8,1:0:0:0:
447,86,92064,2,0,L|444:11,1,60,8|8,0:0|0:0,0:0:0:0:
333,52,92367,5,4,0:0:0:0:
333,52,92670,2,0,B|303:74|303:74|277:64|277:64|248:75|201:67,1,120,0|8,0:0|0:0,0:0:0:0:
47,215,93276,2,0,P|62:259|82:293,1,60,8|8,1:0|1:0,0:0:0:0:
181,286,93579,5,0,0:0:0:0:
239,188,93730,1,8,0:0:0:0:
238,187,93882,2,0,P|258:210|283:227,1,60,0|8,0:0|1:0,0:0:0:0:
436,197,94185,2,0,P|404:214|374:237,1,60,8|0,0:0|0:0,0:0:0:0:
318,369,94488,2,0,P|329:334|333:304,1,60,8|8,0:0|1:0,0:0:0:0:
339,143,94791,5,4,0:0:0:0:
247,75,94942,2,0,L|237:27,2,30,8|8|8,0:0|0:0|0:0,0:0:0:0:
164,153,95245,1,8,0:0:0:0:
50,167,95397,2,0,P|35:142|22:105,1,60,4|8,0:0|0:0,0:0:0:0:
126,222,95700,2,0,P|116:251|101:277,1,60,8|8,0:0|0:0,0:0:0:0:
246,228,96003,5,4,0:0:0:0:
302,326,96155,1,8,0:0:0:0:
223,306,96306,1,4,0:0:0:0:
324,248,96458,1,8,0:0:0:0:
275,151,96609,2,0,P|282:120|303:82,1,60,4|8,0:0|0:0,0:0:0:0:
404,130,96912,2,0,P|421:103|434:65,1,60,8|4,0:0|0:0,0:0:0:0:
