osu file format v13

[General]
AudioFilename: aliez.mp3
AudioLeadIn: 1500
PreviewTime: 57719
Countdown: 0
SampleSet: Soft
StackLeniency: 0.7
Mode: 0
LetterboxInBreaks: 0
WidescreenStoryboard: 0

[Editor]
DistanceSpacing: 1.3
BeatDivisor: 8
GridSize: 4
TimelineZoom: 1.5

[Metadata]
Title:aLIEz (TV size)
TitleUnicode:aLIEz (TV size)
Artist:SawanoHiroyuki[nZk]:mizuki
ArtistUnicode:SawanoHiroyuki[nZk]:mizuki
Creator:xxdeathx
Version:Insane
Source:Aldnoah.Zero
Tags:aldnoah zero ending ed2 sawano hiroyuki アルドノア・ゼロ 澤野 弘之 amamiya yuko skystar yuzu- captin1 umi kshr dakedekaane xchippy kibbleru desperate-kun
BeatmapID:496143
BeatmapSetID:210937

[Difficulty]
HPDrainRate:7
CircleSize:4
OverallDifficulty:7
ApproachRate:9
SliderMultiplier:1.84
SliderTickRate:4

[Events]
//Background and Video events
0,0,"bg.png",0,0
Video,203,"video.avi"
//Break Periods
//Storyboard Layer 0 (Background)
//Storyboard Layer 1 (Fail)
//Storyboard Layer 2 (Pass)
//Storyboard Layer 3 (Foreground)
//Storyboard Sound Samples
//Background Colour Transformations
3,100,163,162,255

[TimingPoints]
523,606.060606060606,4,2,1,50,1,0
523,-62.5,4,2,1,50,0,0
10219,-62.5,4,2,1,60,0,0
19916,-62.5,4,2,1,30,0,0
39310,-62.5,4,2,1,40,0,0
57492,-100,4,2,1,40,0,0
58704,-50,4,2,1,80,0,1
78022,-50,4,2,1,80,0,0
78098,-50,4,2,1,80,0,1
96280,-50,4,2,1,80,0,0

[Colours]
Combo1 : 0,112,193
Combo2 : 0,130,0
Combo3 : 17,255,255
Combo4 : 206,206,208
Combo5 : 90,220,3

[HitObjects]
172,56,523,6,0,P|152:108|180:196,1,147.2,6|0,0:0|0:0,0:0:0:0:
256,192,977,1,0,0:0:0:0:
340,328,1129,2,0,P|360:276|332:188,1,147.2,10|0,0:0|0:0,0:0:0:0:
256,192,1583,1,0,0:0:0:0:
192,256,1735,5,2,0:0:0:0:
116,208,1886,2,0,L|36:208,1,73.6
280,308,2341,2,0,B|384:308|384:308|416:344,1,147.2,10|0,0:0|0:0,0:0:0:0:
120,108,2947,6,0,P|172:88|260:116,1,147.2,2|0,0:0|0:0,0:0:0:0:
256,192,3401,1,0,0:0:0:0:
392,276,3553,2,0,P|340:296|252:268,1,147.2,10|0,0:0|0:0,0:0:0:0:
256,192,4007,1,0,0:0:0:0:
328,136,4159,5,2,0:0:0:0:
404,184,4310,2,0,L|484:184,1,73.6
224,296,4765,2,0,B|117:296|117:296|80:336,1,147.2,10|0,0:0|0:0,0:0:0:0:
292,256,5371,6,0,P|364:240|408:156,1,147.2,2|0,0:0|0:0,0:0:0:0:
428,104,5826,1,0,0:0:0:0:
312,164,5977,2,0,P|354:222|424:237,1,147.2,10|0,0:0|0:0,0:0:0:0:
428,104,6432,1,0,0:0:0:0:
312,164,6583,6,0,P|272:168|224:164,1,73.6,2|0,0:0|0:0,0:0:0:0:
28,68,7038,1,0,0:0:0:0:
28,68,7189,2,0,P|108:64|192:72,1,147.2,10|0,0:0|0:0,0:0:0:0:
324,316,7795,6,0,P|252:300|208:216,1,147.2,2|0,0:0|0:0,0:0:0:0:
188,164,8250,1,0,0:0:0:0:
304,224,8401,2,0,P|262:282|192:297,1,147.2,10|0,0:0|0:0,0:0:0:0:
188,164,8856,1,0,0:0:0:0:
108,160,9007,6,0,P|68:156|20:160,1,73.6,2|8,0:0|0:0,0:0:0:0:
304,224,9462,1,0,0:0:0:0:
304,224,9613,2,0,P|352:176|356:84,1,147.2,10|0,0:0|0:0,0:0:0:0:
188,164,10219,6,0,P|112:156|24:172,1,147.2,6|0,0:0|0:0,0:0:0:0:
0,256,10674,1,0,0:0:0:0:
116,296,10826,2,0,P|192:304|280:288,1,147.2,10|0,0:0|0:0,0:0:0:0:
304,224,11280,1,0,0:0:0:0:
188,92,11432,6,0,P|184:128|188:165,1,73.6,2|0,0:0|0:0,0:0:0:0:
396,312,11886,1,2,0:0:0:0:
396,312,12038,2,0,P|404:240|392:160,1,147.2,8|0,0:0|0:0,0:0:0:0:
188,92,12644,6,0,P|232:160|312:148,1,147.2,2|0,0:0|0:0,0:0:0:0:
340,96,13098,1,0,0:0:0:0:
312,20,13250,2,0,L|420:20,1,73.6,10|0,0:0|0:0,0:0:0:0:
262,92,13553,2,0,L|166:92,1,73.6
188,92,13856,5,2,0:0:0:0:
136,32,14007,2,0,B|96:72|112:120|112:120|56:112,1,147.2,0|2,0:0|0:0,0:0:0:0:
122,201,14462,2,0,P|171:177|188:92,1,147.2,8|0,0:0|0:0,0:0:0:0:
394,120,15068,6,0,P|350:80|250:112,1,147.2,2|0,0:0|0:0,0:0:0:0:
321,153,15523,1,0,0:0:0:0:
396,276,15674,2,0,L|396:196,1,73.6,10|0,0:0|0:0,0:0:0:0:
321,153,15977,2,0,L|321:227,1,73.6
396,275,16280,5,2,0:0:0:0:
396,275,16432,2,0,B|352:324|304:313|304:313|296:359,1,147.2,0|2,0:0|0:0,0:0:0:0:
321,227,16886,2,0,P|244:250|216:310,1,147.2,8|0,0:0|0:0,0:0:0:0:
80,124,17492,6,0,P|144:120|188:40,1,147.2,2|0,0:0|0:0,0:0:0:0:
108,48,17947,1,0,0:0:0:0:
80,124,18098,2,0,P|76:161|81:198,1,73.6,10|0,0:0|0:0,0:0:0:0:
194,128,18401,2,0,P|195:91|188:56,1,73.6,0|0,0:0|0:0,0:0:0:0:
120,272,18704,6,0,P|80:268|44:272,1,73.6,2|8,0:0|0:0,0:0:0:0:
304,224,19159,1,2,0:0:0:0:
304,224,19311,1,8,0:0:0:0:
372,267,19462,1,8,0:0:0:0:
434,215,19614,1,8,0:3:0:0:
403,140,19765,1,4,0:3:0:0:
322,146,19916,6,0,P|292:84|352:36,1,147.2,6|0,0:0|0:0,0:0:0:0:
420,60,20371,1,2,0:0:0:0:
404,140,20522,2,0,L|464:288,1,147.2,8|2,0:0|0:0,0:0:0:0:
372,268,20977,1,0,0:0:0:0:
300,232,21129,6,0,L|204:236,1,73.6,0|2,0:0|0:0,0:0:0:0:
100,168,21432,1,0,0:0:0:0:
100,168,21583,1,0,0:0:0:0:
100,168,21735,2,0,L|252:160,1,147.2,10|0,0:0|0:0,0:0:0:0:
92,328,22341,6,0,B|192:324|192:324|207:347|232:356,1,147.2,2|0,0:0|0:0,0:0:0:0:
260,280,22795,1,2,0:0:0:0:
328,324,22947,2,0,P|336:252|276:200,1,147.2,8|2,0:0|0:0,0:0:0:0:
260,280,23401,1,0,0:0:0:0:
260,280,23553,6,0,B|236:272|216:252|216:252|100:256,1,147.2,0|0,0:0|0:0,0:0:0:0:
40,256,24007,1,0,0:0:0:0:
120,176,24159,2,0,L|276:168,1,147.2,10|2,0:0|0:0,0:0:0:0:
56,132,24765,6,0,B|26:189|68:232|68:232|32:263,1,147.2,2|0,0:0|0:0,0:0:0:0:
120,176,25219,1,2,0:0:0:0:
192,116,25371,2,0,P|200:76|196:36,1,73.6,8|0,0:0|0:0,0:0:0:0:
120,176,25674,2,0,P|112:216|116:256,1,73.6,2|0,0:0|0:0,0:0:0:0:
96,60,25977,6,0,P|56:56|8:64,1,73.6,0|2,0:0|0:0,0:0:0:0:
120,176,26280,1,0,0:0:0:0:
120,176,26432,1,0,0:0:0:0:
288,268,26583,2,0,P|244:316|152:288,1,147.2,10|0,0:0|0:0,0:0:0:0:
224,120,27038,1,0,0:0:0:0:
224,120,27113,1,0,0:0:0:0:
224,120,27189,6,0,P|189:174|232:258,1,147.2,2|0,0:0|0:0,0:0:0:0:
272,188,27644,1,2,0:0:0:0:
305,114,27795,2,0,P|282:62|197:43,1,147.2,8|2,0:0|0:0,0:0:0:0:
144,100,28250,1,0,0:0:0:0:
224,120,28401,6,0,L|212:288,1,147.2
208,348,28856,1,0,0:0:0:0:
292,200,29007,2,0,B|284:308|284:308|296:336|292:372,1,147.2,10|0,0:0|0:0,0:0:0:0:
208,348,29462,1,0,0:0:0:0:
392,320,29613,6,0,P|416:251|384:184,1,147.2,2|0,0:0|0:0,0:0:0:0:
292,200,30068,1,0,0:0:0:0:
216,256,30219,2,0,L|116:260,1,73.6,8|0,0:0|0:0,0:0:0:0:
40,128,30522,1,0,0:0:0:0:
112,192,30674,1,0,0:0:0:0:
176,120,30826,6,0,L|249:117,1,73.6,2|0,0:0|0:0,0:0:0:0:
249,117,31129,1,0,0:0:0:0:
292,200,31280,1,0,0:0:0:0:
292,200,31356,1,0,0:0:0:0:
292,200,31432,2,0,L|456:196,1,147.2,10|2,0:0|0:0,0:0:0:0:
220,324,32038,6,0,B|120:316|120:316|72:340,1,147.2,2|0,0:0|0:0,0:0:0:0:
60,192,32492,1,0,0:0:0:0:
136,248,32644,2,0,L|236:256,1,73.6,8|0,0:0|0:0,0:0:0:0:
292,200,32947,1,2,0:0:0:0:
292,200,33098,1,0,0:0:0:0:
372,252,33250,5,0,0:0:0:0:
428,176,33401,2,0,L|420:76,1,73.6,0|0,0:0|0:0,0:0:0:0:
464,16,33704,1,0,0:0:0:0:
344,84,33856,2,0,P|280:108|212:56,1,147.2,10|0,0:0|0:0,0:0:0:0:
428,176,34462,6,0,L|436:249,2,73.6,2|0|0,0:0|0:0|0:0,0:0:0:0:
340,216,34916,1,0,0:0:0:0:
248,240,35068,2,0,P|208:248|156:244,1,73.6,10|0,0:0|0:0,0:0:0:0:
20,192,35371,2,0,P|60:184|112:188,1,73.6,2|0,0:0|0:0,0:0:0:0:
156,104,35674,6,0,P|164:144|160:196,1,73.6,2|0,0:0|0:0,0:0:0:0:
108,332,35977,2,0,P|100:292|104:240,1,73.6
164,176,36280,1,10,0:0:0:0:
164,176,36432,1,0,0:0:0:0:
244,120,36583,1,0,0:0:0:0:
260,216,36735,1,0,0:0:0:0:
260,216,36810,1,0,0:0:0:0:
260,216,36886,6,0,P|264:256|260:304,1,73.6,2|0,0:0|0:0,0:0:0:0:
352,328,37189,1,0,0:0:0:0:
352,328,37341,1,0,0:0:0:0:
400,248,37492,2,0,P|444:244|500:252,1,73.6,10|0,0:0|0:0,0:0:0:0:
448,152,37795,1,2,0:0:0:0:
392,72,37947,1,0,0:0:0:0:
296,84,38098,5,2,0:0:0:0:
140,40,38250,2,0,L|212:60,1,73.6,8|0,0:0|0:0,0:0:0:0:
208,148,38553,1,2,0:0:0:0:
52,104,38704,2,0,L|124:124,1,73.6,8|0,0:0|0:0,0:0:0:0:
232,228,39007,2,0,P|272:200|288:148,1,73.6,0|0,0:0|0:0,0:0:0:0:
136,216,39310,6,0,P|156:292|244:324,1,147.2,6|0,0:0|0:0,0:0:0:0:
232,228,39765,1,0,0:0:0:0:
364,264,39916,2,0,B|416:292|416:348|416:348|464:332,1,147.2,10|0,0:0|0:0,0:0:0:0:
336,340,40371,1,2,0:0:0:0:
336,340,40522,6,0,P|296:308|284:268,1,73.6
260,152,40826,2,0,P|300:184|312:224,1,73.6
176,304,41129,2,0,B|122:216|122:216|56:200,1,147.2,10|0,0:0|0:0,0:0:0:0:
220,236,41583,1,2,0:0:0:0:
220,236,41735,6,0,L|182:172,1,73.6
112,108,42038,1,0,0:0:0:0:
208,92,42189,1,0,0:0:0:0:
112,108,42341,2,0,L|8:88,1,73.6,10|0,0:0|0:0,0:0:0:0:
208,92,42644,1,0,0:0:0:0:
208,92,42795,1,0,0:0:0:0:
340,64,42947,6,0,L|328:160,2,73.6,2|0|0,0:0|0:0|0:0,0:0:0:0:
392,204,43401,1,2,0:0:0:0:
440,120,43553,2,0,L|528:152,1,73.6,8|0,0:0|0:0,0:0:0:0:
392,204,43856,2,0,L|322:178,1,73.6,0|0,0:0|0:0,0:0:0:0:
468,236,44159,6,0,B|428:296|371:281|371:281|371:330,1,147.2,2|0,0:0|0:0,0:0:0:0:
296,368,44613,1,0,0:0:0:0:
292,280,44765,2,0,P|316:222|393:204,1,147.2,10|0,0:0|0:0,0:0:0:0:
378,354,45219,1,2,0:0:0:0:
378,354,45371,6,0,L|370:266,1,73.6
332,192,45674,1,0,0:0:0:0:
292,280,45826,1,0,0:0:0:0:
208,232,45977,2,0,P|168:240|128:264,1,73.6,10|0,0:0|0:0,0:0:0:0:
60,308,46280,1,0,0:0:0:0:
96,148,46432,1,2,0:0:0:0:
96,148,46583,6,0,P|73:181|62:227,1,73.6,0|0,0:0|0:0,0:0:0:0:
60,308,46886,1,0,0:0:0:0:
60,308,47038,1,0,0:0:0:0:
216,308,47189,2,0,L|116:308,2,73.6,10|0|0,0:0|0:0|0:0,0:0:0:0:
300,356,47644,1,0,0:0:0:0:
364,284,47795,6,0,P|368:244|344:188,1,73.6,2|0,0:0|0:0,0:0:0:0:
320,124,48098,1,0,0:0:0:0:
320,124,48250,1,2,0:0:0:0:
416,124,48401,2,0,L|500:124,1,73.6,8|0,0:0|0:0,0:0:0:0:
361,44,48704,2,0,L|288:44,1,73.6
416,124,49007,6,0,P|396:192|312:224,1,147.2,2|0,0:0|0:0,0:0:0:0:
244,184,49462,1,0,0:0:0:0:
320,124,49613,2,0,B|340:96|340:96|212:80,1,147.2,10|0,0:0|0:0,0:0:0:0:
108,136,50068,1,2,0:0:0:0:
108,136,50219,6,0,L|212:148,1,73.6
100,60,50522,1,0,0:0:0:0:
24,120,50674,1,0,0:0:0:0:
60,208,50826,2,0,L|164:220,1,73.6,10|0,0:0|0:0,0:0:0:0:
220,176,51129,1,0,0:0:0:0:
304,224,51280,1,2,0:0:0:0:
304,224,51432,6,0,P|328:280|284:368,1,147.2,0|0,0:0|0:0,0:0:0:0:
204,336,51886,1,0,0:0:0:0:
148,256,52038,2,0,B|40:280|40:280|32:324,1,147.2,10|0,0:0|0:0,0:0:0:0:
52,184,52492,1,0,0:0:0:0:
164,92,52644,6,0,L|68:92,2,73.6,2|0|0,0:0|0:0|0:0,0:0:0:0:
248,140,53098,1,2,0:0:0:0:
340,116,53250,2,0,L|359:44,1,73.6,8|0,0:0|0:0,0:0:0:0:
248,140,53553,1,0,0:0:0:0:
248,140,53704,1,0,0:0:0:0:
412,152,53856,6,0,B|384:204|324:196|324:196|308:244,1,147.2,2|0,0:0|0:0,0:0:0:0:
248,140,54310,1,0,0:0:0:0:
228,212,54462,2,0,L|204:304,1,73.6,10|0,0:0|0:0,0:0:0:0:
280,340,54765,1,0,0:0:0:0:
364,296,54916,1,2,0:0:0:0:
316,212,55068,6,0,L|336:140,1,73.6
467,73,55371,2,0,P|432:63|396:68,1,73.6
228,212,55674,2,0,B|256:112|256:112|212:64,1,147.2,10|0,0:0|0:0,0:0:0:0:
316,212,56129,1,2,0:0:0:0:
364,296,56280,6,0,L|420:380,1,73.6,0|0,0:0|0:0,0:0:0:0:
228,212,56583,2,0,L|187:150,1,73.6
72,124,56886,1,8,0:0:0:0:
224,52,57038,1,0,0:0:0:0:
228,212,57189,1,8,0:0:0:0:
392,104,57341,1,0,0:0:0:0:
388,116,57795,6,0,L|356:220,1,92,2|0,0:0|0:0,0:0:0:0:
332,256,58250,2,0,L|288:164,1,92,2|0,0:0|0:0,0:0:0:0:
280,136,58704,6,0,B|200:112|160:180|160:180|80:160|72:76,1,276,4|0,0:0|0:0,0:0:0:0:
72,248,59310,2,0,P|45:284|42:330,1,92,8|0,0:0|0:0,0:0:0:0:
248,232,59613,2,0,B|324:248|360:200|360:200|404:292,1,184
280,136,60068,1,0,0:0:0:0:
420,156,60219,6,8,L|464:252,1,92,0|0,0:0|0:0,0:0:0:0:
500,328,60522,1,8,0:0:0:0:
280,136,60674,2,0,L|324:232,1,92
360,308,60977,1,0,0:0:0:0:
128,280,61129,6,0,P|192:336|300:304,1,184,2|0,0:0|0:0,0:0:0:0:
332,220,61583,1,0,0:0:0:0:
224,236,61735,2,0,B|180:180|180:180|128:224|56:184,1,184,8|0,0:0|0:0,0:0:0:0:
116,92,62189,2,0,P|136:52|184:24,2,92,0|0|0,0:0|0:0|0:0,0:0:0:0:
276,160,62644,6,0,L|196:104,1,92
364,132,62947,1,8,0:0:0:0:
292,80,63098,2,0,L|212:24,1,92
380,52,63401,1,0,0:0:0:0:
384,220,63553,6,0,B|456:200|452:116|452:116|496:136,1,184,2|0,0:0|0:0,0:0:0:0:
364,132,64007,1,0,0:0:0:0:
292,224,64159,2,0,P|316:284|364:308,1,92,8|0,0:0|0:0,0:0:0:0:
364,132,64462,1,0,0:0:0:0:
292,224,64613,1,0,0:0:0:0:
252,68,64765,1,0,0:0:0:0:
180,160,64916,1,0,0:0:0:0:
64,68,65068,6,0,L|104:172,1,92
180,160,65371,1,8,0:0:0:0:
216,28,65522,2,0,L|256:132,2,92,0|0|0,0:0|0:0|0:0,0:0:0:0:
332,128,65977,6,0,P|376:104|400:44,1,92,2|0,0:0|0:0,0:0:0:0:
180,160,66280,2,0,P|136:184|112:244,1,92,0|0,0:0|0:0,0:0:0:0:
240,72,66583,2,0,P|216:28|156:4,1,92,8|0,0:0|0:0,0:0:0:0:
276,220,66886,2,0,P|300:264|360:288,1,92,0|0,0:0|0:0,0:0:0:0:
148,284,67189,5,2,0:0:0:0:
148,284,67341,1,8,0:0:0:0:
360,84,67644,1,0,0:0:0:0:
492,200,67795,2,0,L|416:132,1,92,8|0,0:0|0:0,0:0:0:0:
432,32,68098,1,8,0:0:0:0:
355,165,68250,1,8,0:0:0:0:
240,72,68401,6,0,B|280:140|280:140|297:88|360:84,1,184,4|0,0:0|0:0,0:0:0:0:
355,165,68856,1,0,0:0:0:0:
168,112,69007,2,0,L|216:191,1,92,8|0,0:0|0:0,0:0:0:0:
164,288,69310,1,0,0:0:0:0:
104,196,69462,1,0,0:0:0:0:
168,112,69613,2,0,P|112:92|64:100,1,92
164,288,69916,6,0,L|224:208,1,92,0|0,0:0|0:0,0:0:0:0:
276,120,70219,1,8,0:0:0:0:
296,276,70371,2,0,L|356:196,1,92
408,108,70674,1,0,0:0:0:0:
240,336,70826,6,0,B|308:380|356:328|356:328|408:360,1,184,2|0,0:0|0:0,0:0:0:0:
440,252,71280,1,0,0:0:0:0:
296,276,71432,2,0,P|240:252|192:268,2,92,8|0|0,0:0|0:0|0:0,0:0:0:0:
240,336,71886,1,0,0:0:0:0:
144,240,72038,2,0,P|132:192|156:128,1,92
332,192,72341,6,0,L|208:192,1,92
144,240,72644,1,8,0:0:0:0:
332,96,72795,2,0,L|208:96,1,92
144,144,73098,1,0,0:0:0:0:
4,40,73250,6,0,B|28:88|64:108|64:108|44:160|76:196,1,184,2|0,0:0|0:0,0:0:0:0:
60,280,73704,1,0,0:0:0:0:
144,144,73856,2,0,B|168:64|100:28|100:28|156:24,1,184,8|0,0:0|0:0,0:0:0:0:
64,108,74310,1,0,0:0:0:0:
216,64,74462,1,0,0:0:0:0:
212,204,74613,1,0,0:0:0:0:
228,352,74765,6,0,P|256:320|268:244,1,92
212,204,75068,1,8,0:0:0:0:
348,264,75219,2,0,P|334:223|274:175,1,92
212,204,75522,1,0,0:0:0:0:
0,324,75674,6,0,P|80:336|144:260,1,184,2|0,0:0|0:0,0:0:0:0:
212,204,76129,1,0,0:0:0:0:
52,248,76280,2,0,P|80:328|176:352,1,184,8|0,0:0|0:0,0:0:0:0:
144,264,76735,1,0,0:0:0:0:
144,264,76810,1,0,0:0:0:0:
144,264,76886,2,0,L|128:176,2,46,12|0|0,0:0|0:0|0:0,0:0:0:0:
264,356,77189,6,0,L|276:248,1,92,8|8,0:0|0:0,0:0:0:0:
296,28,77492,2,0,L|284:136,1,92,8|8,0:0|0:0,0:0:0:0:
280,192,77795,1,8,0:0:0:0:
280,192,77947,1,8,0:0:0:0:
416,168,78098,6,0,P|408:244|336:320,1,184,4|2,0:0|0:0,0:0:0:0:
264,356,78553,1,0,0:0:0:0:
72,272,78704,2,0,P|120:264|172:272,1,92,8|0,0:0|0:0,0:0:0:0:
264,356,79007,2,0,P|216:364|164:356,1,92
192,164,79310,5,0,0:0:0:0:
192,164,79462,1,0,0:0:0:0:
176,268,79613,2,0,P|168:316|176:368,1,92
304,208,79916,1,8,0:0:0:0:
304,208,80068,2,0,P|312:160|304:108,1,92,0|0,0:0|0:0,0:0:0:0:
256,280,80371,1,0,0:0:0:0:
256,280,80447,1,0,0:0:0:0:
256,280,80522,6,0,P|304:296|360:272,1,92
384,132,80826,1,2,0:0:0:0:
304,208,80977,1,0,0:0:0:0:
208,156,81129,2,0,L|108:136,2,92,8|0|0,0:0|0:0|0:0,0:0:0:0:
304,208,81583,1,0,0:0:0:0:
188,256,81735,6,0,L|88:236,2,92,0|8|0,0:0|0:0|0:0,0:0:0:0:
248,348,82189,1,0,0:0:0:0:
344,264,82341,1,8,0:0:0:0:
248,348,82492,1,0,0:0:0:0:
248,348,82644,2,0,L|132:328,1,92
144,168,82947,6,0,B|76:213|96:286|96:286|48:260,1,184,0|2,0:0|0:0,0:0:0:0:
188,256,83401,1,0,0:0:0:0:
284,200,83553,2,0,L|384:204,1,92,8|0,0:0|0:0,0:0:0:0:
464,268,83856,1,0,0:0:0:0:
464,268,84007,1,0,0:0:0:0:
412,128,84159,6,0,P|408:84|428:40,1,92
372,216,84462,2,0,P|328:220|284:200,1,92
280,92,84765,1,8,0:0:0:0:
192,156,84916,1,0,0:0:0:0:
112,80,85068,2,0,L|-8:44,1,92
80,292,85371,6,0,P|132:232|68:148,1,184
60,220,85826,1,0,0:0:0:0:
96,368,85977,2,0,B|165:342|152:272|152:272|208:300,1,184,8|0,0:0|0:0,0:0:0:0:
172,200,86432,1,0,0:0:0:0:
172,200,86583,6,0,L|268:248,1,92,0|8,0:0|0:0,0:0:0:0:
176,120,86886,2,0,L|272:168,1,92,0|0,0:0|0:0,0:0:0:0:
356,152,87189,1,8,0:0:0:0:
339,42,87341,1,8,0:0:0:0:
230,22,87492,1,8,0:3:0:0:
176,120,87644,1,4,0:3:0:0:
252,200,87795,6,0,P|228:256|168:284,1,92,4|0,0:0|0:0,0:0:0:0:
96,204,88098,2,0,L|80:112,1,92,2|0,0:0|0:0,0:0:0:0:
44,264,88401,2,0,B|108:312|168:244|168:244|168:300,1,184,8|0,0:0|0:0,0:0:0:0:
80,352,88856,1,0,0:0:0:0:
96,204,89007,6,0,P|160:164|248:232,1,184
252,328,89462,1,0,0:0:0:0:
168,244,89613,1,8,0:0:0:0:
168,244,89765,2,0,L|160:336,2,92,0|0|0,0:0|0:0|0:0,0:0:0:0:
232,152,90219,6,0,P|288:140|328:152,1,92
168,244,90522,1,2,0:0:0:0:
280,252,90674,1,0,0:0:0:0:
168,244,90826,2,0,B|108:241|40:218|40:218|49:255|69:269,1,184,8|0,0:0|0:0,0:0:0:0:
144,340,91280,1,0,0:0:0:0:
280,252,91432,5,0,0:0:0:0:
364,184,91583,2,0,L|464:156,1,92,8|0,0:0|0:0,0:0:0:0:
256,144,91886,1,0,0:0:0:0:
340,76,92037,2,0,L|440:48,1,92,8|0,0:0|0:0,0:0:0:0:
232,32,92341,1,0,0:0:0:0:
232,32,92492,1,0,0:0:0:0:
232,32,92644,6,0,P|180:52|144:104,1,92,4|0,0:0|0:0,0:0:0:0:
80,208,92947,1,2,0:0:0:0:
160,284,93098,1,0,0:0:0:0:
252,220,93250,2,0,P|304:212|364:200,1,92,8|0,0:0|0:0,0:0:0:0:
416,104,93553,2,0,P|372:88|320:96,1,92,0|0,0:0|0:0,0:0:0:0:
224,120,93856,5,0,0:0:0:0:
160,284,94007,2,0,L|176:192,1,92,8|0,0:0|0:0,0:0:0:0:
136,88,94310,1,0,0:0:0:0:
72,252,94461,2,0,L|88:160,1,92,8|0,0:0|0:0,0:0:0:0:
48,56,94765,1,8,0:0:0:0:
48,56,94916,1,0,0:0:0:0:
4,168,95068,5,8,0:0:0:0:
72,252,95219,2,0,L|12:292,2,46,0|0|8,0:0|0:0|0:0,0:0:0:0:
148,172,95522,1,0,0:0:0:0:
160,284,95674,2,0,L|172:328,2,46,8|0|0,0:0|0:0|0:0,0:0:0:0:
148,172,95977,2,0,P|208:184|252:216,1,92,8|0,0:0|0:0,0:0:0:0:
160,284,96280,6,0,L|84:364,1,92,8|8,0:0|0:0,0:0:0:0:
256,340,96583,2,0,L|319:273,1,92,8|8,0:0|0:0,0:0:0:0:
160,284,96886,1,8,0:0:0:0:
352,284,97038,1,8,0:0:0:0:
256,340,97189,1,8,0:0:0:0:
256,144,97341,1,8,0:0:0:0:
