osu file format v13

[General]
AudioFilename: Hiroyuki Sawano - aLIEz.mp3
AudioLeadIn: 1000
PreviewTime: 57795
Countdown: 0
SampleSet: None
StackLeniency: 0.7
Mode: 0
LetterboxInBreaks: 0
WidescreenStoryboard: 0

[Editor]
Bookmarks: 67375
DistanceSpacing: 1
BeatDivisor: 4
GridSize: 4
TimelineZoom: 1.100001

[Metadata]
Title:aLIEz (TV size)
TitleUnicode:aLIEz (TV size)
Artist:SawanoHiroyuki[nZk]:mizuki
ArtistUnicode:SawanoHiroyuki[nZk]:mizuki
Creator:Asphyxia
Version:Normal
Source:アルドノア・ゼロ
Tags:澤野弘之 ALDNOAH. ZERO Mizuki Ending ED 2 Liiraye short version
BeatmapID:497558
BeatmapSetID:211586

[Difficulty]
HPDrainRate:4
CircleSize:3.5
OverallDifficulty:4
ApproachRate:5
SliderMultiplier:0.9
SliderTickRate:2

[Events]
//Background and Video events
0,0,"AZ.jpg",0,0
Video,9610,"sup.avi"
//Break Periods
//Storyboard Layer 0 (Background)
//Storyboard Layer 1 (Fail)
//Storyboard Layer 2 (Pass)
//Storyboard Layer 3 (Foreground)
//Storyboard Sound Samples
//Background Colour Transformations
3,100,163,162,255

[TimingPoints]
523,606.060606060606,4,2,1,55,1,0
523,-50,4,2,1,55,0,0
29007,-50,4,2,1,55,0,0
29613,-50,4,2,1,55,0,0
57341,-50,4,2,1,30,0,0
57795,-76.9230769230769,4,2,1,55,0,0
58098,-76.9230769230769,4,2,1,25,0,0
58250,-76.9230769230769,4,2,1,55,0,0
58553,-76.9230769230769,4,2,1,25,0,0
58704,-50,4,2,1,65,0,1
67795,-50,4,2,1,65,0,0
68098,-50,4,2,1,75,0,0
68250,-50,4,2,1,90,0,0
68401,-50,4,2,1,65,0,1
97341,-50,4,2,1,35,0,0

[Colours]
Combo1 : 255,128,128
Combo2 : 255,116,49
Combo3 : 85,170,255
Combo4 : 176,176,176

[HitObjects]
88,56,523,6,0,L|72:152,1,90,4|2,0:0|2:0,0:0:0:0:
68,236,1129,2,0,L|82:324,1,90,8|8,0:0|1:0,0:0:0:0:
164,364,1735,2,0,P|224:372|288:316,1,135,2|0,0:0|0:0,0:0:0:0:
304,292,2341,2,0,P|352:284|392:304,1,90,8|0,0:0|0:0,0:0:0:0:
476,280,2947,6,0,P|492:236|440:112,1,180,8|8,1:0|0:0,0:0:0:0:
364,80,3856,1,10,1:0:0:0:
280,116,4159,2,0,P|232:128|184:116,1,90,2|0,0:0|0:0,0:0:0:0:
120,68,4765,2,0,P|102:113|119:164,1,90,8|2,0:0|0:0,0:0:0:0:
152,232,5371,6,0,L|136:340,1,90,8|2,1:0|0:0,0:0:0:0:
224,348,5977,2,0,L|237:258,1,90,10|10,0:0|1:0,0:0:0:0:
328,252,6583,2,0,L|314:341,2,90,0|0|8,0:0|0:0|0:0,0:0:0:0:
480,156,7795,6,0,P|480:112|456:64,1,90,8|2,1:0|0:0,0:0:0:0:
376,92,8401,2,0,P|376:136|394:177,1,90,8|2,0:0|0:0,0:0:0:0:
444,252,9007,1,0,0:0:0:0:
428,292,9159,2,0,L|288:348,1,135,8|8,0:0|0:0,0:0:0:0:
212,340,9916,1,2,0:0:0:0:
122,328,10219,6,0,P|149:274|264:264,2,180,6|10|0,0:0|0:0|0:0,0:0:0:0:
36,360,11735,1,0,0:0:0:0:
12,272,12038,2,0,L|24:168,1,90,8|0,0:0|0:0,0:0:0:0:
80,112,12644,6,0,P|109:153|108:204,1,90,2|0,0:0|0:0,0:0:0:0:
184,240,13250,2,0,P|221:215|265:214,1,90,8|8,0:0|1:0,0:0:0:0:
352,232,13856,2,0,P|416:240|488:208,1,135,0|0,0:0|0:0,0:0:0:0:
488,172,14462,2,0,L|496:80,1,90,8|0,0:0|0:0,0:0:0:0:
432,20,15068,6,0,L|340:40,1,90,2|2,0:0|0:0,0:0:0:0:
256,64,15674,1,8,0:0:0:0:
324,124,15977,1,8,1:0:0:0:
240,156,16280,2,0,P|220:200|232:288,1,135,2|2,0:0|0:0,0:0:0:0:
256,320,16886,2,0,P|216:352|168:352,1,90,8|0,0:0|0:0,0:0:0:0:
92,332,17492,6,0,L|84:242,1,90,2|2,0:0|0:0,0:0:0:0:
164,204,18098,2,0,L|156:114,1,90,8|8,0:0|1:0,0:0:0:0:
216,48,18704,2,0,L|268:56,2,45,2|8|0,0:0|0:0|0:0,0:0:0:0:
156,114,19310,2,0,L|104:122,2,45,8|8|8,0:0|0:0|1:0,0:0:0:0:
196,132,19765,1,8,1:0:0:0:
224,168,19916,6,0,P|232:216|188:288,1,135,4|8,0:0|1:0,0:0:0:0:
156,320,20523,2,0,L|256:352,1,90,8|8,0:0|1:0,0:0:0:0:
284,356,20977,1,8,1:0:0:0:
328,348,21129,2,0,L|413:320,1,90,0|0,0:0|0:0,0:0:0:0:
488,272,21735,2,0,P|500:220|472:152,1,90,8|0,0:0|0:0,0:0:0:0:
468,148,22189,1,0,0:0:0:0:
428,124,22341,6,0,L|436:48,2,45,2|0|0,0:0|0:0|0:0,0:0:0:0:
356,176,22947,1,8,0:0:0:0:
308,100,23250,1,8,1:0:0:0:
268,180,23553,2,0,P|298:243|401:254,1,180,0|8,0:0|0:0,0:0:0:0:
472,204,24462,1,0,0:0:0:0:
492,292,24765,6,0,L|476:360,2,45,2|0|0,0:0|0:0|0:0,0:0:0:0:
472,204,25371,2,0,P|452:160|468:84,1,90,8|8,0:0|1:0,0:0:0:0:
468,76,25826,1,8,1:0:0:0:
428,52,25977,2,0,L|360:60,2,45,0|8|0,0:0|1:0|0:0,0:0:0:0:
396,136,26583,2,0,P|352:132|312:100,1,90,8|0,0:0|0:0,0:0:0:0:
268,32,27189,6,0,L|280:204,1,135,8|0,1:0|0:0,0:0:0:0:
280,212,27795,2,0,P|240:248|172:252,1,90,8|8,0:0|1:0,0:0:0:0:
160,256,28250,1,8,1:0:0:0:
116,248,28401,2,0,P|65:253|25:289,2,90,8|8|8,0:0|1:0|0:0,0:0:0:0:
272,340,29613,6,0,B|308:312|308:312|380:344|444:304,1,180,4|8,0:0|0:0,0:0:0:0:
424,220,30523,2,0,L|416:176,2,45,8|8|0,1:0|1:0|0:0,0:0:0:0:
508,256,31129,1,0,0:0:0:0:
437,308,31432,1,8,0:0:0:0:
352,276,31735,1,0,0:0:0:0:
288,212,32038,6,0,P|232:196|148:252,1,135,2|8,0:0|1:0,0:0:0:0:
148,268,32644,1,8,0:0:0:0:
60,272,32947,1,8,1:0:0:0:
1,200,33250,2,0,P|59:176|98:186,1,90,0|0,0:0|0:0,0:0:0:0:
128,188,33704,1,0,0:0:0:0:
172,172,33856,2,0,P|188:136|180:64,1,90,8|0,0:0|0:0,0:0:0:0:
108,44,34462,6,0,L|300:68,1,180,2|8,0:0|0:0,0:0:0:0:
376,76,35371,1,8,1:0:0:0:
428,152,35674,2,0,L|440:208,2,45,0|8|0,0:0|1:0|0:0,0:0:0:0:
340,164,36280,2,0,P|293:183|232:168,1,90,8|0,0:0|0:0,0:0:0:0:
172,212,36886,6,0,P|131:193|86:196,1,90,2|0,0:0|0:0,0:0:0:0:
12,148,37492,2,0,P|4:77|24:40,1,90,8|8,0:0|1:0,0:0:0:0:
48,36,37947,1,8,1:0:0:0:
136,28,38250,2,0,L|224:52,1,90,8|8,0:0|1:0,0:0:0:0:
264,68,38704,1,8,0:0:0:0:
188,232,39310,6,0,B|232:244|232:244|292:228,1,90,6|0,0:0|0:0,0:0:0:0:
356,192,39916,2,0,P|396:180|456:188,1,90,8|8,0:0|1:0,0:0:0:0:
488,192,40371,2,0,L|504:88,1,90,8|8,1:0|1:0,0:0:0:0:
472,68,40826,1,0,0:0:0:0:
384,88,41129,2,0,P|385:41|408:3,2,90,8|0|2,0:0|0:0|0:0,0:0:0:0:
304,160,42038,5,0,0:0:0:0:
220,124,42341,2,0,L|128:136,1,90,8|8,0:0|1:0,0:0:0:0:
60,188,42947,2,0,P|40:208|32:236,2,45,0|8|0,0:0|0:0|0:0,0:0:0:0:
116,260,43553,2,0,L|120:316,2,45,8|0|0,0:0|0:0|0:0,0:0:0:0:
180,200,44159,6,0,P|232:184|288:208,1,90,2|0,0:0|0:0,0:0:0:0:
316,268,44765,2,0,L|428:256,1,90,8|8,0:0|1:0,0:0:0:0:
448,248,45219,1,8,1:0:0:0:
488,232,45371,2,0,P|500:184|480:144,1,90,0|0,0:0|0:0,0:0:0:0:
412,92,45977,1,8,0:0:0:0:
380,176,46280,1,0,0:0:0:0:
304,224,46583,6,0,P|214:226|145:156,1,180,2|8,0:0|0:0,0:0:0:0:
64,144,47492,1,8,1:0:0:0:
28,228,47795,2,0,P|20:272|36:316,1,90,0|0,0:0|0:0,0:0:0:0:
68,348,48250,2,0,L|216:364,1,135,8|0,1:0|0:0,0:0:0:0:
296,360,49007,6,0,P|324:312|320:264,1,90,4|0,0:0|0:0,0:0:0:0:
260,212,49613,2,0,P|235:175|231:130,1,90,8|8,0:0|1:0,0:0:0:0:
236,84,50068,2,0,P|176:60|108:88,1,135,8|0,1:0|0:0,0:0:0:0:
44,144,50826,1,8,0:0:0:0:
112,200,51129,1,0,0:0:0:0:
40,252,51432,6,0,P|78:285|120:288,1,90,2|0,0:0|0:0,0:0:0:0:
196,252,52038,1,8,0:0:0:0:
248,324,52341,1,0,0:0:0:0:
324,272,52644,2,0,B|364:268|364:268|412:292|412:292|452:288,1,135,0|8,0:0|1:0,0:0:0:0:
492,268,53250,2,0,L|508:172,1,90,0|0,0:0|0:0,0:0:0:0:
508,88,53856,6,0,P|451:107|417:184,1,135,2|8,0:0|1:0,0:0:0:0:
416,216,54462,2,0,P|372:236|328:228,1,90,8|8,0:0|1:0,0:0:0:0:
292,212,54916,2,0,P|232:200|160:240,1,135,8|0,1:0|0:0,0:0:0:0:
104,296,55674,1,8,0:0:0:0:
48,228,55977,1,0,0:0:0:0:
40,140,56280,6,0,B|102:108|159:148|159:148|228:137|247:94|255:46|225:8,1,315,2|8,0:0|1:0,0:0:0:0:
104,88,58704,6,0,L|120:288,1,180,4|8,0:0|0:0,0:0:0:0:
188,324,59613,2,0,P|256:340|356:276,1,180,8|0,1:0|0:0,0:0:0:0:
376,204,60522,1,8,0:0:0:0:
464,228,60826,1,0,0:0:0:0:
439,142,61129,6,0,P|366:117|293:177,1,180,4|8,0:0|0:0,0:0:0:0:
304,268,62038,2,0,P|240:252|211:142,1,180,8|0,1:0|0:0,0:0:0:0:
228,64,62947,1,8,0:0:0:0:
140,88,63250,1,8,0:0:0:0:
48,107,63553,6,0,P|52:56|71:23,2,90,4|0|8,0:0|0:0|0:0,0:0:0:0:
112,172,64462,2,0,L|84:360,1,180,8|0,1:0|0:0,0:0:0:0:
172,368,65371,2,0,P|188:320|168:260,1,90,8|0,0:0|0:0,0:0:0:0:
232,208,65977,5,4,0:0:0:0:
316,240,66280,1,0,0:0:0:0:
396,196,66583,2,0,L|496:180,1,90,12|8,0:0|1:0,0:0:0:0:
508,96,67189,2,0,L|456:76,1,45,4|8,0:0|0:0,0:0:0:0:
376,64,67644,1,8,1:0:0:0:
332,72,67795,2,0,L|288:80,1,45,12|8,0:0|0:0,0:0:0:0:
248,100,68098,2,0,L|235:143,1,45,8|8,0:0|0:0,0:0:0:0:
224,188,68401,6,0,P|176:208|48:152,1,180,4|8,0:0|0:0,0:0:0:0:
20,248,69310,2,0,L|44:368,1,90,8|0,1:0|0:0,0:0:0:0:
124,360,69916,1,0,0:0:0:0:
160,332,70068,1,0,0:0:0:0:
204,316,70219,2,0,P|252:320|304:336,1,90,8|0,0:0|0:0,0:0:0:0:
384,336,70826,6,0,P|444:308|464:196,1,180,4|8,0:0|0:0,0:0:0:0:
412,136,71735,2,0,L|400:72,2,45,8|0|0,1:0|0:0|0:0,0:0:0:0:
392,176,72189,1,8,1:0:0:0:
376,216,72341,2,0,L|384:260,2,45,0|0|8,0:0|0:0|0:0,0:0:0:0:
292,188,72947,1,0,0:0:0:0:
228,248,73250,6,0,P|167:280|73:228,1,180,4|8,0:0|0:0,0:0:0:0:
157,181,74159,2,0,P|162:270|89:326,2,180,8|0|0,1:0|0:0|0:0,0:0:0:0:
80,136,75674,6,0,P|116:104|168:96,1,90,6|2,0:0|0:0,0:0:0:0:
244,120,76280,2,0,P|280:152|332:160,1,90,12|2,0:0|0:0,0:0:0:0:
364,164,76735,1,8,1:0:0:0:
408,152,76886,2,0,L|460:136,2,45,12|8|8,0:0|1:0|0:0,0:0:0:0:
420,240,77492,2,0,L|364:256,1,45,8|8,0:0|0:0,0:0:0:0:
340,280,77795,2,0,L|352:332,1,45,8|8,0:0|0:0,0:0:0:0:
320,356,78098,5,4,0:0:0:0:
244,312,78401,1,0,0:0:0:0:
172,368,78704,2,0,P|153:311|204:231,1,135,8|8,0:0|1:0,0:0:0:0:
208,208,79310,2,0,P|224:164|192:68,1,135,0|0,0:0|0:0,0:0:0:0:
160,72,79916,2,0,L|52:84,1,90,8|0,0:0|0:0,0:0:0:0:
8,148,80522,6,0,P|44:168|108:156,1,90,4|0,0:0|0:0,0:0:0:0:
180,188,81129,2,0,P|220:164|280:176,1,90,8|8,0:0|1:0,0:0:0:0:
304,188,81583,2,0,L|428:172,1,90,8|8,1:0|0:0,0:0:0:0:
452,244,82189,1,0,0:0:0:0:
452,244,82341,2,0,L|348:256,1,90,8|0,0:0|0:0,0:0:0:0:
272,256,82947,6,0,P|264:300|288:352,1,90,4|0,0:0|0:0,0:0:0:0:
368,328,83553,2,0,L|160:364,1,180,8|0,0:0|0:0,0:0:0:0:
100,352,84462,1,0,0:0:0:0:
24,304,84765,2,0,P|64:268|110:261,1,90,8|8,0:0|0:0,0:0:0:0:
188,280,85371,6,0,P|211:318|212:362,1,90,10|0,1:0|0:0,0:0:0:0:
300,344,85977,2,0,P|344:300|448:308,1,135,8|8,0:0|1:0,0:0:0:0:
460,296,86583,2,0,L|492:204,1,90,2|2,0:0|0:0,0:0:0:0:
492,164,87038,1,8,1:0:0:0:
468,124,87189,2,0,L|400:132,2,45,8|8|8,0:0|0:0|0:0,0:0:0:0:
468,36,87795,6,0,P|416:20|368:44,1,90,4|0,0:0|0:0,0:0:0:0:
320,96,88401,2,0,P|280:120|224:116,1,90,8|8,0:0|1:0,0:0:0:0:
196,108,88856,2,0,L|100:128,1,90,8|8,1:0|1:0,0:0:0:0:
68,208,89462,1,0,0:0:0:0:
68,208,89613,2,0,P|124:216|168:192,1,90,8|0,0:0|0:0,0:0:0:0:
224,148,90219,5,4,0:0:0:0:
304,184,90522,1,0,0:0:0:0:
232,236,90826,1,8,0:0:0:0:
408,204,91432,1,0,0:0:0:0:
440,288,91735,1,2,0:0:0:0:
356,324,92038,2,0,P|385:363|408:376,2,45,0|8|8,0:0|1:0|0:0,0:0:0:0:
320,244,92644,6,0,P|313:182|404:113,1,180,4|8,0:0|0:0,0:0:0:0:
472,60,93553,1,8,1:0:0:0:
384,32,93856,2,0,P|340:16|284:32,1,90,0|0,0:0|0:0,0:0:0:0:
268,56,94310,2,0,P|232:76|172:64,1,90,8|0,1:0|0:0,0:0:0:0:
148,48,94765,1,8,0:0:0:0:
256,192,95068,12,4,97341,0:0:0:0:
