osu file format v14

[General]
AudioFilename: 03. aLIEz.mp3
AudioLeadIn: 1512
PreviewTime: 57609
Countdown: 0
SampleSet: Soft
StackLeniency: 0.9
Mode: 0
LetterboxInBreaks: 0
WidescreenStoryboard: 0

[Editor]
Bookmarks: 412,10109,19806,29427,39200,57685,65867,68291,77988,87685,97382,107079,116776,126397,133746,136170,145261,155564,165261,174958,184730,201549,204049,213746,223443,233139
DistanceSpacing: 1
BeatDivisor: 2
GridSize: 4
TimelineZoom: 2.6

[Metadata]
Title:aLIEz
TitleUnicode:aLIEz
Artist:SawanoHiroyuki[nZk]:mizuki
ArtistUnicode:SawanoHiroyuki[nZk]:mizuki
Creator:Reiki
Version:Easy
Source:アルドノア・ゼロ
Tags:Aldnoah.Zero Aldnoah Zero Ending ED Sawano Hiroyuki 澤野 弘之 pkhg Atsuro Full Ver Version LixRei
BeatmapID:663739
BeatmapSetID:288185

[Difficulty]
HPDrainRate:2
CircleSize:3
OverallDifficulty:2
ApproachRate:2.5
SliderMultiplier:1.9
SliderTickRate:4

[Events]
//Background and Video events
0,0,"Zero-BG.jpg",0,0
//Break Periods
2,78264,86261
2,184930,200200
//Storyboard Layer 0 (Background)
//Storyboard Layer 1 (Fail)
//Storyboard Layer 2 (Pass)
//Storyboard Layer 3 (Foreground)
//Storyboard Sound Samples

[TimingPoints]
488.476581610719,606.060606060606,4,2,1,40,1,0
29579,-100,4,2,1,25,0,0
29655,-100,4,2,1,40,0,0
58670,-100,4,2,1,75,0,1
65943,-100,4,2,1,65,0,0
68367,-100,4,2,1,75,0,1
77988,-100,4,2,1,65,0,0
78064,-100,4,2,1,75,0,1
78139,-100,4,2,1,60,0,0
87761,-100,4,2,1,40,0,0
97458,-100,4,2,1,30,0,0
97533,-100,4,2,1,40,0,0
126549,-100,4,2,1,75,0,1
133821,-100,4,2,1,65,0,0
136246,-100,4,2,1,75,0,1
144730,-100,4,2,1,70,0,0
145943,-100,4,2,1,50,0,1
145980,-100,4,2,1,50,0,0
155033,-100,4,2,1,40,0,0
155639,-100,4,2,1,50,0,0
165336,-100,4,2,1,55,0,1
165374,-100,4,2,1,55,0,0
174427,-100,4,2,1,45,0,0
175033,-100,4,2,1,60,0,1
175071,-100,4,2,1,50,0,0
201700,-100,4,2,1,30,0,0
204124,-100,4,2,1,75,0,1
213783,-100,4,2,1,75,0,0
213821,-100,4,2,1,75,0,1
223480,-100,4,2,1,75,0,0
223518,-100,4,2,1,75,0,1
242874,-100,4,2,1,75,0,0
242912,-100,4,2,1,75,0,1
242950,-100,4,2,1,75,0,0

[Colours]
Combo1 : 124,124,124
Combo2 : 0,191,0
Combo3 : 100,100,255
Combo4 : 251,187,38
Combo5 : 255,66,70

[HitObjects]
40,72,488,6,0,P|136:56|220:88,1,190,4|8,0:0|0:0,0:0:0:0:
292,264,1700,2,0,P|380:296|472:280,1,190,2|8,0:0|0:0,0:0:0:0:
452,92,2912,6,0,B|364:52|364:52|272:36,1,190,2|8,0:0|0:0,0:0:0:0:
116,124,4124,2,0,B|204:164|204:164|296:180,1,190,2|8,0:0|0:0,0:0:0:0:
447,290,5336,6,0,P|471:250|471:202,2,95,2|0|8,0:0|0:0|0:0,0:0:0:0:
264,300,6549,2,0,B|224:274|196:232|196:232|145:220|104:192,1,190,0|8,0:0|0:0,0:0:0:0:
228,48,7761,6,0,P|276:40|328:48,1,95,2|0,0:0|0:0,0:0:0:0:
416,46,8367,2,0,B|468:128|484:228,2,190,8|0|8,0:0|0:0|0:0,0:0:0:0:
227,48,10185,6,0,B|175:130|159:230,1,190,4|8,0:0|0:0,0:0:0:0:
304,348,11397,1,2,0:0:0:0:
480,276,12003,1,8,0:0:0:0:
332,156,12609,6,0,B|256:100|256:100|160:84,1,190,2|8,0:0|0:0,0:0:0:0:
72,112,13518,1,0,0:0:0:0:
36,200,13821,2,0,B|112:256|112:256|208:272,1,190,2|8,0:0|0:0,0:0:0:0:
388,332,15033,6,0,L|468:160,1,190,2|8,0:0|0:0,0:0:0:0:
448,68,15943,1,0,0:0:0:0:
356,36,16246,2,0,L|276:208,1,190,2|8,0:0|0:0,0:0:0:0:
100,280,17458,6,0,P|52:204|104:132,1,190,2|8,0:0|0:0,0:0:0:0:
164,56,18367,2,0,P|216:128|168:204,1,190,0|0,0:0|0:0,0:0:0:0:
192,296,19276,2,0,P|228:326|276:340,1,95,8|8,0:0|0:0,0:0:0:0:
368,340,19882,5,4,0:3:0:0:
484,192,20488,1,8,0:0:0:0:
328,84,21094,2,0,P|236:64|136:88,1,190,2|8,0:0|0:0,0:0:0:0:
52,252,22306,6,0,P|144:272|244:248,1,190,2|8,0:0|0:0,0:0:0:0:
280,168,23215,2,0,P|304:128|340:96,1,95,0|2,0:0|0:0,0:0:0:0:
428,132,23821,2,0,P|463:100|487:60,2,95,0|8|0,0:0|0:0|0:0,0:0:0:0:
380,216,24730,6,0,B|316:288|212:308,2,190,2|8|2,0:0|0:0|0:0,0:0:0:0:
464,48,26549,1,8,0:0:0:0:
276,60,27155,6,0,B|228:64|180:48|180:48|152:80|100:100,1,190,2|8,0:0|0:0,0:0:0:0:
32,276,28367,2,0,B|80:272|128:288|128:288|156:256|208:236,1,190,2|8,0:0|0:0,0:0:0:0:
388,188,29579,6,0,P|428:212|476:224,2,95,4|0|8,0:0|0:0|0:0,0:0:0:0:
208,128,30791,2,0,P|208:81|195:33,2,95,2|0|8,0:0|0:0|0:0,0:0:0:0:
92,280,32003,6,0,P|51:302|16:338,2,95,2|0|8,0:0|0:0|0:0,0:0:0:0:
184,256,32912,2,0,B|272:220|272:220|368:228,1,190,0|0,0:0|0:0,0:0:0:0:
464,216,33821,1,8,0:0:0:0:
360,56,34427,6,0,B|264:48|264:48|177:84,1,190,2|8,0:0|0:0,0:0:0:0:
109,261,35639,1,2,0:0:0:0:
286,329,36245,1,0,0:0:0:0:
354,152,36852,6,0,L|444:120,2,95,2|0|8,0:0|0:0|0:0,0:0:0:0:
164,152,38064,2,0,L|74:184,2,95,2|0|8,0:0|0:0|0:0,0:0:0:0:
320,44,39276,6,0,B|404:88|404:88|460:180,1,190,4|8,0:0|0:0,0:0:0:0:
420,260,40185,2,0,B|336:216|336:216|286:134,1,190,0|0,0:0|0:0,0:0:0:0:
216,72,41094,2,0,P|172:52|120:48,1,95,8|0,0:0|0:0,0:0:0:0:
40,88,41700,6,0,P|84:172|168:224,1,190,2|8,0:0|0:0,0:0:0:0:
256,244,42609,1,0,0:0:0:0:
349,222,42912,2,0,P|428:171|472:87,1,190,2|8,0:0|0:0,0:0:0:0:
288,40,44124,6,0,B|195:73|195:5|96:40,1,190,2|8,0:0|0:0,0:0:0:0:
36,104,45033,2,0,P|80:192|168:236,1,190,0|0,0:0|0:0,0:0:0:0:
248,268,45943,2,0,P|276:228|290:181,1,95,8|0,0:0|0:0,0:0:0:0:
356,117,46549,6,0,P|327:78|314:33,2,95,2|0|8,0:0|0:0|0:0,0:0:0:0:
428,176,47458,1,0,0:0:0:0:
472,260,47761,2,0,P|400:324|304:356,1,190,2|8,0:0|0:0,0:0:0:0:
124,340,48973,6,0,P|68:268|64:172,1,190,2|8,0:0|0:0,0:0:0:0:
112,88,49882,1,0,0:0:0:0:
208,80,50185,2,0,B|264:76|264:76|324:40|392:80,1,190,2|8,0:0|0:0,0:0:0:0:
452,152,51094,1,0,0:0:0:0:
392,228,51397,6,0,B|312:280|312:280|212:312,1,190,2|8,0:0|0:0,0:0:0:0:
128,328,52306,1,0,0:0:0:0:
52,272,52609,2,0,B|132:220|132:220|232:188,1,190,2|8,0:0|0:0,0:0:0:0:
404,132,53821,5,2,0:0:0:0:
368,320,54427,1,8,0:0:0:0:
184,276,55033,2,0,P|128:200|165:117,1,190,2|8,0:0|0:0,0:0:0:0:
344,64,56246,6,0,P|388:48|436:52,1,95,2|0,0:0|0:0,0:0:0:0:
492,127,56852,2,0,P|448:143|400:139,1,95,8|8,0:0|0:0,0:0:0:0:
48,336,58670,6,0,P|144:344|248:308,1,190,4|8,0:0|0:0,0:0:0:0:
252,224,59579,2,0,P|342:196|436:204,1,190,0|0,0:0|0:0,0:0:0:0:
492,284,60488,1,8,0:0:0:0:
304,316,61094,6,0,P|200:304|148:240,1,190,4|8,0:0|0:0,0:0:0:0:
148,146,62003,2,0,P|210:77|303:71,1,190,0|0,0:0|0:0,0:0:0:0:
396,52,62912,2,0,B|432:84|432:84|460:124,1,95,8|0,0:0|0:0,0:0:0:0:
458,217,63518,6,0,B|432:308|432:308|348:356,1,190,4|8,0:0|0:0,0:0:0:0:
256,348,64427,1,0,0:0:0:0:
162,355,64730,2,0,B|80:308|80:308|54:217,1,190,2|8,0:0|0:0,0:0:0:0:
188,80,65943,6,0,P|224:48|272:32,2,95,2|0|8,0:0|0:0|0:0,0:0:0:0:
144,164,66852,1,0,0:0:0:0:
164,256,67155,2,0,P|240:308|328:276,1,190,2|8,0:0|0:0,0:0:0:0:
368,192,68064,1,0,0:0:0:0:
326,105,68367,6,0,P|239:76|164:128,2,190,4|8|2,0:0|0:0|0:0,0:0:0:0:
432,264,70185,2,0,P|400:300|352:324,1,95,8|0,0:0|0:0,0:0:0:0:
264,332,70791,6,0,P|240:244|144:208,1,190,4|8,0:0|0:0,0:0:0:0:
120,296,71700,2,0,P|35:259|11:170,1,190,0|0,0:0|0:0,0:0:0:0:
48,84,72609,1,8,0:0:0:0:
236,48,73215,6,0,P|328:32|412:72,1,190,4|8,0:0|0:0,0:0:0:0:
452,160,74124,2,0,P|360:176|276:136,1,190,0|0,0:0|0:0,0:0:0:0:
180,120,75033,2,0,P|144:88|92:68,1,95,8|0,0:0|0:0,0:0:0:0:
44,144,75639,5,2,0:0:0:0:
132,312,76246,1,8,0:0:0:0:
312,256,76852,2,0,B|356:204|356:204|424:176,2,142.5,2|0|0,0:0|0:0|0:0,0:0:0:0:
284,348,78064,5,4,0:0:0:0:
136,88,87761,6,0,B|190:101|190:101|258:85|310:144,1,190,4|8,0:3|0:0,0:0:0:0:
348,232,88670,2,0,P|372:276|404:308,2,95,0|2|0,0:0|0:0|0:0,0:0:0:0:
252,220,89579,2,0,P|211:249|168:263,1,95,8|0,0:0|0:0,0:0:0:0:
92,316,90185,6,0,B|40:236|40:236|24:136,1,190,2|8,0:0|0:0,0:0:0:0:
184,36,91397,1,2,0:0:0:0:
332,156,92003,2,0,B|372:180|372:180|404:220,1,95,8|0,0:0|0:0,0:0:0:0:
452,300,92609,5,2,0:0:0:0:
264,328,93215,2,0,P|224:352|168:360,2,95,8|0|2,0:0|0:0|0:0,0:0:0:0:
380,176,94427,2,0,P|412:140|428:92,1,95,8|0,0:0|0:0,0:0:0:0:
332,93,95033,6,0,L|240:61,1,95,2|0,0:0|0:0,0:0:0:0:
148,80,95639,2,0,L|58:48,2,95,8|0|2,0:0|0:0|0:0,0:0:0:0:
196,164,96549,1,0,0:0:0:0:
272,224,96852,1,8,0:0:0:0:
456,268,97458,6,0,P|504:192|460:112,1,190,4|8,0:0|0:0,0:0:0:0:
270,111,98670,2,0,P|225:190|273:267,1,190,2|8,0:0|0:0,0:0:0:0:
100,340,99882,6,0,L|44:264,1,95,2|0,0:0|0:0,0:0:0:0:
24,172,100488,1,8,0:0:0:0:
96,112,100791,2,0,B|160:40|160:40|256:28,1,190,0|0,0:0|0:0,0:0:0:0:
348,24,101700,1,8,0:0:0:0:
476,164,102306,5,2,0:0:0:0:
364,320,102912,2,0,B|272:352|272:352|176:360,2,190,8|2|8,0:0|0:0|0:0,0:0:0:0:
364,130,104730,6,0,B|272:98|272:98|179:90,1,190,2|8,0:0|0:0,0:0:0:0:
84,96,105639,1,0,0:0:0:0:
20,164,105943,2,0,B|112:196|112:196|204:203,1,190,2|8,0:0|0:0,0:0:0:0:
392,232,107155,5,4,0:0:0:0:
472,60,107761,1,8,0:0:0:0:
380,36,108064,2,0,P|286:26|192:48,1,190,0|0,0:0|0:0,0:0:0:0:
104,72,108973,2,0,P|72:108|52:152,1,95,8|0,0:0|0:0,0:0:0:0:
88,240,109579,6,0,P|68:282|36:318,2,95,2|0|8,0:0|0:0|0:0,0:0:0:0:
168,188,110488,1,2,0:0:0:0:
260,164,110791,2,0,P|352:188|440:156,1,190,2|8,0:0|0:0,0:0:0:0:
443,62,111700,1,0,0:0:0:0:
347,74,112003,6,0,L|352:268,2,190,2|8|2,0:0|0:0|0:0,0:0:0:0:
157,74,113821,2,0,L|152:168,1,95,8|0,0:0|0:0,0:0:0:0:
112,256,114427,6,0,P|148:288|196:304,2,95,2|0|8,0:0|0:0|0:0,0:0:0:0:
36,200,115336,1,0,0:0:0:0:
12,108,115639,2,0,P|80:40|176:36,1,190,2|8,0:0|0:0,0:0:0:0:
340,120,116852,6,0,P|432:112|497:45,2,190,4|8|2,0:0|0:0|0:0,0:0:0:0:
251,85,118367,2,0,P|202:81|158:97,2,95,0|8|0,0:0|0:0|0:0,0:0:0:0:
268,180,119276,6,0,B|228:268|228:268|156:328,1,190,2|8,0:0|0:0,0:0:0:0:
64,352,120185,1,2,0:0:0:0:
48,260,120488,2,0,B|88:172|88:172|160:112,1,190,2|8,0:0|0:0,0:0:0:0:
340,52,121700,6,0,P|400:128|432:220,1,190,2|8,0:0|0:0,0:0:0:0:
376,292,122609,2,0,P|316:216|284:124,1,190,0|0,0:0|0:0,0:0:0:0:
232,48,123518,2,0,P|188:36|136:32,1,95,8|0,0:0|0:0,0:0:0:0:
78,105,124124,6,0,P|122:117|174:121,1,95,2|0,0:0|0:0,0:0:0:0:
264,140,124730,1,8,0:0:0:0:
352,176,125033,1,8,0:0:0:0:
64,352,126549,6,0,P|28:264|52:172,1,190,4|8,0:0|0:0,0:0:0:0:
84,84,127458,2,0,B|176:48|176:108|276:84,1,190,0|0,0:0|0:0,0:0:0:0:
356,40,128367,1,0,0:0:0:0:
496,168,128973,6,0,B|415:218|415:218|320:240,1,190,4|8,0:0|0:0,0:0:0:0:
244,184,129882,2,0,B|151:205|151:205|70:255,1,190,0|0,0:0|0:0,0:0:0:0:
20,336,130791,2,0,L|116:348,1,95,8|0,0:0|0:0,0:0:0:0:
208,356,131397,6,0,P|280:288|376:264,1,190,4|8,0:0|0:0,0:0:0:0:
444,212,132306,2,0,P|480:184|512:140,2,95,0|2|0,0:0|0:0|0:0,0:0:0:0:
360,172,133215,1,8,0:0:0:0:
176,120,133821,6,0,P|92:128|76:220,1,190,2|8,0:0|0:0,0:0:0:0:
220,344,135033,1,2,0:0:0:0:
404,304,135639,2,0,P|448:280|472:236,1,95,8|8,0:0|0:0,0:0:0:0:
476,148,136246,6,0,B|432:116|388:120|388:120|360:108|360:108|324:112|324:112|292:96,1,190,4|8,0:0|0:0,0:0:0:0:
203,99,137155,2,0,P|108:120|20:168,1,190,0|0,0:0|0:0,0:0:0:0:
20,256,138064,1,8,0:0:0:0:
180,360,138670,6,0,P|264:316|360:288,1,190,4|8,0:0|0:0,0:0:0:0:
448,268,139579,2,0,P|388:192|300:164,1,190,0|0,0:0|0:0,0:0:0:0:
208,160,140488,2,0,L|116:180,1,95,8|0,0:0|0:0,0:0:0:0:
39,238,141094,6,0,P|11:146|75:94,1,190,4|8,0:0|0:0,0:0:0:0:
168,68,142003,1,0,0:0:0:0:
356,104,142609,2,0,B|396:80|396:80|444:68,2,95,0|8|0,0:0|0:0|0:0,0:0:0:0:
276,156,143518,5,2,0:0:0:0:
102,232,144124,1,8,0:0:0:0:
121,43,144730,1,8,0:0:0:0:
432,260,145943,6,0,L|252:320,1,190,4|8,0:0|0:0,0:0:0:0:
168,272,146852,2,0,L|76:300,2,95,0|2|0,0:0|0:0|0:0,0:0:0:0:
256,232,147761,1,8,0:0:0:0:
400,108,148367,6,0,P|436:80|468:40,2,95,2|0|8,0:0|0:0|0:0,0:0:0:0:
312,148,149276,2,0,P|220:172|128:160,1,190,2|0,0:0|0:0,0:0:0:0:
36,128,150185,1,8,0:0:0:0:
213,61,150791,5,2,0:0:0:0:
400,40,151397,1,8,0:0:0:0:
428,228,152003,1,2,0:0:0:0:
240,248,152609,1,8,0:0:0:0:
64,176,153215,6,0,P|32:216|20:260,2,95,0|0|8,0:0|0:0|0:0,0:0:0:0:
240,100,154427,2,0,P|272:60|284:16,2,95,2|0|12,0:0|0:0|0:0,0:0:0:0:
144,264,155639,6,0,P|220:320|312:320,1,190,4|8,0:0|0:0,0:0:0:0:
400,284,156549,2,0,P|472:208|432:152,1,190,0|0,0:0|0:0,0:0:0:0:
360,88,157458,1,8,0:0:0:0:
172,76,158064,6,0,L|88:28,2,95,2|0|8,0:0|0:0|0:0,0:0:0:0:
216,160,158973,2,0,B|300:208|300:208|364:276,1,190,0|0,0:0|0:0,0:0:0:0:
420,352,159882,1,8,0:0:0:0:
456,164,160488,6,0,P|476:84|388:56,1,190,2|8,0:0|0:0,0:0:0:0:
200,54,161700,2,0,P|116:78|134:163,1,190,2|8,0:0|0:0,0:0:0:0:
248,316,162912,6,0,B|208:342|208:342|160:356,1,95,4|0,0:3|0:0,0:0:0:0:
84,304,163518,2,0,P|28:228|8:136,2,190,8|2|8,0:0|0:0|0:0,0:0:0:0:
268,252,165336,6,0,P|296:163|351:80,1,190,4|8,0:0|0:0,0:0:0:0:
438,118,166246,2,0,P|462:74|474:27,2,95,0|0|0,0:0|0:0|0:0,0:0:0:0:
396,204,167155,2,0,P|371:247|359:294,1,95,8|0,0:0|0:0,0:0:0:0:
280,344,167761,6,0,B|235:357|235:357|184:352,1,95,2|0,0:0|0:0,0:0:0:0:
96,324,168367,1,8,0:0:0:0:
68,232,168670,2,0,P|32:144|96:84,1,190,0|0,0:0|0:0,0:0:0:0:
180,48,169579,2,0,B|224:34|224:34|276:40,1,95,8|0,0:0|0:0,0:0:0:0:
368,56,170185,5,2,0:0:0:0:
464,220,170791,2,0,B|400:296|296:296,1,190,8|0,0:0|0:0,0:0:0:0:
208,268,171700,2,0,P|172:296|124:316,2,95,0|8|0,0:0|0:0|0:0,0:0:0:0:
252,184,172609,6,0,P|288:156|336:136,2,95,2|0|8,0:0|0:0|0:0,0:0:0:0:
68,224,173821,2,0,P|24:140|84:84,1,190,0|4,0:0|0:0,0:0:0:0:
273,84,175033,6,0,P|334:147|288:223,1,190,4|8,0:0|0:0,0:0:0:0:
260,316,175943,2,0,B|164:308|164:308|80:268,1,190,0|0,0:0|0:0,0:0:0:0:
28,188,176852,1,8,0:0:0:0:
148,40,177458,6,0,P|196:28|244:32,1,95,10|0,0:0|0:0,0:0:0:0:
332,52,178064,1,8,0:0:0:0:
416,96,178367,2,0,B|476:171|474:286,1,190,0|0,0:0|0:0,0:0:0:0:
468,368,179276,1,0,0:0:0:0:
280,360,179882,5,2,0:0:0:0:
112,272,180488,2,0,P|68:188|136:152,1,190,8|0,0:0|0:0,0:0:0:0:
228,144,181397,2,0,P|254:105|276:60,2,95,0|8|0,0:0|0:0|0:0,0:0:0:0:
228,238,182306,6,0,P|254:277|275:320,1,95,2|0,0:0|0:0,0:0:0:0:
370,320,182912,2,0,P|414:232|478:160,2,190,8|2|8,0:0|0:0|0:0,0:0:0:0:
184,356,184730,5,4,0:0:0:0:
256,192,201700,12,0,202912,0:0:0:0:
464,48,204124,6,0,P|368:40|264:76,1,190,4|8,0:0|0:0,0:0:0:0:
260,160,205033,2,0,P|170:188|76:180,1,190,0|0,0:0|0:0,0:0:0:0:
20,100,205942,1,8,0:0:0:0:
208,68,206548,6,0,P|312:80|364:144,1,190,4|8,0:0|0:0,0:0:0:0:
364,238,207457,2,0,P|302:307|209:313,1,190,0|0,0:0|0:0,0:0:0:0:
116,332,208366,2,0,B|80:300|80:300|52:260,1,95,8|0,0:0|0:0,0:0:0:0:
54,167,208972,6,0,B|80:76|80:76|164:28,1,190,4|8,0:0|0:0,0:0:0:0:
256,36,209881,1,0,0:0:0:0:
350,29,210184,2,0,B|432:76|432:76|458:167,1,190,2|8,0:0|0:0,0:0:0:0:
324,304,211397,6,0,P|288:336|240:352,2,95,2|0|8,0:0|0:0|0:0,0:0:0:0:
368,220,212306,1,0,0:0:0:0:
348,128,212609,2,0,P|272:76|184:108,1,190,2|8,0:0|0:0,0:0:0:0:
144,192,213518,1,8,0:0:0:0:
108,280,213822,6,0,B|161:289|199:266|199:266|229:265|229:265|260:245|260:245|296:246,1,190,4|0,0:0|0:0,0:0:0:0:
376,284,214731,2,0,P|452:223|510:141,1,190,0|0,0:0|0:0,0:0:0:0:
472,60,215640,1,8,0:0:0:0:
284,36,216246,6,0,P|227:112|153:179,1,190,4|8,0:0|0:0,0:0:0:0:
83,236,217155,2,0,P|170:278|261:264,1,190,0|0,0:0|0:0,0:0:0:0:
304,184,218064,2,0,P|343:158|377:125,1,95,8|0,0:0|0:0,0:0:0:0:
424,40,218670,6,0,P|489:110|454:185,1,190,4|8,0:0|0:0,0:0:0:0:
392,256,219579,1,0,0:0:0:0:
204,284,220185,2,0,B|178:323|140:354,2,95,0|0|0,0:0|0:0|0:0,0:0:0:0:
248,200,221094,5,0,0:0:0:0:
308,20,221700,1,0,0:0:0:0:
136,104,222306,2,0,P|72:132|20:188,2,142.5,8|0|8,0:0|0:0|0:0,0:0:0:0:
230,104,223518,6,0,P|328:112|408:160,1,190,4|8,0:0|0:0,0:0:0:0:
484,332,224730,2,0,L|388:348,1,95,2|0,0:0|0:0,0:0:0:0:
303,308,225336,2,0,L|207:292,1,95,8|0,0:0|0:0,0:0:0:0:
116,304,225943,6,0,P|40:264|84:192,1,190,2|8,0:0|0:0,0:0:0:0:
160,132,226852,2,0,P|180:88|212:56,2,95,0|2|0,0:0|0:0|0:0,0:0:0:0:
180,224,227761,1,8,0:0:0:0:
352,304,228367,6,0,P|428:264|384:192,1,190,2|8,0:0|0:0,0:0:0:0:
220,100,229579,2,0,P|180:70|156:28,2,95,2|0|8,0:0|0:0|0:0,0:0:0:0:
408,80,230791,5,2,0:0:0:0:
256,196,231397,2,0,B|188:264|188:264|108:312,2,190,8|2|8,0:0|0:0|0:0,0:0:0:0:
316,124,232912,1,8,0:0:0:0:
280,36,233215,6,0,B|200:84|200:84|132:152,1,190,4|8,0:0|0:0,0:0:0:0:
56,328,234427,1,2,0:0:0:0:
244,324,235033,2,0,P|267:282|300:244,1,95,8|0,0:0|0:0,0:0:0:0:
368,184,235639,6,0,P|398:147|421:106,2,95,2|0|0,0:0|0:0|0:0,0:0:0:0:
177,184,236852,2,0,P|146:147|123:106,2,95,2|0|8,0:0|0:0|0:0,0:0:0:0:
276,348,238064,6,0,P|230:365|184:372,1,95,2|0,0:0|0:0,0:0:0:0:
104,320,238670,2,0,P|40:248|32:156,1,190,8|2,0:0|0:0,0:0:0:0:
72,72,239579,1,0,0:0:0:0:
160,40,239882,1,8,0:0:0:0:
348,44,240488,6,0,P|436:84|484:164,1,190,2|8,0:0|0:0,0:0:0:0:
348,295,241700,2,0,P|260:255|212:175,1,190,10|8,0:0|0:0,0:0:0:0:
64,60,242912,5,4,0:0:0:0:
