osu file format v14

[General]
AudioFilename: aLIEz (English Cover by Sapphire).mp3
AudioLeadIn: 0
PreviewTime: 339
Countdown: 0
SampleSet: Normal
StackLeniency: 0.7
Mode: 0
LetterboxInBreaks: 1
WidescreenStoryboard: 1

[Editor]
DistanceSpacing: 1.1
BeatDivisor: 4
GridSize: 4
TimelineZoom: 1

[Metadata]
Title:aLIEz (Parody/Cover by Sapphire)
TitleUnicode:aLIEz (Parody/Cover by Sapphire)
Artist:SawanoHiroyuki[nZk]:mizuki
ArtistUnicode:SawanoHiroyuki[nZk]:mizuki
Creator:Lanturn
Version:Advanced
Source:アルドノア・ゼロ
Tags:Aldnoah Zero TV Size
BeatmapID:1434067
BeatmapSetID:566775

[Difficulty]
HPDrainRate:4
CircleSize:3.5
OverallDifficulty:4
ApproachRate:6
SliderMultiplier:1.79999990463257
SliderTickRate:1

[Events]
//Background and Video events
0,0,"yP0qG2w.jpg",0,0
//Break Periods
//Storyboard Layer 0 (Background)
//Storyboard Layer 1 (Fail)
//Storyboard Layer 2 (Pass)
//Storyboard Layer 3 (Foreground)
//Storyboard Sound Samples

[TimingPoints]
491,606.060606060606,4,1,1,70,1,0
10187,-100,4,1,1,50,0,0
29581,-100,4,1,1,60,0,0
48975,-100,4,1,1,80,0,1
68369,-100,4,1,1,80,0,0

[Colours]
Combo1 : 128,255,255
Combo2 : 255,128,255
Combo3 : 18,124,255
Combo4 : 255,128,192

[HitObjects]
92,112,491,6,0,B|96:184|96:184|156:240,1,134.999992847443,4|2,0:2|0:1,0:0:0:0:
184,256,1097,2,0,L|300:256,1,89.9999952316285,8|2,0:0|0:1,0:0:0:0:
312,224,1551,2,0,P|360:216|408:232,1,89.9999952316285,2|2,0:0|0:1,0:0:0:0:
488,344,2309,1,8,0:1:0:0:
420,112,2915,6,0,B|416:184|416:184|356:240,1,134.999992847443,2|0,0:1|0:1,0:0:0:0:
328,256,3521,2,0,L|212:256,1,89.9999952316285,8|2,0:0|0:1,0:0:0:0:
200,224,3975,2,0,P|152:216|104:232,1,89.9999952316285,2|2,0:0|0:1,0:0:0:0:
24,344,4733,1,8,0:1:0:0:
136,80,5339,6,0,L|44:160,1,89.9999952316285,2|2,0:1|0:0,0:0:0:0:
136,304,5945,2,0,L|44:224,1,89.9999952316285,8|2,0:0|0:1,0:0:0:0:
152,192,6551,2,0,L|312:192,1,134.999992847443,0|2,0:0|0:0,0:0:0:0:
336,192,7157,1,8,0:1:0:0:
376,80,7763,6,0,L|468:160,1,89.9999952316285,2|2,0:0|0:0,0:0:0:0:
376,304,8369,2,0,L|468:224,1,89.9999952316285,8|2,0:0|0:0,0:0:0:0:
360,192,8975,2,0,L|200:192,1,134.999992847443,0|2,0:0|0:0,0:0:0:0:
189,227,9581,2,0,L|109:227,1,44.9999976158143,8|8,0:0|0:0,0:0:0:0:
108,191,9884,2,0,L|28:191,1,44.9999976158143,2|2,0:0|0:0,0:0:0:0:
28,224,10187,6,0,P|40:300|96:340,1,134.999992847443,4|2,0:2|0:0,0:0:0:0:
132,332,10794,1,8,0:0:0:0:
224,296,11097,1,2,0:0:0:0:
224,296,11248,2,0,L|340:296,2,89.9999952316285,2|2|2,0:0|0:0|0:0,0:0:0:0:
180,268,12006,2,0,P|172:212|184:172,1,89.9999952316285,8|0,0:0|0:0,0:0:0:0:
272,112,12612,6,0,L|416:112,1,134.999992847443,2|2,0:0|0:0,0:0:0:0:
440,148,13218,2,0,P|432:216|448:264,1,89.9999952316285,8|2,0:0|0:0,0:0:0:0:
408,276,13672,2,0,B|368:296|368:296|296:284,2,89.9999952316285,2|2|2,0:0|0:0|0:0,0:0:0:0:
448,244,14430,1,8,0:0:0:0:
360,200,14733,1,0,0:0:0:0:
240,280,15036,6,0,P|180:288|116:236,1,134.999992847443,2|2,0:0|0:0,0:0:0:0:
100,204,15642,2,0,L|100:100,1,89.9999952316285,8|2,0:0|0:0,0:0:0:0:
132,76,16097,2,0,P|184:72|232:96,2,89.9999952316285,2|2|2,0:0|0:0|0:0,0:0:0:0:
88,100,16854,1,8,0:0:0:0:
56,192,17157,1,0,0:0:0:0:
116,312,17460,6,0,L|240:312,1,89.9999952316285,2|2,2:1|0:0,0:0:0:0:
248,288,17915,1,2,0:0:0:0:
248,288,18066,2,0,P|308:308|348:296,1,89.9999952316285,8|2,2:1|0:0,0:0:0:0:
372,272,18521,2,0,P|352:228|368:152,2,89.9999952316285,2|0|2,0:0|0:0|0:0,0:0:0:0:
416,296,19278,1,8,0:0:0:0:
464,208,19581,1,0,0:0:0:0:
328,128,19884,6,0,P|316:84|328:40,1,89.9999952316285,2|0,0:0|0:0,0:0:0:0:
185,41,20491,2,0,P|195:85|184:128,1,89.9999952316285,8|2,0:0|0:0,0:0:0:0:
156,168,20945,2,0,L|156:276,2,89.9999952316285,2|2|2,0:0|0:0|0:0,0:0:0:0:
120,136,21703,1,8,0:0:0:0:
52,208,22006,1,0,0:0:0:0:
88,352,22309,6,0,P|156:376|220:352,1,134.999992847443,2|2,0:0|0:0,0:0:0:0:
248,320,22915,1,8,0:0:0:0:
336,272,23218,2,0,P|384:192|348:116,1,179.999990463257,2|0,0:0|0:0,0:0:0:0:
280,188,24127,1,8,0:0:0:0:
120,64,24733,6,0,L|80:200,1,134.999992847443,2|2,0:0|0:0,0:0:0:0:
92,240,25339,1,8,0:0:0:0:
40,324,25642,1,2,0:0:0:0:
190,240,25945,1,0,0:0:0:0:
138,324,26248,1,0,0:0:0:0:
288,240,26551,1,8,0:0:0:0:
236,324,26854,1,0,0:0:0:0:
372,344,27157,6,0,P|456:328|480:304,1,89.9999952316285,2|0,2:1|0:0,0:0:0:0:
492,292,27612,1,2,0:0:0:0:
492,292,27763,2,0,P|460:224|484:176,1,89.9999952316285,8|0,2:1|0:0,0:0:0:0:
484,168,28218,2,0,P|508:116|504:64,2,89.9999952316285,2|8|2,0:0|0:0|0:0,0:0:0:0:
436,168,28975,1,8,0:0:0:0:
256,84,29581,6,0,P|208:120|168:128,1,89.9999952316285,4|2,0:2|0:0,0:0:0:0:
140,96,30036,1,2,0:0:0:0:
140,96,30187,2,0,L|156:216,1,89.9999952316285,8|2,0:0|0:0,0:0:0:0:
136,232,30642,2,0,P|72:240|24:212,2,89.9999952316285,2|0|0,0:0|0:0|0:0,0:0:0:0:
