osu file format v14

[General]
AudioFilename: 04_Keep_on_keeping_on_(mp3days.com).mp3
AudioLeadIn: 0
PreviewTime: 50129
Countdown: 0
SampleSet: Soft
StackLeniency: 0.7
Mode: 0
LetterboxInBreaks: 1
WidescreenStoryboard: 1

[Editor]
DistanceSpacing: 1
BeatDivisor: 4
GridSize: 8
TimelineZoom: 3.999999

[Metadata]
Title:Keep on keeping on
TitleUnicode:Keep on keeping on
Artist:SawanoHiroyuki[nZk]:mizuki
ArtistUnicode:SawanoHiroyuki[nZk]:mizuki
Creator:RebellioNlol
Version:Insane
Source:Aldnoah Zero
Tags:Lasoki Aldnoah Zero Anime Inaho mecha shooting robots Vers Moon Earth War Princess Guns
BeatmapID:645629
BeatmapSetID:285914

[Difficulty]
HPDrainRate:7
CircleSize:4
OverallDifficulty:8
ApproachRate:9
SliderMultiplier:1.9
SliderTickRate:1

[Events]
//Background and Video events
0,0,"Slaine-and-Inaho-Aldnoah.Zero-HD-Wallpaper.jpg",0,0
//Break Periods
2,71171,80477
2,151856,157529
//Storyboard Layer 0 (Background)
//Storyboard Layer 1 (Fail)
//Storyboard Layer 2 (Pass)
//Storyboard Layer 3 (Foreground)
//Storyboard Sound Samples

[TimingPoints]
235,315.789473684211,4,2,1,32,1,0
46182,-66.6666666666667,4,2,1,32,0,0
46498,-100,4,2,1,32,0,0
48866,-111.111111111111,4,2,1,32,0,0
49498,-200,4,2,1,32,0,0
50682,-100,4,2,1,32,0,1
63866,-76.9230769230769,4,2,1,32,0,1
64340,-100,4,2,1,32,0,1
69708,-66.6666666666667,4,2,1,32,0,1
70340,-100,4,2,1,32,0,1
70736,-100,4,2,1,49,0,0
108866,-147.058823529412,4,2,1,49,0,0
109498,-111.111111111111,4,2,1,49,0,0
110129,-111.111111111111,4,2,1,49,0,0
111392,-100,4,2,1,32,0,1
130340,-100,4,2,1,52,0,1
131445,-100,4,2,1,32,0,0
131603,-100,4,2,1,18,0,0
132077,-100,4,2,1,32,0,0
161287,-100,4,2,1,5,0,0
162550,-133.333333333333,4,2,1,32,0,0
163182,-100,4,2,1,32,0,1
176287,-66.6666666666667,4,2,1,32,0,1
176761,-100,4,2,1,32,0,1
183078,-100,4,2,1,32,0,0

[HitObjects]
207,95,235,6,0,B|208:155|208:155|255:215|255:215|255:279,1,190,0|8,2:0|2:0,2:0:0:0:
144,352,708,1,0,2:0:0:0:
113,107,866,2,0,L|207:96,1,95,0|0,2:0|2:2,0:0:0:0:
422,221,1182,2,0,L|328:232,1,95,8|0,2:0|2:2,0:0:0:0:
224,336,1498,2,0,P|184:280|192:144,1,190,0|8,0:0|0:0,0:0:0:0:
264,40,1971,2,0,B|289:99|280:185|280:185|338:126,1,190
416,72,2445,2,0,P|448:159|424:250,1,190,8|0,0:0|0:0,0:0:0:0:
188,161,2919,2,0,P|145:142|98:141,1,95,0|8,2:0|2:0,2:0:0:0:
335,276,3235,2,0,P|382:271|424:250,1,95,0|0,2:0|2:0,2:0:0:0:
352,176,3550,5,0,2:0:0:0:
144,40,3708,2,8,P|118:79|82:110,1,95,8|0,2:0|0:0,0:0:0:0:
54,290,4024,2,0,B|134:261|187:160,1,190,0|8,0:0|0:0,0:0:0:0:
144,40,4498,2,0,P|234:18|319:56,1,190,0|0,2:0|2:0,2:0:0:0:
303,147,4971,2,0,P|212:167|128:128,2,190,8|0|8,2:0|2:0|2:0,2:0:0:0:
384,48,5761,5,0,2:0:0:0:
392,296,5919,2,0,P|399:249|391:202,1,95
256,224,6235,2,0,P|210:227|174:198,1,95,8|0,0:0|0:0,0:0:0:0:
192,64,6550,2,0,P|128:8|96:96,1,190,0|8,0:0|0:0,0:0:0:0:
127,202,7024,2,0,B|183:237|183:237|244:244|244:244|296:280,1,190,2|0,2:0|2:0,2:0:0:0:
464,264,7498,2,0,B|412:228|412:228|351:221|351:221|296:187,1,190,10|0,2:0|2:0,2:0:0:0:
208,352,7971,2,0,P|212:305|234:263,1,95,0|8,0:0|0:0,0:0:0:0:
440,96,8287,2,0,P|436:143|414:185,1,95
224,168,8603,2,0,B|144:160|144:160|112:120,1,95,0|8,2:0|2:0,2:0:0:0:
184,48,8919,1,0,0:0:0:0:
224,168,9077,6,0,P|249:256|197:332,1,190
224,168,9550,2,0,B|320:96|400:184,1,190,2|0,2:0|2:0,2:0:0:0:
224,168,10024,2,0,P|128:160|104:40,1,190,10|0,2:0|2:0,2:0:0:0:
200,8,10656,6,0,P|178:51|180:98,1,95,10|0,2:0|2:0,2:0:0:0:
320,328,10972,2,0,B|344:280|312:218,1,95,2|0,2:0|2:0,2:0:0:0:
79,247,11287,2,0,P|128:264|172:247,1,95,8|0,0:0|0:0,0:0:0:0:
448,296,11603,2,0,B|435:339|435:339|343:306|299:355,1,190,2|8,2:0|2:0,2:0:0:0:
168,368,12077,2,0,P|112:360|187:333,1,190
272,336,12550,2,8,P|360:363|442:320,1,190,10|0,2:0|2:0,2:0:0:0:
184,144,13024,6,0,P|138:131|90:129,1,95
272,256,13340,2,0,P|317:268|365:270,1,95
336,152,13656,2,0,P|356:88|348:44,1,95
184,144,13971,1,0,2:0:0:0:
272,256,14129,2,0,P|342:306|336:222,1,190
280,128,14603,2,0,B|261:141|261:141|192:80|123:143|123:143|92:138|79:169,1,190,2|0,2:0|2:0,2:0:0:0:
192,200,15077,2,0,B|206:315|108:352,2,190,10|0|8,2:0|2:0|2:0,2:0:0:0:
312,104,15866,6,0,P|357:116|403:108,1,95
174,292,16182,2,0,P|189:247|192:200,1,95
312,104,16498,1,0,2:0:0:0:
339,264,16656,6,0,B|294:291|227:256|226:199|226:199|163:200,1,190,2|8,2:0|2:0,2:0:0:0:
328,176,17129,2,0,P|407:134|432:26,1,190,2|0,2:0|2:0,2:0:0:0:
305,72,17603,2,0,P|221:112|201:240,1,190,10|0,2:0|2:0,2:0:0:0:
192,288,18077,5,0,2:0:0:0:
344,296,18235,1,0,2:0:0:0:
328,200,18392,1,0,2:0:0:0:
264,352,18550,1,8,2:0:0:0:
232,184,18708,2,0,L|139:205,2,95,2|8|0,2:0|2:0|2:0,2:0:0:0:
312,280,19182,2,0,P|399:313|489:289,1,190,2|8,2:0|2:0,2:0:0:0:
200,168,19656,2,0,P|114:132|26:162,1,190,2|0,2:0|2:0,2:0:0:0:
232,336,20129,5,10,2:0:0:0:
192,120,20445,1,0,0:3:0:0:
256,288,21077,6,0,P|299:281|340:212,1,95,0|0,2:0|2:0,2:0:0:0:
392,88,21392,2,0,P|357:92|312:144,1,95,0|0,2:0|2:0,2:0:0:0:
176,224,21708,2,0,P|168:144|224:32,1,190
392,176,22182,2,0,L|384:270,1,95
232,360,22498,1,0,0:0:0:0:
232,360,22656,2,0,B|256:151,1,190
336,104,23129,6,0,P|411:99|458:111,1,95
152,216,23445,2,0,P|72:208|32:192,1,95
290,41,23761,2,0,P|294:89|288:136,1,95
224,248,24077,1,0,2:0:0:0:
352,312,24235,6,0,P|440:288|504:200,1,190,0|8,2:0|2:0,2:0:0:0:
384,160,24708,2,0,P|416:120|420:72,2,95
344,88,25182,2,0,B|264:16|168:88,1,190,8|0,2:0|2:0,2:0:0:0:
256,200,25656,2,0,P|256:260|273:311,2,95
104,136,26129,2,0,L|96:32,1,95,0|0,2:0|2:0,2:0:0:0:
256,200,26445,2,0,B|248:248|256:272|280:296|316:302|316:302|330:372,1,190,8|0,2:0|2:0,2:0:0:0:
336,216,26919,6,0,P|343:169|334:122,1,95,0|8,0:0|0:0,0:0:0:0:
224,176,27235,2,0,P|177:184|130:178,1,95
137,3,27550,2,0,P|165:42|176:88,1,95,0|8,2:0|2:0,2:0:0:0:
112,192,28024,5,0,2:0:0:0:
272,256,28182,1,0,2:0:0:0:
260,64,28340,1,8,2:0:0:0:
260,64,28656,5,0,2:0:0:0:
248,256,28814,1,0,2:0:0:0:
408,192,28972,1,8,2:0:0:0:
223,120,29129,2,0,L|128:120,1,95,0|0,2:0|2:0,2:0:0:0:
344,232,29445,2,0,L|439:232,1,95,0|0,2:0|2:0,2:0:0:0:
208,288,29761,2,0,P|186:254|193:194,1,95,0|0,2:0|2:0,2:0:0:0:
288,232,30077,2,0,P|310:280|280:344,1,95
144,320,30550,2,0,P|104:256|136:144,2,190,0|8|0,0:0|0:0|0:0,0:0:0:0:
232,176,31340,6,0,P|224:112|240:80,1,95,0|8,0:0|0:0,0:0:0:0:
280,320,31656,1,0,0:0:0:0:
416,232,31813,2,0,P|480:184|392:176,1,190
96,232,32287,2,0,P|32:184|120:176,1,190
217,269,32761,1,0,0:0:0:0:
217,269,32919,2,0,L|233:165,1,95,0|0,2:0|2:0,2:0:0:0:
360,64,33235,6,0,P|406:74|448:95,1,95
352,160,33551,1,0,2:0:0:0:
352,159,33708,2,0,P|384:193|407:234,1,95
320,240,34024,2,0,P|280:272|234:283,1,95,8|0,2:0|2:0,2:0:0:0:
64,120,34340,2,0,P|160:128|240:200,1,190
216,320,34813,2,0,P|278:312|310:272,1,95
240,240,35129,1,0,0:0:0:0:
240,240,35287,2,0,B|272:160|208:96|208:96|224:56,2,190,8|0|8,2:0|2:0|2:0,2:0:0:0:
160,184,36077,2,0,P|114:206|126:116,1,190,0|0,2:0|2:0,2:0:0:0:
256,192,36550,6,0,L|240:296,1,95
360,168,36866,6,0,L|376:64,1,95
192,104,37182,2,0,P|112:160|104:160,1,95
320,280,37498,2,0,P|400:224|408:224,1,95
360,120,37813,2,0,P|336:64|312:144,2,190
376,200,38603,6,0,P|328:256|280:256,1,95
112,168,38919,2,0,P|192:168|232:184,1,95
272,312,39235,1,0,2:0:0:0:
376,200,39392,2,0,P|368:152|328:104,1,95
192,184,39708,1,8,2:0:0:0:
432,272,39866,1,0,2:0:0:0:
376,168,40024,2,0,P|320:88|216:88,2,190,0|8|2,2:0|2:0|2:2,2:0:0:0:
256,280,40971,5,8,2:0:0:0:
212,125,41287,6,0,B|196:141|208:280|208:280|144:264,1,190,0|8,2:0|2:0,2:0:0:0:
72,208,41761,1,0,2:0:0:0:
212,125,41919,2,0,P|260:93|308:93,1,95
72,208,42235,1,8,2:0:0:0:
212,125,42392,2,0,P|268:133|324:173,1,95
72,208,42708,1,0,2:0:0:0:
212,125,42866,6,0,B|263:175|263:175|267:249|267:249|331:309,2,190,8|0|8,2:0|2:0|2:0,2:0:0:0:
432,144,43656,2,0,P|496:120|416:88,1,190
296,224,44129,2,0,L|240:320,1,95,8|0,2:0|2:0,2:0:0:0:
160,184,44445,2,0,L|224:88,1,95,0|0,2:0|2:0,2:0:0:0:
296,224,44761,1,8,2:0:0:0:
400,152,44919,1,0,2:0:0:0:
312,64,45077,2,0,B|240:72|236:140|236:140|136:160,1,190,0|8,2:0|2:0,2:0:0:0:
322,150,45708,6,0,P|399:184|424:104,1,190,0|8,2:0|2:0,2:0:0:0:
312,64,46182,2,0,B|272:64|272:64|192:-16|104:24|64:104|120:176,1,285.000010871888,0|0,2:0|2:0,2:0:0:0:
192,120,46656,1,0,0:0:0:0:
400,144,46971,1,0,2:0:0:0:
168,200,47130,2,0,P|211:222|258:227,1,95
400,144,47444,1,8,2:0:0:0:
175,261,47603,2,0,P|222:255|260:227,1,95
400,144,47918,1,0,2:0:0:0:
216,312,48077,1,0,0:0:0:0:
256,192,48235,2,0,P|232:128|32:120,1,285
256,192,48866,2,0,P|232:128|80:168,1,256.499992172241
256,192,49498,2,0,P|232:128|152:192,1,190,0|8,0:0|0:0,0:0:0:0:
256,88,50445,1,8,2:0:0:0:
148,232,50761,6,0,P|136:160|184:40,1,190,0|8,2:0|2:0,2:0:0:0:
352,56,51235,2,0,P|364:124|336:240,1,190,0|0,2:0|2:0,2:0:0:0:
144,192,51708,6,0,P|112:180|68:112,1,95,8|0,2:0|2:0,2:0:0:0:
364,192,52024,2,0,P|401:214|428:256,1,95,0|0,2:0|2:0,2:0:0:0:
256,192,52340,1,8,2:0:0:0:
228,292,52498,2,0,P|201:338|152:372,1,95,0|0,2:0|2:0,2:0:0:0:
256,192,52813,1,0,2:0:0:0:
288,80,52971,2,0,P|316:42|358:20,1,95,8|0,2:0|2:0,2:0:0:0:
376,128,53287,6,0,P|402:217|366:303,1,190,0|8,2:0|2:0,2:0:0:0:
160,304,53761,2,0,P|134:214|170:128,1,190,0|0,2:0|2:0,2:0:0:0:
400,240,54235,6,0,P|448:238|504:200,1,95,8|0,2:0|2:0,2:0:0:0:
352,152,54550,2,0,P|302:156|259:141,1,95,0|0,2:0|2:0,2:0:0:0:
312,72,54866,1,8,2:0:0:0:
343,322,55024,2,0,P|298:333|248:329,1,95,0|0,2:0|2:0,2:0:0:0:
104,112,55340,1,0,2:0:0:0:
152,192,55498,2,0,P|192:204|248:196,1,95,8|0,2:0|2:0,2:0:0:0:
360,128,55813,6,0,B|389:185|348:247|348:247|364:309,1,190,0|8,2:0|2:0,2:0:0:0:
264,176,56287,2,0,B|202:166|202:166|163:121|163:121|95:114,1,190,0|0,2:0|2:0,2:0:0:0:
104,224,56761,1,0,2:0:0:0:
256,40,56919,1,8,2:0:0:0:
184,128,57077,2,0,P|148:140|72:112,1,95,0|0,2:0|2:0,2:0:0:0:
344,216,57392,2,0,P|381:224|444:212,1,95,8|0,2:0|2:0,2:0:0:0:
184,292,57708,2,0,P|140:289|80:296,1,95,0|0,2:0|2:0,2:0:0:0:
252,184,58024,6,0,P|208:132|216:8,2,190,8|0|8,2:0|2:0|2:0,2:0:0:0:
344,184,58813,2,0,P|392:184|328:240,1,190
216,176,59287,2,0,L|176:80,1,95,8|0,2:0|2:0,2:0:0:0:
184,8,59603,2,0,P|115:29|98:73,1,95,0|0,2:0|2:0,2:0:0:0:
232,256,59919,2,0,P|288:216|280:160,1,95
51,115,60235,2,0,P|82:150|128:160,1,95
320,241,60550,2,0,P|267:262|208:241,1,95
272,136,60866,6,0,B|328:144|328:144|384:80|456:104,1,190,0|8,2:0|2:0,2:0:0:0:
412,180,61340,2,0,P|432:252|360:348,1,190,0|0,2:0|2:0,2:0:0:0:
240,288,61813,2,0,P|279:256|323:244,1,95,8|8,2:0|2:0,2:0:0:0:
440,291,62129,2,0,P|454:246|448:200,1,95,0|8,2:0|2:0,2:0:0:0:
192,112,62445,1,8,2:0:0:0:
368,120,62603,1,0,2:0:0:0:
192,112,62761,2,0,B|157:142|157:142|108:156,1,95,0|0,2:0|2:0,2:0:0:0:
280,240,63077,1,8,2:0:0:0:
281,32,63235,1,8,2:0:0:0:
280,240,63392,6,0,P|346:314|408:272,1,190,0|8,2:0|2:0,2:0:0:0:
352,208,63866,2,0,B|343:167|312:144|312:144|264:184|176:152|184:80,1,246.999988693238
264,80,64340,6,0,P|283:51|360:25,1,95,8|0,2:0|2:0,2:0:0:0:
210,293,64656,2,0,P|179:323|132:339,1,95,0|0,2:0|2:0,2:0:0:0:
236,188,64972,1,8,2:0:0:0:
146,137,65130,2,0,P|107:99|86:43,1,95,0|0,2:0|2:0,2:0:0:0:
236,188,65445,1,0,2:0:0:0:
337,246,65603,2,0,P|367:282|378:328,1,95,8|0,2:0|2:0,2:0:0:0:
248,264,65919,2,0,B|112:264|112:264|72:208,1,190
416,304,66392,1,0,2:0:0:0:
416,304,66550,2,0,B|280:304|280:304|240:248,2,190
136,184,67340,2,0,P|80:140|72:116,1,95
168,96,67656,2,0,P|157:25|167:2,1,95
168,96,67971,1,0,2:0:0:0:
392,248,68129,1,8,2:0:0:0:
296,256,68445,6,0,P|320:360|368:328,1,190,0|8,2:0|2:0,2:0:0:0:
440,240,68919,1,0,2:0:0:0:
440,240,69077,2,0,P|388:176|280:172,1,190,0|8,2:0|2:0,2:0:0:0:
336,256,69550,1,0,2:0:0:0:
336,256,69708,2,0,P|239:273|247:200,1,142.500005435944,0|0,2:0|2:0,2:0:0:0:
284,184,70024,1,8,0:0:0:0:
200,128,70340,2,0,P|126:126|87:89,1,95
368,80,70656,2,0,P|424:72|464:80,1,95
336,256,70971,1,4,0:0:0:0:
340,235,81077,6,0,P|364:291|380:163,1,380
424,232,81866,1,0,0:0:0:0:
356,165,82024,1,0,0:0:0:0:
268,181,82182,1,0,2:0:0:0:
225,256,82340,2,0,B|279:271|361:252|355:164,1,190
224,80,82971,2,0,B|192:32|104:160|35:1,1,190
216,200,83603,1,8,2:0:0:0:
131,8,83761,1,0,0:0:0:0:
118,178,83919,1,0,0:0:0:0:
320,104,84077,2,0,P|359:123|408:172,1,95,0|0,2:0|2:0,2:0:0:0:
216,200,84392,2,0,P|176:176|144:128,1,95,0|8,2:0|2:0,2:0:0:0:
224,80,84708,1,0,2:0:0:0:
320,104,84866,6,0,P|378:134|379:24,2,190,0|8|0,2:0|2:0|2:0,2:0:0:0:
208,120,85656,1,0,2:0:0:0:
136,176,85813,2,0,B|184:232|248:200|248:200|280:280,1,190,8|0,2:0|2:0,2:0:0:0:
240,336,86287,2,0,P|304:344|336:320,1,95
208,120,86603,2,0,P|144:112|112:136,1,95
168,192,86919,1,0,2:0:0:0:
207,119,87077,6,0,P|114:103|80:184,2,190,8|0|8,2:0|2:0|2:0,2:0:0:0:
108,248,87866,1,0,2:0:0:0:
72,72,88024,1,0,2:0:0:0:
208,176,88182,1,0,2:0:0:0:
8,224,88340,2,0,P|60:300|160:320,1,190,8|0,2:0|2:0,2:0:0:0:
246,294,88813,1,0,2:0:0:0:
208,176,88971,1,8,2:0:0:0:
304,192,89129,1,0,2:0:0:0:
408,96,89287,6,0,P|350:67|304:72,2,95,0|0|8,2:0|2:0|2:0,2:0:0:0:
304,192,89761,1,0,2:0:0:0:
447,252,89919,1,0,2:0:0:0:
343,284,90077,1,0,2:0:0:0:
408,96,90235,1,8,2:0:0:0:
272,120,90392,2,0,P|235:96|172:80,2,95,0|0|0,2:0|2:0|2:0,2:0:0:0:
208,176,90866,2,0,B|224:304|368:280,1,190,8|4,2:0|2:0,2:0:0:0:
304,192,91498,1,0,0:0:0:0:
408,88,91813,6,0,P|366:108|304:96,1,95,0|0,2:0|2:0,2:0:0:0:
136,196,92129,2,0,P|152:156|208:120,1,95,8|0,2:0|2:0,2:0:0:0:
432,96,92445,2,0,B|368:112|368:112|320:160|320:160|256:176,1,190,0|8,2:0|2:0,2:0:0:0:
224,288,92919,1,0,2:0:0:0:
265,173,93077,1,0,2:0:0:0:
136,196,93235,1,0,2:0:0:0:
272,176,93392,2,0,B|320:192|320:192|376:264|376:264|424:272,2,190,8|0|8,2:0|2:0|2:0,2:0:0:0:
272,272,94182,2,0,P|200:288|160:280,1,95
432,168,94498,1,0,0:0:0:0:
349,111,94656,2,0,P|284:178|271:271,2,190,8|0|8,2:0|2:0|2:0,2:0:0:0:
376,216,95445,2,0,P|435:291|380:373,1,190,0|0,2:0|2:0,2:0:0:0:
352,296,95919,2,0,L|160:320,2,190,8|0|8,2:0|2:0|2:0,2:0:0:0:
416,224,96708,5,0,2:0:0:0:
416,128,96866,1,0,2:0:0:0:
328,88,97024,1,0,2:0:0:0:
416,128,97182,2,0,P|472:192|416:288,2,190,8|0|8,2:0|2:0|2:0,2:0:0:0:
384,216,97971,2,0,P|344:296|424:352,1,190,0|0,2:0|2:0,2:0:0:0:
440,280,98445,2,0,P|476:207|404:127,1,190,8|0,2:0|2:0,2:0:0:0:
320,152,98919,6,0,L|224:232,2,95,0|8|0,2:0|2:0|2:0,2:0:0:0:
168,160,99392,2,0,P|128:136|124:64,1,95,0|0,2:0|2:0,2:0:0:0:
208,88,99708,2,0,P|256:144|272:264,1,190,8|0,2:0|2:0,2:0:0:0:
184,208,100182,6,0,L|180:264,2,47.5
332,96,100498,1,0,0:0:0:0:
172,244,100656,1,0,0:0:0:0:
316,144,100813,1,0,0:0:0:0:
276,303,100971,1,0,0:0:0:0:
188,104,101129,1,0,0:0:0:0:
420,239,101287,1,4,0:0:0:0:
296,88,101919,6,0,B|384:96|384:184|384:184|456:184,1,190,0|0,2:0|2:0,2:0:0:0:
304,176,102392,1,0,2:0:0:0:
304,176,102550,2,0,B|216:232|120:128|24:216,2,285,8|8|8,2:0|2:0|2:0,2:0:0:0:
112,264,103813,5,0,2:0:0:0:
129,54,103971,2,0,P|189:70|245:62,1,95
486,158,104287,2,0,P|439:165|392:157,1,95
248,160,104603,6,0,L|216:48,2,95,0|0|0,2:0|2:0|2:0,2:0:0:0:
328,184,105077,2,0,P|294:255|194:198,1,190,8|0,2:0|2:0,2:0:0:0:
248,160,105550,2,0,P|184:144|136:320,1,285,8|8,0:0|0:0,0:0:0:0:
200,240,106340,2,0,P|240:264|248:320,1,95
168,312,106656,6,0,L|61:386,2,95,0|0|0,2:0|2:0|2:0,2:0:0:0:
288,232,107129,6,0,L|394:157,2,95,0|0|0,2:0|2:0|2:0,2:0:0:0:
144,296,107603,2,0,L|127:188,1,95,8|0,2:0|2:0,2:0:0:0:
251,115,107919,1,0,0:0:0:0:
221,200,108077,1,8,0:0:0:0:
104,112,108235,1,0,0:0:0:0:
178,61,108392,1,0,0:0:0:0:
130,199,108550,1,8,0:0:0:0:
104,112,108708,1,8,2:0:0:0:
104,112,108866,2,0,P|163:53|215:123,1,193.800001182861,8|8,0:0|0:0,0:0:0:0:
103,112,109498,2,8,P|195:39|280:121,1,256.499992172241
104,112,110129,2,8,P|208:25|345:142,1,341.999989562989
224,128,111077,1,8,0:0:0:0:
456,296,111392,2,0,P|384:320|352:304,1,95
320,248,111708,1,0,0:0:0:0:
223,127,111866,2,0,P|139:142|156:226,1,190,0|0,2:0|2:0,2:0:0:0:
320,248,112340,6,0,L|369:167,1,95,8|0,2:0|2:0,2:0:0:0:
217,308,112655,1,0,0:0:0:0:
218,75,112813,1,0,0:0:0:0:
355,264,112971,1,0,0:0:0:0:
133,191,113129,1,0,0:0:0:0:
355,119,113287,1,0,0:0:0:0:
217,308,113445,1,0,2:0:0:0:
355,119,113603,1,8,2:0:0:0:
88,148,113761,1,0,0:0:0:0:
88,148,113919,6,0,P|152:172|256:104,1,190,0|8,2:0|2:0,2:0:0:0:
216,48,114392,2,0,P|276:28|296:152,1,190,0|0,2:0|2:0,2:0:0:0:
176,240,114866,1,0,0:0:0:0:
176,6,115024,1,0,0:0:0:0:
313,195,115182,1,0,0:0:0:0:
91,123,115340,1,0,0:0:0:0:
313,50,115498,1,0,0:0:0:0:
175,239,115656,1,8,2:0:0:0:
316,200,115813,5,0,2:0:0:0:
112,292,115971,1,0,2:0:0:0:
248,136,116129,1,8,2:0:0:0:
136,364,116287,1,0,2:0:0:0:
208,272,116445,6,0,P|128:240|32:296,1,190,0|8,2:0|2:0,2:0:0:0:
272,328,116919,2,0,P|368:344|440:268,1,190,0|0,2:0|2:0,2:0:0:0:
184,292,117392,2,0,P|136:289|89:294,1,95,0|0,2:0|2:0,2:0:0:0:
343,215,117708,2,0,P|390:224|436:215,1,95,8|0,2:0|2:0,2:0:0:0:
184,127,118023,2,0,P|138:140|93:128,1,95,0|0,2:0|2:0,2:0:0:0:
256,40,118338,1,8,2:0:0:0:
392,144,118498,1,8,2:0:0:0:
392,144,118656,2,0,P|356:156|280:128,1,95,0|0,2:0|2:0,2:0:0:0:
168,256,118971,6,0,P|112:148|128:56,1,190,8|0,2:0|2:0,2:0:0:0:
248,248,119445,2,0,P|216:328|120:320,1,190
168,256,119919,1,8,2:0:0:0:
144,136,120077,2,0,L|232:64,1,95,0|0,2:0|2:0,2:0:0:0:
416,232,120392,2,0,L|328:304,1,95,0|8,2:0|2:0,2:0:0:0:
384,144,120708,2,0,L|338:62,1,95,0|0,2:0|2:0,2:0:0:0:
168,216,121024,2,0,L|224:312,2,95,0|8|0,2:0|2:0|2:0,2:0:0:0:
256,192,121498,6,0,P|326:181|436:224,1,190,0|8,2:0|2:0,2:0:0:0:
256,192,121971,6,0,P|186:203|76:160,1,190,0|8,2:0|2:0,2:0:0:0:
176,120,122445,2,0,P|184:56|176:24,1,95
336,264,122761,2,0,P|328:328|336:360,1,95
392,200,123077,2,0,P|334:174|272:200,1,95
304,178,123392,1,0,0:0:0:0:
304,178,123550,1,0,0:0:0:0:
170,236,123708,1,0,0:0:0:0:
170,236,123866,1,0,0:0:0:0:
64,192,124024,6,0,P|132:152|244:188,1,190,0|8,2:0|2:0,2:0:0:0:
376,240,124498,2,0,P|424:163|381:84,1,190,0|0,2:0|2:0,2:0:0:0:
344,160,124971,2,0,L|264:232,1,95,8|0,2:0|2:0,2:0:0:0:
244,301,125287,2,0,P|204:276|192:232,1,95,0|0,2:0|2:0,2:0:0:0:
371,82,125603,2,0,P|411:107|424:152,1,95,0|0,2:0|2:0,2:0:0:0:
272,144,125919,2,0,L|204:55,1,95
120,56,126235,1,8,2:0:0:0:
120,56,126392,1,0,2:0:0:0:
214,68,126550,2,0,B|198:156|112:152|112:152|56:176|74:216,1,190
40,272,127024,1,0,0:0:0:0:
136,232,127182,2,0,P|141:279|136:326,1,95
40,272,127498,1,0,0:0:0:0:
248,272,127656,1,0,0:0:0:0:
256,168,127813,2,0,P|194:192|160:312,1,190,0|8,2:0|2:0,2:0:0:0:
248,272,128287,2,0,P|336:240|360:136,1,190,0|0,2:0|2:0,2:0:0:0:
255,167,128761,2,0,P|221:135|176:125,1,95,8|8,2:0|2:0,2:0:0:0:
208,248,129077,2,0,P|177:282|169:329,1,95,8|8,2:0|2:0,2:0:0:0:
304,248,129392,2,0,P|349:259|394:246,1,95,8|8,2:0|2:0,2:0:0:0:
336,96,129708,2,0,P|263:94|233:113,1,95
448,216,130024,2,0,P|457:144|441:111,1,95
343,8,130341,2,8,B|365:51,1,47.5,8|8,3:0|3:0,3:0:0:0:
469,258,130498,2,8,B|448:216,1,47.5,8|8,3:0|3:0,3:0:0:0:
263,88,130655,2,8,B|285:131,1,47.5,8|8,3:0|3:0,3:0:0:0:
366,281,130813,2,8,B|345:239,1,47.5,8|8,3:0|3:0,3:0:0:0:
168,104,130971,2,8,B|190:147,1,47.5,8|8,3:0|3:0,3:0:0:0:
292,354,131128,2,8,B|271:312,1,47.5,8|8,3:0|3:0,3:0:0:0:
94,178,131286,2,8,B|116:221,1,47.5,8|8,3:0|3:0,3:0:0:0:
197,369,131444,2,8,B|176:327,1,47.5,8|8,3:0|3:0,3:0:0:0:
94,178,131603,6,4,P|175:224|268:215,1,190,4|8,3:0|2:0,3:0:0:0:
200,128,132077,1,0,0:0:0:0:
200,128,132235,1,0,2:0:0:0:
268,215,132392,1,0,2:0:0:0:
268,215,132550,1,8,2:0:0:0:
336,124,132708,2,0,P|360:176|328:312,1,190,0|0,2:0|2:0,2:0:0:0:
232,328,133182,1,8,2:0:0:0:
232,224,133340,6,0,P|196:168|72:160,1,190,0|0,2:0|2:0,2:0:0:0:
136,232,133813,1,8,2:0:0:0:
200,88,133971,2,0,L|224:16,2,47.5
136,232,134287,1,0,0:0:0:0:
272,152,134445,2,0,P|318:150|360:171,1,95,8|0,2:0|2:0,2:0:0:0:
304,240,134761,1,0,2:0:0:0:
200,88,134919,2,0,L|96:56,1,95,0|8,2:0|2:0,2:0:0:0:
136,232,135235,6,0,P|256:230|320:187,1,190,0|0,2:0|2:0,2:0:0:0:
256,104,135708,1,0,0:0:0:0:
352,64,135866,2,0,B|386:126|386:126|374:247,1,190,0|0,2:0|2:0,2:0:0:0:
304,288,136340,1,0,0:0:0:0:
136,136,136656,2,0,P|126:72|223:78,2,190
360,272,137445,1,8,2:0:0:0:
232,144,137603,1,0,2:0:0:0:
312,192,137761,2,0,P|349:165|376:32,1,190,0|0,2:0|2:0,2:0:0:0:
256,96,138235,1,8,2:0:0:0:
208,192,138392,2,0,P|192:256|264:352,1,190,0|0,2:0|2:0,2:0:0:0:
456,184,138866,2,0,L|280:256,1,190
400,96,139340,6,0,L|490:65,1,95,0|8,2:0|2:0,2:0:0:0:
368,224,139656,1,0,2:0:0:0:
288,320,139813,2,0,L|179:350,1,95,0|0,2:0|2:0,2:0:0:0:
392,312,140129,1,8,2:0:0:0:
440,232,140287,2,0,P|408:176|288:152,1,190,0|0,2:0|2:0,2:0:0:0:
292,150,140682,1,0,0:0:0:0:
292,150,140761,1,8,2:0:0:0:
160,80,140919,1,0,0:0:0:0:
168,112,140998,1,0,0:0:0:0:
176,144,141077,1,8,2:0:0:0:
136,288,141235,1,0,2:0:0:0:
192,224,141392,6,0,L|285:209,1,95,0|8,2:0|2:0,2:0:0:0:
328,136,141708,1,0,2:0:0:0:
328,136,141866,2,0,B|376:112|376:112|448:112|448:112|504:64,2,190,0|0|0,2:0|2:0|2:0,2:0:0:0:
192,224,142656,2,0,P|136:216|88:232,1,95
324,230,142971,6,0,L|328:126,1,95,0|8,2:0|2:0,2:0:0:0:
208,48,143287,1,0,0:0:0:0:
208,48,143445,2,0,B|184:96|184:96|184:160|184:160|144:200|144:272|240:296,1,285,0|8,2:0|2:0,2:0:0:0:
248,216,144077,1,0,2:0:0:0:
184,152,144235,2,0,B|248:104|303:152|303:152|359:115,1,190,0|8,2:0|2:0,2:0:0:0:
400,48,144708,2,0,B|464:112|416:176|416:176|423:246,1,190,0|0,2:0|2:0,2:0:0:0:
262,146,145182,2,0,P|326:122|382:122,1,95
328,240,145498,2,0,P|238:270|144:260,1,190,0|8,2:0|2:0,2:0:0:0:
88,168,145971,1,0,0:0:0:0:
160,80,146129,2,0,P|196:167|120:248,2,190,0|8|0,2:0|2:0|2:0,2:0:0:0:
56,240,147077,2,0,B|80:344|183:321|183:321|199:378,1,190,0|8,2:0|2:0,2:0:0:0:
145,238,147550,1,0,2:0:0:0:
145,238,147708,1,8,2:0:0:0:
196,88,147866,2,0,L|368:200,1,190,0|0,2:0|2:0,2:0:0:0:
145,238,148340,1,8,2:0:0:0:
256,71,148498,2,0,L|348:254,1,190,0|0,2:0|2:0,2:0:0:0:
288,312,148971,2,0,P|381:315|419:201,1,190,0|0,2:0|2:0,2:0:0:0:
341,241,149603,6,0,P|254:205|162:220,1,190,0|0,2:0|2:0,2:0:0:0:
64,80,150077,2,0,L|168:128,1,95,0|0,2:0|2:0,2:0:0:0:
256,240,150392,38,0,L|271:306,2,47.5,0|0|8,0:0|0:0|0:0,0:0:0:0:
236,118,150708,1,0,0:0:0:0:
393,229,150866,1,0,0:0:0:0:
343,84,151024,1,0,0:0:0:0:
270,268,151182,1,0,0:0:0:0:
343,84,151340,1,0,0:0:0:0:
185,186,151498,1,0,0:0:0:0:
362,283,151656,1,0,0:0:0:0:
256,192,158129,12,0,161919,0:0:0:0:
152,168,162550,6,0,P|225:85|264:80,1,142.500005435944,8|8,2:0|2:0,2:0:0:0:
250,163,163182,6,0,P|213:250|296:320,1,190,0|8,2:0|2:0,2:0:0:0:
320,232,163656,2,0,P|365:160|304:88,1,190,0|0,2:0|2:0,2:0:0:0:
282,163,164129,6,0,L|176:160,1,95,8|0,2:0|2:0,2:0:0:0:
104,304,164445,1,0,0:0:0:0:
104,129,164603,1,0,0:0:0:0:
208,271,164761,1,0,0:0:0:0:
41,216,164919,1,0,0:0:0:0:
208,162,165077,1,0,0:0:0:0:
104,304,165235,2,0,P|58:315|12:306,2,95,0|0|0,2:0|2:0|2:0,2:0:0:0:
160,368,165708,6,0,P|196:282|128:224,1,190,0|8,2:0|2:0,2:0:0:0:
52,250,166182,2,0,B|27:175|115:143|115:143|96:96,1,190,0|0,2:0|2:0,2:0:0:0:
312,144,166656,6,0,P|358:156|423:138,1,95,8|0,2:0|2:0,2:0:0:0:
225,235,166971,2,0,P|175:239|132:224,1,95,0|0,2:0|2:0,2:0:0:0:
312,344,167287,2,0,P|359:347|405:336,1,95,0|0,2:0|2:0,2:0:0:0:
312,144,167603,1,0,2:0:0:0:
408,112,167761,1,0,0:0:0:0:
240,200,167919,2,0,P|194:212|147:205,1,95,8|0,2:0|2:0,2:0:0:0:
312,328,168234,6,0,B|296:256|296:256|344:192|296:144,1,190,0|8,2:0|2:0,2:0:0:0:
224,168,168708,2,0,P|238:93|368:112,1,190
301,150,169182,1,8,2:0:0:0:
256,40,169340,1,0,2:0:0:0:
328,256,169498,2,0,P|364:243|440:272,1,95,8|0,2:0|2:0,2:0:0:0:
167,168,169813,2,0,P|131:160|68:171,1,95,8|0,2:0|2:0,2:0:0:0:
328,92,170129,2,0,P|372:95|432:88,1,95,0|0,2:0|2:0,2:0:0:0:
260,199,170445,6,0,P|303:252|296:376,2,190,8|0|8,2:0|2:0|2:0,2:0:0:0:
232,296,171234,2,0,P|146:236|142:151,1,190
232,200,171708,2,0,L|327:159,1,95,8|0,2:0|2:0,2:0:0:0:
440,80,172024,2,0,P|458:149|501:168,1,95,0|0,2:0|2:0,2:0:0:0:
232,200,172340,2,0,P|193:142|137:148,1,95
136,264,172656,1,0,0:0:0:0:
170,294,172735,1,0,0:0:0:0:
216,309,172814,1,0,0:0:0:0:
262,305,172893,1,0,0:0:0:0:
304,284,172972,1,0,0:0:0:0:
336,248,173051,1,0,0:0:0:0:
351,204,173130,1,0,0:0:0:0:
348,155,173209,1,0,0:0:0:0:
326,113,173287,2,0,P|409:58|487:133,1,190
408,336,173761,2,0,L|408:136,1,190
208,112,174234,2,0,P|162:100|115:107,1,95,8|8,2:0|2:0,2:0:0:0:
72,192,174550,1,0,0:0:0:0:
104,280,174708,1,0,0:0:0:0:
192,304,174866,1,0,0:0:0:0:
280,280,175024,1,0,0:0:0:0:
328,200,175182,1,0,0:0:0:0:
296,112,175340,1,0,0:0:0:0:
280,280,175498,1,8,2:0:0:0:
296,112,175656,1,8,2:0:0:0:
280,280,175813,6,0,P|346:354|408:312,1,190,0|8,2:0|2:0,2:0:0:0:
352,232,176287,2,0,B|343:191|312:168|312:168|256:216|144:176|192:64,1,285.000010871888
264,96,176761,6,0,P|283:67|360:41,1,95,8|0,2:0|2:0,2:0:0:0:
352,232,177077,2,0,P|321:262|274:278,1,95,0|0,2:0|2:0,2:0:0:0:
168,296,177392,1,0,0:0:0:0:
70,247,177550,1,0,0:0:0:0:
86,141,177708,1,0,0:0:0:0:
192,121,177866,1,0,0:0:0:0:
244,216,178024,1,0,0:0:0:0:
168,296,178182,1,0,0:0:0:0:
244,216,178340,2,0,P|275:135|387:184,1,190
160,168,178813,2,0,P|112:166|67:152,1,95
222,290,179287,2,0,P|314:293|384:232,1,190
316,5,179761,2,0,P|305:51|320:96,1,95
228,129,180077,2,0,P|249:172|280:208,1,95
392,238,180392,1,0,0:0:0:0:
244,335,180550,1,0,0:0:0:0:
334,312,180708,1,0,0:0:0:0:
160,296,180866,1,0,0:0:0:0:
130,121,181024,1,0,0:0:0:0:
112,216,181182,1,0,0:0:0:0:
196,60,181340,1,0,0:0:0:0:
200,64,181498,2,0,L|264:64,4,47.5
152,72,181892,1,0,0:0:0:0:
134,116,181971,1,0,0:0:0:0:
138,163,182050,1,0,0:0:0:0:
161,204,182129,1,0,0:0:0:0:
201,231,182208,1,0,0:0:0:0:
248,237,182287,1,0,0:0:0:0:
293,223,182366,1,0,0:0:0:0:
304,168,182445,1,0,0:0:0:0:
341,131,182524,1,0,0:0:0:0:
392,117,182603,1,0,0:0:0:0:
442,131,182682,1,0,0:0:0:0:
479,168,182761,1,0,0:0:0:0:
493,218,182840,1,0,0:0:0:0:
479,268,182919,1,0,0:0:0:0:
442,305,182998,1,0,0:0:0:0:
392,319,183077,1,0,0:0:0:0:
340,305,183156,1,0,0:0:0:0:
304,268,183235,1,0,0:0:0:0:
291,218,183313,1,0,0:0:0:0:
264,176,183392,6,0,P|196:202|68:180,1,190,4|8,3:0|2:0,2:0:0:0:
80,64,183866,2,0,P|107:102|150:121,1,95,8|0,2:0|2:0,2:0:0:0:
160,280,184181,6,0,P|135:239|95:214,1,95,0|0,2:0|2:0,2:0:0:0:
128,360,184497,2,0,P|218:350|233:255,1,190,0|0,2:0|2:0,2:0:0:0:
200,168,184971,1,8,2:0:0:0:
128,240,185129,6,0,P|214:275|304:248,1,190,0|8,2:0|2:0,2:0:0:0:
328,160,185603,1,0,2:0:0:0:
176,112,185919,2,0,P|138:141|93:155,1,95,4|0,3:0|2:0,2:0:0:0:
232,280,186235,2,0,P|269:250|314:236,1,95,0|0,2:0|2:0,2:0:0:0:
400,280,186550,1,0,0:0:0:0:
464,216,186708,1,0,0:0:0:0:
416,136,186866,1,0,0:0:0:0:
344,200,187024,1,0,0:0:0:0:
296,280,187182,2,0,P|192:296|120:216,1,190,0|0,2:0|2:0,2:0:0:0:
216,216,187656,2,0,P|156:143|156:50,1,190,0|0,2:0|2:0,2:0:0:0:
232,112,188129,2,0,P|272:124|328:116,1,95,8|0,2:0|2:0,2:0:0:0:
392,64,188444,6,0,B|421:121|380:183|380:183|396:245,1,190,4|8,3:0|2:0,2:0:0:0:
312,112,188919,1,0,2:0:0:0:
248,40,189077,1,8,2:0:0:0:
184,128,189235,2,0,P|148:140|72:112,1,95,0|0,2:0|2:0,2:0:0:0:
248,40,189550,2,0,P|312:80|272:208,1,190
208,144,190024,1,0,0:0:0:0:
424,120,190182,2,0,P|407:211|333:267,1,190,8|0,2:0|2:0,2:0:0:0:
336,168,190656,1,0,0:0:0:0:
212,143,190971,2,0,P|166:152|120:143,2,95,0|0|0,2:0|2:0|2:0,2:0:0:0:
336,168,191445,2,0,L|296:72,1,95,0|0,2:0|2:0,2:0:0:0:
240,248,191761,2,0,L|280:347,1,95,0|0,2:0|2:0,2:0:0:0:
416,232,192077,2,0,P|480:184|392:176,1,190
256,192,192550,1,0,0:0:0:0:
96,232,192708,2,0,P|32:184|120:176,1,190
256,192,193182,1,0,0:0:0:0:
304,280,193340,6,0,P|256:292|192:272,1,95
120,160,193656,1,0,0:0:0:0:
120,160,193971,1,0,0:0:0:0:
264,80,194287,2,0,P|312:88|376:80,1,95
168,200,194603,2,0,P|120:191|56:199,1,95
264,296,194919,2,0,P|312:304|376:296,1,95
312,224,195235,1,0,0:0:0:0:
144,96,195708,1,0,0:0:0:0:
144,96,195866,1,0,0:0:0:0:
112,176,196024,2,0,P|208:160|224:64,1,190
144,96,196498,2,0,P|216:176|384:136,1,285
384,48,197129,1,0,0:0:0:0:
272,72,197287,2,0,P|288:168|368:256,1,190
456,240,197761,1,0,0:0:0:0:
432,160,197919,2,0,P|304:176|240:240,3,190
360,280,199182,2,0,P|368:216|352:168,1,95
288,128,199498,1,0,0:0:0:0:
224,200,199656,2,0,P|184:128|248:48,2,190
384,224,200603,1,0,0:0:0:0:
432,160,200761,2,0,P|464:232|368:304,1,190
312,256,201235,1,0,0:0:0:0:
232,304,201392,1,0,0:0:0:0:
176,224,201550,1,0,0:0:0:0:
96,280,201708,1,0,0:0:0:0:
48,200,201866,2,0,P|56:112|80:88,1,95
112,32,202182,1,0,0:0:0:0:
176,104,202340,1,0,0:0:0:0:
224,184,202498,1,0,0:0:0:0:
441,157,202656,1,0,0:0:0:0:
249,50,202813,1,0,0:0:0:0:
342,249,202971,1,0,0:0:0:0:
384,34,203129,1,0,0:0:0:0:
224,184,203287,1,0,0:0:0:0:
384,34,203445,1,0,0:0:0:0:
342,249,203603,1,0,0:0:0:0:
342,249,203761,2,0,P|254:249|142:217,1,190
80,104,204392,2,0,P|144:96|192:120,1,95
216,208,204708,2,0,P|272:176|283:147,1,95
256,64,205024,1,0,0:0:0:0:
342,249,205182,1,0,0:0:0:0:
216,208,205340,2,0,P|192:256|200:168,1,285
272,144,205970,1,0,0:0:0:0:
160,208,206129,1,0,0:0:0:0:
352,80,206445,1,0,0:0:0:0:
352,80,206603,2,0,B|304:152|368:208|368:208|320:248,1,190
416,136,207077,1,0,0:0:0:0:
216,216,207235,1,0,0:0:0:0:
216,216,207392,2,0,P|224:136|168:32,1,190
104,160,207866,1,0,0:0:0:0:
104,160,208024,1,0,0:0:0:0:
112,176,208340,1,0,0:0:0:0:
120,192,208656,1,0,0:0:0:0:
128,208,208971,2,0,P|176:208|232:192,1,95
374,111,209287,2,0,P|327:113|280:120,1,95
336,248,209603,1,0,0:0:0:0:
176,128,209761,2,0,B|200:184|200:184|144:240|192:312,1,190
248,248,210235,1,0,0:0:0:0:
304,176,210392,2,0,B|378:178|396:101|396:101|456:92,1,190
312,88,210866,2,0,P|232:120|232:240,1,190
264,296,211340,1,0,0:0:0:0:
288,176,211498,1,0,0:0:0:0:
208,120,211656,2,0,L|136:120|96:120,1,95
32,184,211971,1,0,0:0:0:0:
120,296,212129,1,0,0:0:0:0:
232,224,212287,1,0,0:0:0:0:
208,120,212445,1,0,0:0:0:0:
288,80,212603,2,0,P|344:104|368:136,1,95
192,200,212919,2,0,P|136:176|112:144,1,95
304,184,213235,2,0,P|280:240|249:264,1,95
182,90,213551,2,0,P|205:33|236:9,1,95
304,184,214024,2,0,P|384:200|512:152,1,190
400,112,214498,1,0,0:0:0:0:
384,248,214656,1,0,0:0:0:0:
384,248,214813,2,0,P|320:280|192:240,2,190
384,144,215761,1,0,0:0:0:0:
288,144,215919,2,0,P|312:80|424:56,1,190
464,136,216392,1,0,0:0:0:0:
424,224,216551,1,0,0:0:0:0:
472,304,216709,1,0,0:0:0:0:
240,272,216866,2,0,P|160:256|128:272,1,95
88,320,217182,1,0,0:0:0:0:
144,120,217340,2,0,P|240:136|344:96,1,190
344,24,217813,1,0,0:0:0:0:
256,24,217971,2,0,P|256:96|312:216,1,190
432,360,218445,2,0,P|432:288|376:168,1,190
312,224,218919,1,0,0:0:0:0:
240,176,219077,1,0,0:0:0:0:
168,224,219235,1,0,0:0:0:0:
128,152,219392,2,0,L|128:40,1,95
168,224,219708,1,0,0:0:0:0:
168,304,219866,2,0,P|232:288|232:168,2,190
168,224,220813,1,0,0:0:0:0:
144,144,220971,2,0,B|216:128|248:192|248:192|328:192,1,190
328,104,221445,1,0,0:0:0:0:
256,248,221603,1,0,0:0:0:0:
192,168,221761,1,0,0:0:0:0:
352,200,221919,1,0,0:0:0:0:
328,104,222077,1,0,0:0:0:0:
408,128,222235,1,0,0:0:0:0:
232,80,222393,1,0,0:0:0:0:
272,168,222708,1,0,0:0:0:0:
272,168,223024,1,0,0:0:0:0:
272,168,223340,1,0,0:0:0:0:
192,312,223498,1,0,0:0:0:0:
88,144,223813,5,0,0:0:0:0:
