osu file format v13

[General]
AudioFilename: AZ.mp3
AudioLeadIn: 1000
PreviewTime: 50283
Countdown: 0
SampleSet: Soft
StackLeniency: 0.7
Mode: 0
LetterboxInBreaks: 0
WidescreenStoryboard: 0

[Editor]
DistanceSpacing: 0.9
BeatDivisor: 2
GridSize: 8
TimelineZoom: 1

[Metadata]
Title:A/Z (TV size)
TitleUnicode:A/Z (TV size)
Artist:SawanoHiroyuki[nZk]:mizuki
ArtistUnicode:SawanoHiroyuki[nZk]:mizuki
Creator:Umi
Version:Normal
Source:アルドノア・ゼロ
Tags:aldnoah.zero aldnoah zero ending mizuki cherry blossom Sawano Hiroyuki
BeatmapID:514256
BeatmapSetID:218200

[Difficulty]
HPDrainRate:4
CircleSize:3.5
OverallDifficulty:4
ApproachRate:5
SliderMultiplier:1.3
SliderTickRate:1

[Events]
//Background and Video events
0,0,"BG2.jpg",0,0
Video,0,"Aldnoah zero ED.avi"
//Break Periods
//Storyboard Layer 0 (Background)
//Storyboard Layer 1 (Fail)
//Storyboard Layer 2 (Pass)
//Storyboard Layer 3 (Foreground)
//Storyboard Sound Samples
//Background Colour Transformations
3,100,163,162,255

[TimingPoints]
374,545.454545454546,4,2,2,30,1,0
17828,-100,4,2,1,60,0,0
35283,-100,4,2,3,30,0,0
52737,-100,4,2,1,80,0,1
70055,-100,4,2,1,80,0,0
70192,-100,4,2,1,80,0,1
83283,-100,4,2,1,50,0,1
83828,-100,4,2,1,80,0,1
87101,-100,4,2,1,50,0,0
87374,-100,4,2,2,25,0,0

[Colours]
Combo1 : 228,197,250
Combo2 : 188,233,250
Combo3 : 249,163,138
Combo4 : 241,223,150

[HitObjects]
59,171,374,6,0,P|121:157|184:171,1,130,4|0,0:0|0:0,0:0:0:0:
282,235,1464,2,0,P|298:211|302:154,1,65,0|0,0:0|0:0,0:0:0:0:
282,121,2010,2,0,L|363:109,1,65
404,103,2555,6,0,P|446:133|469:231,1,130,2|0,0:0|0:0,0:0:0:0:
390,288,3646,2,0,P|349:290|318:277,1,65
272,261,4192,2,0,P|230:261|198:275,1,65
155,292,4737,6,0,L|131:164,1,130,2|0,0:0|0:0,0:0:0:0:
112,108,5555,2,0,P|176:123|255:94,1,130,2|0,0:0|0:0,0:0:0:0:
290,82,6374,1,0,0:0:0:0:
393,135,6919,6,0,L|380:278,1,130,2|0,0:0|0:0,0:0:0:0:
371,322,7737,1,2,0:0:0:0:
254,308,8283,2,0,L|269:378,2,65,0|0|0,0:0|0:0|0:0,0:0:0:0:
242,250,9101,6,0,P|196:215|104:220,1,130,4|0,0:0|0:0,0:0:0:0:
68,221,9919,1,0,0:0:0:0:
68,221,10192,2,0,L|85:132,2,65,0|0|0,0:0|0:0|0:0,0:0:0:0:
107,331,11283,6,0,L|259:308,1,130,2|0,0:0|0:0,0:0:0:0:
291,293,12101,2,0,P|292:248|269:219,1,65,2|0,0:0|0:0,0:0:0:0:
237,193,12646,2,0,P|245:150|276:125,1,65
301,94,13192,1,0,0:0:0:0:
301,94,13464,6,0,L|438:108,1,130,2|0,0:0|0:0,0:0:0:0:
488,112,14283,1,2,0:0:0:0:
460,224,14828,2,0,P|400:232|382:250,1,65
350,268,15374,1,0,0:0:0:0:
292,279,15646,6,0,P|236:271|176:217,1,130,2|0,0:0|0:0,0:0:0:0:
172,167,16464,1,2,0:0:0:0:
241,72,17010,2,0,L|295:113,1,65,0|2,0:0|0:0,0:0:0:0:
263,225,17828,6,0,P|226:214|126:230,1,130,6|8,0:0|0:0,0:0:0:0:
83,250,18646,1,0,0:0:0:0:
83,250,18919,2,0,L|78:114,1,130,2|8,0:0|0:0,0:0:0:0:
180,62,20010,6,0,L|270:49,1,65,2|0,0:0|0:0,0:0:0:0:
281,97,20555,2,0,L|351:87,1,65,8|0,0:0|0:0,0:0:0:0:
402,75,21101,1,2,0:0:0:0:
482,159,21646,1,8,0:0:0:0:
420,258,22192,6,0,P|399:278|291:289,1,130,2|8,0:0|0:0,0:0:0:0:
247,275,23010,2,0,L|272:135,1,130
275,88,23828,1,8,0:0:0:0:
384,46,24374,6,0,L|406:173,1,130,2|8,0:0|0:0,0:0:0:0:
446,283,25464,2,0,P|478:270|514:273,2,65,2|0|8,0:0|0:0|0:0,0:0:0:0:
395,312,26283,1,0,0:0:0:0:
341,336,26555,6,0,P|276:343|204:333,1,130,6|8,0:0|0:0,0:0:0:0:
148,237,27646,2,0,L|175:173,1,65,2|0,0:0|0:0,0:0:0:0:
129,138,28192,2,0,L|178:93,1,65,8|0,0:0|0:0,0:0:0:0:
226,62,28737,6,0,P|263:59|339:108,1,130,2|8,0:0|0:0,0:0:0:0:
449,142,29828,2,0,L|483:75,2,65,2|0|8,0:0|0:0|0:0,0:0:0:0:
422,195,30646,1,0,0:0:0:0:
422,195,30919,6,0,P|415:264|431:327,1,130,2|8,0:0|0:0,0:0:0:0:
470,364,31737,2,0,L|317:349,1,130
282,345,32555,1,8,0:0:0:0:
218,246,33101,6,0,P|252:183|239:115,1,130,2|8,0:0|0:0,0:0:0:0:
197,93,33919,2,0,P|126:96|62:94,1,130
9,84,34737,1,8,0:0:0:0:
4,201,35283,6,0,P|78:246|142:237,1,130,4|0,0:0|0:0,0:0:0:0:
176,233,36101,1,0,0:0:0:0:
276,174,36646,2,0,L|306:250,2,65,0|0|0,0:0|0:0|0:0,0:0:0:0:
237,129,37464,6,0,B|198:123|168:130|138:138|106:128,1,130,2|0,0:0|0:0,0:0:0:0:
53,106,38283,2,0,L|90:295,1,130
96,289,39101,2,0,P|151:278|174:261,1,65
192,226,39646,6,0,L|313:247,2,97.5,2|0|0,0:0|0:0|0:0,0:0:0:0:
99,154,41010,2,0,L|26:167,2,65,0|0|0,0:0|0:0|0:0,0:0:0:0:
140,113,41828,6,0,P|218:108|271:128,1,130,2|0,0:0|0:0,0:0:0:0:
315,155,42646,1,2,0:0:0:0:
402,232,43192,2,0,L|448:131,1,97.5
390,72,44010,6,0,P|328:86|265:71,1,130,4|0,0:0|0:0,0:0:0:0:
211,48,44828,1,0,0:0:0:0:
107,103,45374,2,0,L|127:178,1,65
140,221,45919,1,0,0:0:0:0:
140,221,46192,6,0,P|202:206|265:220,1,130,2|0,0:0|0:0,0:0:0:0:
310,258,47010,2,0,P|389:246|429:203,1,130
424,154,47828,2,0,L|368:106,1,65
329,73,48374,1,4,0:0:0:0:
148,218,50283,6,0,P|203:220|259:281,1,130
254,328,51101,1,0,0:0:0:0:
366,296,51646,2,0,P|387:256|418:239,1,65,2|0,0:0|0:0,0:0:0:0:
417,188,52192,2,0,P|390:139|368:129,1,65
328,117,52737,6,0,P|262:143|194:131,1,130,6|8,0:0|0:0,0:0:0:0:
90,110,53828,2,0,P|109:67|132:52,2,65,2|0|8,0:0|0:0|0:0,0:0:0:0:
85,168,54646,1,0,0:0:0:0:
113,218,54919,6,0,L|251:247,1,130,2|8,0:0|0:0,0:0:0:0:
281,286,55737,2,0,P|309:238|382:224,1,130
435,235,56555,1,8,0:0:0:0:
456,120,57101,5,2,0:0:0:0:
350,68,57646,2,0,P|326:87|309:135,1,65,8|0,0:0|0:0,0:0:0:0:
320,176,58192,2,0,L|168:160,1,130,2|8,0:0|0:0,0:0:0:0:
136,152,59010,1,0,0:0:0:0:
88,184,59283,6,0,P|96:256|160:296,1,130,2|8,0:0|0:0,0:0:0:0:
256,304,60374,2,0,L|304:256,1,65,2|0,0:0|0:0,0:0:0:0:
277,204,60919,2,0,L|325:156,1,65,8|8,0:0|0:0,0:0:0:0:
365,116,61464,6,0,P|427:100|489:116,1,130,6|8,0:0|0:0,0:0:0:0:
427,215,62555,1,2,0:0:0:0:
309,209,63101,1,8,0:0:0:0:
309,209,63374,1,0,0:0:0:0:
309,209,63646,6,0,L|244:69,1,130,2|8,0:0|0:0,0:0:0:0:
199,68,64464,2,0,P|148:105|84:103,1,130
25,96,65283,2,0,L|37:183,1,65,8|0,0:0|0:0,0:0:0:0:
44,217,65828,6,0,P|107:214|159:252,1,130,6|8,0:0|0:0,0:0:0:0:
251,324,66919,1,2,0:0:0:0:
349,261,67464,1,8,0:0:0:0:
349,261,67737,1,8,0:0:0:0:
349,261,68010,6,0,P|352:191|347:125,1,130,2|8,0:0|0:0,0:0:0:0:
334,74,68828,1,8,0:0:0:0:
334,74,69101,2,0,P|366:78|398:75,1,65,2|0,0:0|0:0,0:0:0:0:
456,60,69646,2,0,P|486:98|488:137,1,65,8|2,0:0|0:0,0:0:0:0:
479,171,70192,6,0,P|451:230|456:296,1,130,6|8,0:0|0:0,0:0:0:0:
356,356,71283,1,2,0:0:0:0:
284,263,71828,2,0,P|233:264|208:283,1,65,8|0,0:0|0:0,0:0:0:0:
166,289,72374,6,0,P|135:248|145:158,1,130,2|8,0:0|0:0,0:0:0:0:
174,127,73192,1,0,0:0:0:0:
283,166,73737,2,0,L|226:217,2,65,0|8|0,0:0|0:0|0:0,0:0:0:0:
328,129,74555,6,0,L|366:255,1,130,6|8,0:0|0:0,0:0:0:0:
383,309,75374,1,0,0:0:0:0:
383,309,75646,2,0,L|448:264,1,65,2|0,0:0|0:0,0:0:0:0:
492,290,76192,2,0,L|497:221,1,65,8|0,0:0|0:0,0:0:0:0:
496,166,76737,6,0,P|457:115|385:107,1,130,2|8,0:0|0:0,0:0:0:0:
280,130,77828,1,2,0:0:0:0:
339,230,78374,1,8,0:0:0:0:
339,230,78646,1,0,0:0:0:0:
339,230,78919,6,0,P|252:240|212:221,1,130,6|8,0:0|0:0,0:0:0:0:
153,123,80010,1,2,0:0:0:0:
76,211,80555,2,0,P|69:245|82:284,1,65,8|0,0:0|0:0,0:0:0:0:
112,320,81101,6,0,L|242:297,1,130,2|8,0:0|0:0,0:0:0:0:
279,253,81919,1,0,0:0:0:0:
308,204,82192,2,0,L|167:177,1,130,2|8,0:0|0:0,0:0:0:0:
102,92,83283,6,0,P|59:142|61:213,1,130,6|8,0:0|0:0,0:0:0:0:
83,255,84101,2,0,B|124:243|179:257|239:269|276:252,1,195,0|8,0:0|0:0,0:0:0:0:
388,218,85464,6,0,L|402:298,2,65,2|8|8,0:0|0:0|0:0,0:0:0:0:
302,138,86555,2,0,L|288:218,1,65,8|0,0:0|0:0,0:0:0:0:
282,260,87101,1,2,0:0:0:0:
282,260,87374,1,2,0:0:0:0:
