osu file format v13

[General]
AudioFilename: Aldnoah.ZeroED TV.Size.mp3
AudioLeadIn: 0
PreviewTime: 53687
Countdown: 0
SampleSet: Soft
StackLeniency: 0.7
Mode: 0
LetterboxInBreaks: 0
WidescreenStoryboard: 0

[Editor]
DistanceSpacing: 1
BeatDivisor: 4
GridSize: 4
TimelineZoom: 1.1

[Metadata]
Title:A/Z (TV size)
TitleUnicode:A/Z (TV size)
Artist:SawanoHiroyuki[nZk]:mizuki
ArtistUnicode:SawanoHiroyuki[nZk]:mizuki
Creator:TT Mouse
Version:Normal
Source:アルドノア・ゼロ
Tags:ALDNOAH.ZERO Ending ED
BeatmapID:460844
BeatmapSetID:194015

[Difficulty]
HPDrainRate:3
CircleSize:3
OverallDifficulty:3
ApproachRate:4
SliderMultiplier:1.10000000596046
SliderTickRate:1

[Events]
//Background and Video events
0,0,"BG.JPG",0,0
Video,480,"ED.avi"
//Break Periods
//Storyboard Layer 0 (Background)
//Storyboard Layer 1 (Fail)
//Storyboard Layer 2 (Pass)
//Storyboard Layer 3 (Foreground)
//Storyboard Sound Samples
//Background Colour Transformations
3,100,163,162,255

[TimingPoints]
1324,545.454545454546,4,2,1,40,1,0
1324,-117.647058823529,4,2,1,40,0,0
18642,-117.647058823529,4,2,2,50,0,0
35960,-117.647058823529,4,2,1,40,0,0
43596,-117.647058823529,4,2,1,30,0,0
53687,-117.647058823529,4,2,2,65,0,1
58869,-117.647058823529,4,2,1,65,0,1
59414,-117.647058823529,4,2,2,65,0,1
85051,-117.647058823529,4,2,1,65,0,1
85596,-117.647058823529,4,2,2,65,0,1
88324,-117.647058823529,4,2,2,5,0,0

[Colours]
Combo1 : 0,128,255
Combo2 : 255,128,192
Combo3 : 191,191,191
Combo4 : 250,180,133

[HitObjects]
152,272,1324,6,0,B|188:300|237:307,1,93.5000022900105,4|2,0:0|0:0,0:0:0:0:
334,313,2142,2,0,L|371:355,2,46.7500011450051,0|8|0,0:0|0:0|0:0,0:0:0:0:
331,218,2960,2,0,L|275:210,1,46.7500011450051
247,126,3505,2,0,P|179:170|131:222,1,140.250003435015
190,287,4596,2,0,P|148:302|99:297,1,93.5000022900101,8|0,0:0|0:0,0:0:0:0:
42,220,5414,1,0,0:0:0:0:
65,126,5687,6,0,P|93:89|142:70,1,93.5000022900101,4|2,0:0|0:0,0:0:0:0:
158,165,6505,1,0,0:0:0:0:
229,231,6778,2,0,P|272:207|300:167,1,93.5000022900101,8|2,0:0|0:0,0:0:0:0:
229,112,7596,6,0,L|186:62,1,46.7500011450051,0|0,0:0|0:0,0:0:0:0:
289,46,8142,1,0,0:0:0:0:
373,69,8414,2,0,P|393:111|390:158,1,93.5000022900101,2|8,0:0|0:0,0:0:0:0:
411,252,9233,2,0,L|457:255,2,46.7500011450051,0|0|0,0:0|0:0|0:0,0:0:0:0:
336,313,10051,6,0,P|291:325|246:313,1,93.5000022900101,4|2,0:0|0:0,0:0:0:0:
188,236,10869,1,0,0:0:0:0:
234,151,11142,2,0,P|269:182|289:224,1,93.5000022900101,8|0,0:0|0:0,0:0:0:0:
386,225,11960,1,0,0:0:0:0:
386,225,12233,6,0,P|403:181|436:148,1,93.5000022900101,0|2,0:0|0:0,0:0:0:0:
354,96,13051,2,0,L|307:96,1,46.7500011450051,0|8,0:0|0:0,0:0:0:0:
228,152,13596,2,0,P|183:160|137:151,1,93.5000022900101
87,70,14414,2,0,P|43:126|39:150,1,93.5000022900101
60,234,15233,2,0,L|33:272,2,46.7500011450051,0|8|0,0:0|0:0|0:0,0:0:0:0:
144,282,16051,2,0,P|188:298|235:295,1,93.5000022900101,2|0,0:0|0:0,0:0:0:0:
324,331,16869,5,0,0:0:0:0:
324,331,17142,2,0,P|365:308|390:269,1,93.5000022900101,2|8,0:0|0:0,0:0:0:0:
347,183,17960,2,0,P|304:198|260:187,1,93.5000022900101
162,184,18778,6,0,L|132:148,1,46.7500011450051,4|0,0:0|0:0,0:0:0:0:
59,212,19324,2,0,P|80:253|118:279,1,93.5000022900101,8|0,0:0|0:0,0:0:0:0:
214,294,20142,1,0,0:0:0:0:
310,292,20414,2,0,P|299:337|266:370,2,93.5000022900101,8|0|8,0:0|0:0|0:0,0:0:0:0:
260,208,21778,5,0,0:0:0:0:
215,294,22051,2,0,P|163:222|196:132,1,187.00000458002,0|0,0:0|0:0,0:0:0:0:
286,113,23414,5,2,0:0:0:0:
260,206,23687,2,0,P|306:208|356:185,1,93.5000022900101,8|0,0:0|0:0,0:0:0:0:
442,159,24505,1,0,0:0:0:0:
391,70,24778,2,0,L|341:24,1,46.7500011450051,8|0,0:0|0:0,0:0:0:0:
262,38,25324,6,0,L|179:96,1,93.5000022900101,0|8,0:0|0:0,0:0:0:0:
96,120,26142,2,0,L|88:72,2,46.7500011450051,0|0|0,0:0|0:0|0:0,0:0:0:0:
37,192,26960,2,0,L|86:240,1,46.7500011450051,8|0,0:0|0:0,0:0:0:0:
1,289,27505,6,0,P|87:317|159:260,1,187.00000458002,4|0,0:0|0:0,0:0:0:0:
150,167,28869,1,0,0:0:0:0:
150,167,29142,2,0,L|115:110,1,46.7500011450051,8|0,0:0|0:0,0:0:0:0:
224,97,29687,6,0,P|243:140|245:188,2,93.5000022900101,0|8|0,0:0|0:0|0:0,0:0:0:0:
314,72,31051,2,0,L|346:132,1,46.7500011450051,0|8,0:0|0:0,0:0:0:0:
336,199,31596,1,0,0:0:0:0:
336,199,31869,6,0,P|382:208|424:191,2,93.5000022900101,0|8|0,0:0|0:0|0:0,0:0:0:0:
253,148,33233,2,0,P|267:130|296:112,2,46.7500011450051,0|8|0,0:0|0:0|0:0,0:0:0:0:
251,246,34051,5,8,0:0:0:0:
335,281,34596,1,8,0:0:0:0:
335,281,35142,2,0,L|340:234,1,46.7500011450051,0|8,0:0|0:0,0:0:0:0:
422,286,35687,2,0,L|432:193,1,93.5000022900101,12|4,0:0|0:0,0:0:0:0:
436,99,36778,6,0,P|393:118|329:118,1,93.5000022900101,2|0,0:0|0:0,0:0:0:0:
292,44,37869,1,2,0:0:0:0:
201,72,38414,1,0,0:0:0:0:
199,165,38960,2,0,L|181:213,2,46.7500011450051,2|0|0,0:0|0:0|0:0,0:0:0:0:
288,193,40051,1,2,0:0:0:0:
381,188,40596,6,0,P|387:248|410:292,1,93.5000022900101,0|2,0:0|0:0,0:0:0:0:
319,325,41687,2,0,P|274:309|222:316,1,93.5000022900101,0|2,0:0|0:0,0:0:0:0:
135,316,42778,6,0,P|92:286|70:244,1,93.5000022900101,0|2,0:0|0:0,0:0:0:0:
107,199,43596,1,0,0:0:0:0:
107,199,43869,2,0,P|153:208|199:201,2,93.5000022900101,0|0|4,0:0|0:0|0:0,0:0:0:0:
158,113,45505,6,0,P|204:101|249:110,1,93.5000022900101,0|8,0:0|0:0,0:0:0:0:
291,200,46596,1,0,0:0:0:0:
266,297,47142,6,0,P|313:300|356:277,1,93.5000022900101,4|8,0:0|0:0,0:0:0:0:
392,187,48233,1,0,0:0:0:0:
309,131,48778,5,0,0:0:0:0:
309,131,49051,2,0,P|191:191|84:112,1,280.50000687003
152,47,51233,6,0,L|263:55,1,93.5000022900101,0|0,0:0|0:0,0:0:0:0:
332,39,52051,2,0,P|376:59|406:101,1,93.5000022900101,4|0,0:0|0:0,0:0:0:0:
432,177,52869,2,0,L|464:237,2,46.7500011450051,0|0|0,0:0|0:0|0:0,0:0:0:0:
343,183,53687,6,0,L|383:267,1,93.5000022900101,4|8,0:0|0:0,0:0:0:0:
287,266,54505,1,0,0:0:0:0:
287,266,54778,2,0,P|238:190|278:110,1,187.00000458002
330,188,56142,6,0,L|385:207,1,46.7500011450051,0|8,0:0|0:0,0:0:0:0:
379,109,56687,2,0,P|368:62|333:30,1,93.5000022900101
240,36,57505,2,0,L|196:51,1,46.7500011450051,8|0,0:0|0:0,0:0:0:0:
150,137,58051,6,0,L|105:151,1,46.7500011450051
61,237,58596,2,0,P|150:253|224:194,1,187.00000458002,8|8,0:0|0:0,0:0:0:0:
242,102,59960,1,0,0:0:0:0:
242,102,60233,6,0,P|287:95|334:101,1,93.5000022900101,0|8,0:0|0:0,0:0:0:0:
430,87,61051,1,0,0:0:0:0:
430,87,61324,2,0,L|457:49,2,46.7500011450051,0|0|8,0:0|0:0|0:0,0:0:0:0:
398,174,62142,1,0,0:0:0:0:
398,174,62414,2,0,P|379:242|383:275,1,93.5000022900101,0|8,0:0|0:0,0:0:0:0:
288,282,63233,1,0,0:0:0:0:
288,282,63505,2,0,P|299:228|294:183,1,93.5000022900101,0|8,0:0|0:0,0:0:0:0:
314,97,64324,2,0,P|268:104|225:129,1,93.5000022900101
198,219,65142,5,8,0:0:0:0:
198,219,65414,2,0,P|155:191|134:147,1,93.5000022900101
137,57,66233,2,0,L|106:21,2,46.7500011450051,8|0|0,0:0|0:0|0:0,0:0:0:0:
220,108,67051,1,0,0:0:0:0:
220,108,67324,6,0,P|266:118|312:110,1,93.5000022900101,8|0,0:0|0:0,0:0:0:0:
383,45,68142,2,0,L|338:31,2,46.7500011450051,0|8|0,0:0|0:0|0:0,0:0:0:0:
448,107,68960,6,0,L|412:163,1,46.7500011450051
472,223,69505,2,0,P|436:251|384:275,1,93.5000022900101,12|0,0:0|0:0,0:0:0:0:
303,294,70324,2,0,L|238:295,2,46.7500011450051,0|8|0,0:0|0:0|0:0,0:0:0:0:
327,200,71142,6,0,P|280:189|220:211,1,93.5000022900101,4|8,0:0|0:0,0:0:0:0:
164,264,71960,1,0,0:0:0:0:
164,264,72233,2,0,P|136:216|144:169,1,93.5000022900101,0|8,0:0|0:0,0:0:0:0:
207,110,73051,1,0,0:0:0:0:
207,110,73324,6,0,P|207:63|171:19,1,93.5000022900101,0|8,0:0|0:0,0:0:0:0:
279,28,74142,2,0,P|334:32|380:38,1,93.5000022900101
456,85,74960,2,0,P|417:120|370:128,1,93.5000022900101,8|0,0:0|0:0,0:0:0:0:
302,189,75778,5,0,0:0:0:0:
302,189,76051,2,0,L|353:213,1,46.7500011450051,8|0,0:0|0:0,0:0:0:0:
441,207,76596,2,0,P|404:285|338:313,1,140.250003435015,0|0,0:0|0:0,0:0:0:0:
270,339,77687,2,0,L|212:346,1,46.7500011450051
222,262,78233,2,0,P|225:206|253:158,1,93.5000022900101,8|2,0:0|0:0,0:0:0:0:
334,146,79051,2,8,L|399:133,1,46.7500011450051,0|8,0:0|0:0,0:0:0:0:
434,56,79596,6,0,P|385:44|335:54,1,93.5000022900101,0|0,0:0|0:0,0:0:0:0:
257,96,80414,1,8,0:0:0:0:
257,96,80687,2,0,P|204:102|157:85,1,93.5000022900101
109,169,81505,1,8,0:0:0:0:
109,169,81778,6,0,L|106:263,1,93.5000022900101
158,344,82596,2,0,P|192:310|200:263,1,93.5000022900101,8|0,0:0|0:0,0:0:0:0:
199,170,83414,2,0,L|187:113,2,46.7500011450051,0|8|0,0:0|0:0|0:0,0:0:0:0:
286,136,84233,2,0,L|351:159,1,46.7500011450051
280,223,84778,2,0,P|335:241|470:214,1,187.00000458002,8|8,0:0|0:0,0:0:0:0:
510,136,86142,2,0,L|510:74,2,46.7500011450051,0|12|0,0:0|0:0|0:0,0:0:0:0:
413,132,86960,6,0,P|380:99|372:52,1,93.5000022900101,8|8,0:0|0:0,0:0:0:0:
286,74,87778,1,0,0:0:0:0:
286,74,88051,2,0,L|224:48,1,46.7500011450051,0|0,0:0|0:0,0:0:0:0:
