osu file format v13

[General]
AudioFilename: Aldnoah.ZeroED TV.Size.mp3
AudioLeadIn: 0
PreviewTime: 53687
Countdown: 0
SampleSet: Soft
StackLeniency: 0.7
Mode: 0
LetterboxInBreaks: 0
WidescreenStoryboard: 0

[Editor]
DistanceSpacing: 1.2
BeatDivisor: 4
GridSize: 4
TimelineZoom: 1.6

[Metadata]
Title:A/Z (TV size)
TitleUnicode:A/Z (TV size)
Artist:SawanoHiroyuki[nZk]:mizuki
ArtistUnicode:SawanoHiroyuki[nZk]:mizuki
Creator:TT Mouse
Version:Hard
Source:アルドノア・ゼロ
Tags:ALDNOAH.ZERO Ending ED
BeatmapID:460842
BeatmapSetID:194015

[Difficulty]
HPDrainRate:6
CircleSize:4
OverallDifficulty:6
ApproachRate:7
SliderMultiplier:1.3
SliderTickRate:1

[Events]
//Background and Video events
0,0,"BG.JPG",0,0
Video,480,"ED.avi"
//Break Periods
//Storyboard Layer 0 (Background)
//Storyboard Layer 1 (Fail)
//Storyboard Layer 2 (Pass)
//Storyboard Layer 3 (Foreground)
//Storyboard Sound Samples
//Background Colour Transformations
3,100,163,162,255

[TimingPoints]
1324,545.454545454546,4,2,1,40,1,0
1324,-83.3333333333333,4,2,1,40,0,0
18779,-83.3333333333333,4,2,2,55,0,0
36233,-111.111111111111,4,2,1,30,0,0
52051,-83.3333333333333,4,2,1,30,0,0
53687,-83.3333333333333,4,2,2,80,0,1
88324,-83.3333333333333,4,2,2,5,0,0

[Colours]
Combo1 : 0,128,255
Combo2 : 255,128,192
Combo3 : 191,191,191
Combo4 : 250,180,133

[HitObjects]
94,204,1324,6,0,P|125:234|189:251,1,77.999997619629,4|0,0:0|0:0,0:0:0:0:
248,224,1869,1,2,0:0:0:0:
316,157,2142,1,0,0:0:0:0:
316,157,2278,1,0,0:0:0:0:
316,157,2414,2,0,P|285:135|248:124,1,77.999997619629,8|0,0:0|0:0,0:0:0:0:
168,176,2960,1,0,0:0:0:0:
172,274,3233,1,0,0:0:0:0:
172,274,3505,6,0,P|200:301|236:316,1,77.999997619629,0|0,0:0|0:0,0:0:0:0:
320,272,4051,1,2,0:0:0:0:
418,284,4324,1,0,0:0:0:0:
376,200,4596,1,8,0:0:0:0:
360,352,4869,1,0,0:0:0:0:
376,200,5142,2,0,L|389:107,1,77.999997619629,2|0,0:0|0:0,0:0:0:0:
308,80,5687,6,0,L|293:190,1,77.999997619629,4|0,0:0|0:0,0:0:0:0:
237,216,6233,1,2,0:0:0:0:
237,216,6505,1,0,0:0:0:0:
190,146,6778,2,0,L|117:66,1,77.999997619629
90,157,7324,1,2,0:0:0:0:
190,146,7596,2,0,P|219:117|238:63,2,77.999997619629,0|0|0,0:0|0:0|0:0,0:0:0:0:
151,238,8414,5,2,0:0:0:0:
230,300,8687,2,0,P|251:259|247:198,1,77.999997619629,0|8,0:0|0:0,0:0:0:0:
190,147,9233,1,0,0:0:0:0:
90,190,9505,2,0,L|151:238,1,77.999997619629,2|0,0:0|0:0,0:0:0:0:
206,314,10051,6,0,L|179:360,2,38.9999988098145,4|0|0,0:0|0:0|0:0,0:0:0:0:
284,263,10596,1,2,0:0:0:0:
336,340,10869,2,0,P|366:316|376:278,1,77.999997619629,0|8,0:0|0:0,0:0:0:0:
359,187,11414,1,0,0:0:0:0:
376,278,11687,1,2,0:0:0:0:
270,177,11960,1,0,0:0:0:0:
376,278,12233,6,0,P|406:241|400:182,1,77.999997619629
388,120,12778,1,2,0:0:0:0:
307,72,13051,1,0,0:0:0:0:
230,126,13324,1,8,0:0:0:0:
230,126,13596,2,0,P|255:154|309:169,1,77.999997619629,0|2,0:0|0:0,0:0:0:0:
287,262,14142,1,0,0:0:0:0:
210,315,14414,5,4,0:0:0:0:
287,262,14687,2,0,P|306:309|298:344,1,77.999997619629,0|2,0:0|0:0,0:0:0:0:
210,315,15233,1,0,0:0:0:0:
124,273,15505,2,0,L|37:227,1,77.999997619629,8|0,0:0|0:0,0:0:0:0:
130,180,16051,1,2,0:0:0:0:
124,273,16324,2,0,L|98:348,2,77.999997619629,0|0|0,0:0|0:0|0:0,0:0:0:0:
207,231,17142,5,0,0:0:0:0:
207,231,17414,2,0,P|284:230|359:178,2,155.999995239258,2|2|2,0:0|0:0|0:0,0:0:0:0:
132,174,18778,6,0,L|184:87,1,77.999997619629,4|0,0:0|0:0,0:0:0:0:
264,88,19324,1,8,0:0:0:0:
235,176,19596,2,0,P|278:179|324:155,1,77.999997619629
358,85,20142,1,0,0:0:0:0:
401,169,20414,1,8,0:0:0:0:
264,88,20687,1,0,0:0:0:0:
235,176,20960,6,0,L|199:272,1,77.999997619629,0|0,0:0|0:0,0:0:0:0:
127,255,21505,1,8,0:0:0:0:
258,338,21778,1,0,0:0:0:0:
170,339,22051,2,0,P|131:346|91:344,1,77.999997619629,0|0,0:0|0:0,0:0:0:0:
258,338,22596,1,8,0:0:0:0:
170,339,22869,2,0,B|107:322|115:256|115:256|91:200,1,155.999995239258,0|0,0:0|0:0,0:0:0:0:
121,132,23687,5,8,0:0:0:0:
202,107,23960,2,0,P|228:75|251:44,2,77.999997619629,0|0|0,0:0|0:0|0:0,0:0:0:0:
121,133,24778,1,8,0:0:0:0:
121,133,25051,2,0,P|155:178|253:173,1,155.999995239258
385,106,25869,5,8,0:0:0:0:
297,105,26142,1,0,0:0:0:0:
341,177,26414,1,0,0:0:0:0:
341,177,26551,1,0,0:0:0:0:
341,177,26687,2,0,P|304:228|296:268,1,77.999997619629,0|8,0:0|0:0,0:0:0:0:
305,334,27233,2,0,P|345:321|374:292,1,77.999997619629,0|4,0:0|0:0,0:0:0:0:
421,218,27778,5,0,0:0:0:0:
432,124,28051,1,8,0:0:0:0:
357,67,28324,1,0,0:0:0:0:
266,91,28596,2,0,P|281:125|315:155,1,77.999997619629
313,241,29142,1,8,0:0:0:0:
313,241,29414,2,0,P|284:270|224:297,1,77.999997619629
139,209,29960,5,0,0:0:0:0:
139,209,30233,2,0,P|169:178|227:158,1,77.999997619629,8|0,0:0|0:0,0:0:0:0:
215,247,30778,1,0,0:0:0:0:
86,281,31051,1,0,0:0:0:0:
87,148,31324,1,8,0:0:0:0:
215,247,31596,2,0,P|191:278|146:290,1,77.999997619629
218,170,32142,5,0,0:0:0:0:
269,304,32414,1,8,0:0:0:0:
400,282,32687,2,0,L|452:207,1,77.999997619629,2|0,0:0|0:0,0:0:0:0:
400,282,33233,2,0,P|339:247|308:160,1,155.999995239258,2|0,0:0|0:0,0:0:0:0:
315,36,34051,5,10,0:0:0:0:
393,148,34324,1,2,0:0:0:0:
255,97,34596,1,10,0:0:0:0:
396,65,34869,1,0,0:0:0:0:
396,65,35005,1,0,0:0:0:0:
396,65,35142,1,0,0:0:0:0:
255,97,35414,2,0,P|201:92|161:76,1,77.999997619629,2|8,0:0|0:0,0:0:0:0:
110,41,35960,1,0,0:0:0:0:
96,120,36233,6,0,B|89:169|89:169|69:202|81:240,1,116.999996429443,4|2,0:0|0:0,0:0:0:0:
99,319,37051,2,0,P|147:286|162:228,1,116.999996429443
77,236,37869,1,2,0:0:0:0:
99,319,38142,2,0,P|157:345|210:351,1,116.999996429443,0|0,0:0|0:0,0:0:0:0:
297,340,38960,5,2,0:0:0:0:
210,351,39233,2,0,P|219:287|256:252,1,116.999996429443,0|0,0:0|0:0,0:0:0:0:
343,263,40051,1,2,0:0:0:0:
343,263,40324,1,0,0:0:0:0:
255,252,40596,6,0,L|213:205,1,58.4999982147217,0|0,0:0|0:0,0:0:0:0:
216,208,41005,1,0,0:0:0:0:
216,208,41142,1,2,0:0:0:0:
219,108,41414,1,0,0:0:0:0:
132,155,41687,2,0,P|102:156|51:142,1,58.4999982147217
132,251,42233,2,0,P|101:270|63:281,1,58.4999982147217,2|0,0:0|0:0,0:0:0:0:
186,320,42778,2,0,P|174:352|151:387,2,58.4999982147217,0|0|2,0:0|0:0|0:0,0:0:0:0:
132,251,43596,5,0,0:0:0:0:
96,331,43869,1,0,0:0:0:0:
186,320,44142,2,0,P|219:270|214:216,1,116.999996429443,0|0,0:0|0:0,0:0:0:0:
214,216,44960,6,0,P|316:267|414:216,1,233.999992858887,2|0,0:0|0:0,0:0:0:0:
400,123,46324,1,0,0:0:0:0:
329,181,46596,1,2,0:0:0:0:
329,181,46869,2,0,P|280:130|276:119,1,58.4999982147217
425,211,47414,6,0,P|434:238|431:271,1,58.4999982147217,0|2,0:0|0:0,0:0:0:0:
329,181,47960,2,0,P|313:131|355:64,1,116.999996429443
408,135,48778,1,2,0:0:0:0:
329,181,49051,2,0,P|265:185|208:144,1,116.999996429443
422,152,51233,6,0,P|350:158|298:142,1,116.999996429443,2|0,0:0|0:0,0:0:0:0:
269,52,52051,2,0,P|308:47|350:54,1,77.999997619629,0|0,0:0|0:0,0:0:0:0:
307,146,52596,2,0,L|356:233,2,77.999997619629,0|0|0,0:0|0:0|0:0,0:0:0:0:
219,135,53414,1,0,0:0:0:0:
158,199,53687,6,0,P|127:164|121:129,1,77.999997619629,4|0,0:0|0:0,0:0:0:0:
120,134,54096,1,0,0:0:0:0:
120,134,54233,1,8,0:0:0:0:
164,69,54505,1,0,0:0:0:0:
158,199,54778,2,0,L|153:276,1,77.999997619629
218,343,55324,1,8,0:0:0:0:
153,276,55596,2,0,P|128:311|88:348,2,77.999997619629,0|0|0,0:0|0:0|0:0,0:0:0:0:
277,203,56414,5,8,0:0:0:0:
229,265,56687,1,0,0:0:0:0:
258,127,56960,1,0,0:0:0:0:
258,127,57233,1,0,0:0:0:0:
258,127,57505,2,0,P|223:149|194:200,1,77.999997619629,8|0,0:0|0:0,0:0:0:0:
101,189,58051,5,0,0:0:0:0:
134,95,58324,1,0,0:0:0:0:
201,178,58596,1,8,0:0:0:0:
259,126,58869,1,0,0:0:0:0:
209,253,59142,1,0,0:0:0:0:
209,253,59414,2,0,P|243:286|301:288,1,77.999997619629,0|8,0:0|0:0,0:0:0:0:
281,211,59960,1,0,0:0:0:0:
281,211,60233,6,0,P|276:146|266:124,1,77.999997619629,0|0,0:0|0:0,0:0:0:0:
313,41,60778,2,0,P|274:45|237:56,1,77.999997619629,8|0,0:0|0:0,0:0:0:0:
143,85,61324,1,0,0:0:0:0:
76,160,61596,1,0,0:0:0:0:
152,226,61869,1,8,0:0:0:0:
76,160,62142,5,0,0:0:0:0:
76,160,62278,1,0,0:0:0:0:
76,160,62414,2,0,P|51:188|49:230,1,77.999997619629,4|0,0:0|0:0,0:0:0:0:
125,294,62960,2,0,P|151:257|151:224,1,77.999997619629,8|0,0:0|0:0,0:0:0:0:
223,178,63505,2,0,P|196:150|159:143,1,77.999997619629
151,224,64051,1,8,0:0:0:0:
227,266,64324,6,0,B|270:271|292:233,2,77.999997619629,0|0|0,0:0|0:0|0:0,0:0:0:0:
299,331,65142,1,8,0:0:0:0:
292,233,65414,2,0,P|295:190|307:156,1,77.999997619629,0|0,0:0|0:0,0:0:0:0:
372,90,65960,1,0,0:0:0:0:
413,177,66233,1,8,0:0:0:0:
307,156,66505,2,0,L|218:137,1,77.999997619629,0|0,0:0|0:0,0:0:0:0:
135,197,67051,6,0,L|232:222,1,77.999997619629,0|8,0:0|0:0,0:0:0:0:
212,310,67596,1,0,0:0:0:0:
119,327,67869,1,0,0:0:0:0:
210,216,68142,1,0,0:0:0:0:
292,258,68414,1,8,0:0:0:0:
182,127,68687,1,0,0:0:0:0:
94,164,68960,6,0,L|42:189,4,38.9999988098145,0|0|0|0|12,0:0|0:0|0:0|0:0|0:0,0:0:0:0:
103,86,69778,1,8,0:0:0:0:
119,249,70051,1,8,0:0:0:0:
250,149,70324,1,8,0:0:0:0:
103,86,70596,1,8,0:0:0:0:
119,249,70869,2,0,P|166:240|210:203,1,77.999997619629,8|4,0:0|0:0,0:0:0:0:
250,149,71414,5,0,0:0:0:0:
331,102,71687,1,8,0:0:0:0:
331,102,71824,1,0,0:0:0:0:
331,102,71960,1,0,0:0:0:0:
316,189,72233,2,0,P|281:174|248:148,2,77.999997619629,0|0|8,0:0|0:0|0:0,0:0:0:0:
408,216,73051,1,0,0:0:0:0:
408,216,73324,6,0,L|412:328,1,77.999997619629
324,332,73869,1,8,0:0:0:0:
264,260,74142,1,0,0:0:0:0:
264,260,74278,1,0,0:0:0:0:
264,260,74414,2,0,P|232:288|192:328,1,77.999997619629
104,312,74960,1,8,0:0:0:0:
70,234,75233,2,0,L|148:244,1,77.999997619629,0|0,0:0|0:0,0:0:0:0:
120,168,75778,5,0,0:0:0:0:
224,271,76051,2,0,P|254:244|268:194,1,77.999997619629,8|0,0:0|0:0,0:0:0:0:
257,117,76596,1,0,0:0:0:0:
363,216,76869,1,0,0:0:0:0:
257,117,77142,1,8,0:0:0:0:
363,216,77414,2,0,P|391:180|405:131,1,77.999997619629
389,70,77960,5,0,0:0:0:0:
363,216,78233,2,0,P|427:213|460:203,1,77.999997619629,8|0,0:0|0:0,0:0:0:0:
281,246,78778,1,0,0:0:0:0:
195,257,79051,1,0,0:0:0:0:
248,323,79324,1,8,0:0:0:0:
281,246,79596,2,0,P|265:211|212:171,1,77.999997619629,0|4,0:0|0:0,0:0:0:0:
153,160,80142,5,0,0:0:0:0:
94,96,80414,1,8,0:0:0:0:
153,160,80687,2,0,P|118:184|74:179,1,77.999997619629
233,130,81233,1,0,0:0:0:0:
317,144,81505,1,8,0:0:0:0:
253,201,81778,2,0,P|234:169|241:110,1,77.999997619629
282,48,82324,5,0,0:0:0:0:
317,144,82596,1,8,0:0:0:0:
282,48,82869,2,0,P|243:65|213:114,1,77.999997619629
151,127,83414,1,0,0:0:0:0:
74,143,83687,1,8,0:0:0:0:
100,69,83960,2,0,P|132:95|151:127,1,77.999997619629,0|4,0:0|0:0,0:0:0:0:
126,202,84505,5,0,0:0:0:0:
50,217,84778,1,8,0:0:0:0:
126,202,85051,2,0,P|106:269|27:292,1,155.999995239258
50,217,85869,1,8,0:0:0:0:
187,292,86142,1,0,0:0:0:0:
335,235,86414,6,0,P|305:186|277:168,1,77.999997619629,12|2,0:0|0:0,0:0:0:0:
187,292,86960,2,0,P|217:341|245:359,1,77.999997619629,8|2,0:0|0:0,0:0:0:0:
381,248,87505,2,0,P|351:199|323:181,1,77.999997619629,8|2,0:0|0:0,0:0:0:0:
248,188,88051,1,8,0:0:0:0:
362,329,88324,1,4,0:0:0:0:
