osu file format v14

[General]
AudioFilename: Aldnoah Zero Season 2 OP_Opening_OST - _&Z_ by SawanoHiroyuki[nZk]_mizuki HD.mp3
AudioLeadIn: 1500
PreviewTime: 63078
Countdown: 0
SampleSet: Soft
StackLeniency: 0.7
Mode: 0
LetterboxInBreaks: 0
WidescreenStoryboard: 0

[Editor]
DistanceSpacing: 1
BeatDivisor: 4
GridSize: 4
TimelineZoom: 1

[Metadata]
Title:&Z (TV size-English ver.-)
TitleUnicode:&Z(TV size-English ver.-)
Artist:SawanoHiroyuki[nZk]:mizuki
ArtistUnicode:SawanoHiroyuki[nZk]:mizuki
Creator:Pho
Version:Normal
Source:Aldnoah.Zero
Tags:澤野弘之 aldnoah zero opening 2nd season アルドノア・ゼロ sawano hiroyuki slaine isa tool
BeatmapID:595843
BeatmapSetID:260881

[Difficulty]
HPDrainRate:4
CircleSize:3.5
OverallDifficulty:4
ApproachRate:5
SliderMultiplier:1.1
SliderTickRate:1

[Events]
//Background and Video events
0,0,"fckslaine.jpg",0,0
Video,-282,"AZop.avi"
//Break Periods
//Storyboard Layer 0 (Background)
//Storyboard Layer 1 (Fail)
//Storyboard Layer 2 (Pass)
//Storyboard Layer 3 (Foreground)
//Storyboard Sound Samples

[TimingPoints]
230,379.746835443038,4,2,1,20,1,0
799,-100,4,2,1,20,0,0
1179,-100,4,2,1,30,0,0
1559,-100,4,2,1,35,0,0
1938,-100,4,2,1,40,0,0
2318,-100,4,2,1,45,0,0
2698,-100,4,2,1,50,0,0
2888,-100,4,2,1,30,0,0
3078,-100,4,2,1,10,0,0
3267,-100,4,2,1,50,0,0
15419,-100,4,2,1,35,0,0
26622,-100,4,2,1,35,0,0
27192,-100,4,2,1,10,0,0
27571,-100,4,2,1,45,0,0
39723,-100,4,2,1,35,0,0
51875,-100,4,2,1,45,0,0
63267,-100,4,2,1,50,0,0
64027,-100,4,2,1,60,0,1
88141,-100,4,2,1,60,0,0

[Colours]
Combo1 : 33,54,95
Combo2 : 177,158,92
Combo3 : 0,128,64
Combo4 : 255,128,0

[HitObjects]
256,192,798,12,12,3267,0:0:0:0:
349,86,4027,6,0,P|365:149|352:204,1,110,8|2,0:0|0:0,0:0:0:0:
321,234,4597,2,0,P|265:250|225:298,1,110,8|2,0:0|0:0,0:0:0:0:
216,340,5166,1,8,0:0:0:0:
112,301,5546,2,0,P|85:275|69:203,1,110,8|0,0:0|0:0,0:0:0:0:
164,150,6305,6,0,P|219:133|274:136,1,110,8|2,0:0|0:0,0:0:0:0:
326,139,6875,1,2,0:0:0:0:
326,139,7065,2,0,P|384:128|449:32,2,165,8|8|8,0:0|0:0|0:0,0:0:0:0:
250,58,8584,1,8,0:0:0:0:
141,76,8964,1,2,0:0:0:0:
87,171,9343,6,0,L|110:305,1,110,12|2,0:0|0:0,0:0:0:0:
124,331,9912,1,2,0:0:0:0:
124,331,10103,2,0,P|177:347|241:331,1,110,8|2,0:0|0:0,0:0:0:0:
271,303,10672,2,0,P|308:277|429:274,1,165,10|8,0:0|0:0,0:0:0:0:
510,204,11622,1,10,0:0:0:0:
459,106,12002,1,0,0:0:0:0:
355,142,12381,6,0,L|300:162,2,55,8|8|2,0:0|0:0|0:0,0:0:0:0:
459,106,13141,2,0,P|480:160|492:213,1,110,8|2,0:0|0:0,0:0:0:0:
497,265,13711,2,0,P|451:284|319:303,1,165,8|8,0:0|0:0,0:0:0:0:
254,231,14660,1,8,0:0:0:0:
186,318,15040,1,2,0:3:0:0:
93,259,15419,6,0,P|89:204|104:139,1,110,6|2,0:0|0:0,0:0:0:0:
136,46,16179,2,0,L|86:11,2,55,8|2|2,0:0|0:0|0:0,0:0:0:0:
215,122,16938,1,2,0:0:0:0:
272,27,17318,1,2,0:0:0:0:
326,122,17698,2,0,P|308:202|316:245,1,110,8|2,0:0|0:0,0:0:0:0:
325,282,18267,1,0,0:0:0:0:
325,282,18457,6,0,P|373:320|442:330,1,110,2|2,0:0|0:0,0:0:0:0:
418,219,19217,2,0,L|474:177,2,55,8|2|2,0:0|0:0|0:0,0:0:0:0:
359,125,19976,1,2,0:0:0:0:
280,201,20356,1,2,0:0:0:0:
171,183,20736,2,0,P|140:128|154:72,1,110,8|2,0:0|0:0,0:0:0:0:
227,8,21495,5,2,0:0:0:0:
316,71,21875,1,2,0:0:0:0:
424,56,22255,2,0,L|486:40,2,55,8|2|2,0:0|0:0|0:0,0:0:0:0:
386,159,23014,2,0,L|395:278,1,110,2|2,0:0|0:0,0:0:0:0:
307,334,23774,2,0,P|253:359|185:348,1,110,8|2,0:0|0:0,0:0:0:0:
155,329,24343,1,0,0:0:0:0:
155,329,24533,6,0,P|142:278|136:216,1,110,2|2,0:0|0:0,0:0:0:0:
229,162,25293,2,0,P|241:219|248:275,1,110,8|2,0:0|0:0,0:0:0:0:
348,313,26052,2,0,P|336:256|329:200,1,110,2|2,0:0|0:0,0:0:0:0:
325,149,26622,1,0,0:0:0:0:
362,108,26812,2,0,P|413:90|479:111,1,110,8|6,0:0|0:0,0:0:0:0:
508,204,27571,6,0,P|508:262|504:329,1,110,6|2,0:0|0:0,0:0:0:0:
403,357,28331,2,0,L|334:383,2,55,8|2|2,0:0|0:0|0:0,0:0:0:0:
422,304,28900,1,0,0:0:0:0:
422,304,29090,2,0,P|421:257|379:182,1,110,2|2,0:0|0:0,0:0:0:0:
285,204,29850,2,0,L|167:208,1,110,8|2,0:0|0:0,0:0:0:0:
115,300,30609,6,0,L|233:296,1,110,2|2,0:0|0:0,0:0:0:0:
335,294,31369,2,0,L|346:359,2,55,8|2|2,0:0|0:0|0:0,0:0:0:0:
357,244,31938,1,0,0:0:0:0:
357,244,32128,2,0,P|390:184|377:101,1,110,2|2,0:0|0:0,0:0:0:0:
330,51,32888,1,8,0:0:0:0:
255,132,33267,1,2,0:0:0:0:
182,51,33647,6,0,P|124:42|68:64,1,110,2|2,0:0|0:0,0:0:0:0:
37,161,34407,2,0,L|9:228,2,55,8|2|2,0:0|0:0|0:0,0:0:0:0:
146,173,35166,1,2,0:0:0:0:
160,282,35546,1,2,0:0:0:0:
246,349,35926,2,0,L|357:323,1,110,8|2,0:0|0:0,0:0:0:0:
385,218,36685,5,2,0:0:0:0:
462,140,37065,1,2,0:0:0:0:
392,58,37445,2,0,L|405:2,2,55,8|2|2,0:0|0:0|0:0,0:0:0:0:
311,133,38204,2,0,L|298:189,2,55,2|0|2,0:0|0:0|0:0,0:0:0:0:
253,38,38964,1,10,0:0:0:0:
143,36,39343,6,0,P|84:62|48:136,1,110,2|6,0:0|0:0,0:0:0:0:
28,204,40103,1,2,0:0:0:0:
100,282,40483,1,2,0:0:0:0:
209,270,40862,1,2,0:0:0:0:
251,168,41242,1,2,0:0:0:0:
360,156,41622,2,0,P|428:202|454:262,1,110,2|2,0:0|0:0,0:0:0:0:
370,308,42381,6,0,P|316:330|234:338,1,110,2|2,0:0|0:0,0:0:0:0:
199,249,43141,1,2,0:0:0:0:
112,316,43521,1,2,0:0:0:0:
40,232,43900,2,0,P|32:177|38:114,1,110,2|2,0:0|0:0,0:0:0:0:
121,52,44659,1,2,0:0:0:0:
228,73,45039,1,2,0:0:0:0:
256,179,45419,6,0,P|279:245|425:271,1,220,2|2,0:0|0:0,0:0:0:0:
367,176,46559,1,2,0:0:0:0:
319,76,46938,2,0,P|424:82|476:175,1,220,2|2,0:0|0:0,0:0:0:0:
462,283,48078,1,2,0:0:0:0:
369,340,48457,2,0,L|291:341,1,55,2|0,0:0|0:0,0:0:0:0:
258,341,48837,6,0,P|237:277|252:180,1,165,2|0,0:0|0:0,0:0:0:0:
286,139,49597,1,0,0:0:0:0:
375,73,49976,2,0,P|396:137|381:234,1,165,2|0,0:0|0:0,0:0:0:0:
353,279,50735,1,2,0:0:0:0:
250,237,51116,2,0,P|191:223|126:251,1,110,2|2,0:0|0:0,0:0:0:0:
99,267,51685,1,0,0:0:0:0:
99,267,51875,6,0,P|55:203|43:131,1,110,2|2,0:0|0:0,0:0:0:0:
67,64,52635,1,8,0:0:0:0:
145,140,53014,1,2,0:0:0:0:
219,59,53394,2,0,L|342:51,1,110,2|2,0:0|0:0,0:0:0:0:
399,136,54154,1,8,0:0:0:0:
454,41,54533,1,2,0:0:0:0:
498,141,54913,6,0,L|486:285,1,110,2|2,0:0|0:0,0:0:0:0:
481,305,55483,1,0,0:0:0:0:
481,305,55673,2,0,P|408:335|341:335,1,110,8|2,0:0|0:0,0:0:0:0:
289,272,56432,2,0,P|224:264|138:292,1,110,2|2,0:0|0:0,0:0:0:0:
107,354,57192,2,0,L|80:234,1,110,8|2,0:0|0:0,0:0:0:0:
71,192,57761,1,0,0:0:0:0:
71,192,57951,6,0,P|61:116|161:13,1,220,2|8,0:0|0:0,0:0:0:0:
360,15,59470,2,0,P|441:85|441:192,1,220,2|8,0:0|0:0,0:0:0:0:
256,72,60989,5,2,0:0:0:0:
242,181,61369,1,2,0:0:0:0:
139,219,61748,1,8,0:0:0:0:
54,149,62128,2,0,L|111:127,1,55,2|8,0:0|0:0,0:0:0:0:
363,44,63267,5,8,0:0:0:0:
290,126,63647,2,0,L|338:169,1,55,0|2,0:0|0:0,0:0:0:0:
373,197,64027,6,0,P|358:269|408:372,2,165,6|8|8,0:0|0:0|0:0,0:0:0:0:
269,235,65546,2,0,L|144:230,1,110,8|2,0:0|0:0,0:0:0:0:
112,201,66116,2,0,P|98:143|110:61,1,110,8|2,0:0|0:0,0:0:0:0:
127,44,66685,2,0,L|197:44,1,55,8|8,0:0|0:0,0:0:0:0:
236,53,67065,5,8,0:0:0:0:
342,178,67635,1,8,0:0:0:0:
450,53,68204,2,0,L|460:185,1,110,8|2,0:0|0:0,0:0:0:0:
459,217,68774,2,0,P|420:270|331:298,1,110,8|2,0:0|0:0,0:0:0:0:
327,288,69343,1,8,0:0:0:0:
222,320,69723,1,8,0:0:0:0:
150,236,70103,6,0,P|137:160|139:47,2,165,12|8|8,0:0|0:0|0:0,0:0:0:0:
244,179,71622,2,0,P|328:164|416:184,2,165,8|8|8,0:0|0:0|0:0,0:0:0:0:
231,69,73141,6,0,P|297:56|382:66,1,110,8|2,0:0|0:0,0:0:0:0:
393,71,73711,2,0,P|406:137|396:222,1,110,8|2,0:0|0:0,0:0:0:0:
369,222,74280,2,0,P|303:235|218:225,1,110,8|2,0:0|0:0,0:0:0:0:
206,222,74850,2,0,P|143:233|96:277,1,110,8|2,0:0|0:0,0:0:0:0:
91,313,75419,1,8,0:0:0:0:
33,219,75799,1,8,0:0:0:0:
73,116,76179,6,0,P|127:110|193:93,2,110,6|8|0,0:0|0:0|0:0,0:0:0:0:
33,220,77318,1,0,0:0:0:0:
33,220,77508,2,0,P|114:221|222:194,1,165,8|8,0:0|0:0,0:0:0:0:
214,96,78457,1,2,0:0:0:0:
323,86,78837,2,0,L|397:84,1,55,0|8,0:0|0:0,0:0:0:0:
433,89,79217,6,0,P|487:144|497:213,2,110,2|8|0,0:0|0:0|0:0,0:0:0:0:
389,190,80356,1,8,0:0:0:0:
389,190,80546,2,0,P|295:227|219:191,1,165,0|8,0:0|0:0,0:0:0:0:
197,105,81495,1,0,0:0:0:0:
307,128,81875,1,8,0:0:0:0:
389,55,82255,6,0,P|339:21|267:25,1,110,6|8,0:0|0:0,0:0:0:0:
207,83,83014,2,0,L|211:196,1,110,2|0,0:0|0:0,0:0:0:0:
240,239,83584,1,8,0:0:0:0:
240,239,83774,2,0,P|298:283|338:289,1,110,0|8,0:0|0:0,0:0:0:0:
434,246,84533,2,0,P|376:202|336:196,1,110,2|0,0:0|0:0,0:0:0:0:
290,173,85103,1,8,0:0:0:0:
290,173,85293,6,0,P|275:98|284:53,1,110,2|8,0:0|0:0,0:0:0:0:
244,23,85862,2,0,P|196:25|138:51,1,110,2|2,0:0|0:0,0:0:0:0:
165,98,86432,2,0,P|181:174|46:93,1,330,8|8,0:0|0:0,0:0:0:0:
68,32,87951,2,2,L|90:100,1,55,8|0,0:0|0:0,0:0:0:0:
