osu file format v14

[General]
AudioFilename: Aldnoah Zero Season 2 OP_Opening_OST - _&Z_ by SawanoHiroyuki[nZk]_mizuki HD.mp3
AudioLeadIn: 1500
PreviewTime: 63078
Countdown: 0
SampleSet: Soft
StackLeniency: 0.7
Mode: 0
LetterboxInBreaks: 0
WidescreenStoryboard: 0

[Editor]
DistanceSpacing: 1.4
BeatDivisor: 4
GridSize: 4
TimelineZoom: 1

[Metadata]
Title:&Z (TV size-English ver.-)
TitleUnicode:&Z(TV size-English ver.-)
Artist:SawanoHiroyuki[nZk]:mizuki
ArtistUnicode:SawanoHiroyuki[nZk]:mizuki
Creator:Pho
Version:Insane
Source:Aldnoah.Zero
Tags:澤野弘之 aldnoah zero opening 2nd season アルドノア・ゼロ sawano hiroyuki slaine isa tool
BeatmapID:595841
BeatmapSetID:260881

[Difficulty]
HPDrainRate:7
CircleSize:4.5
OverallDifficulty:7.5
ApproachRate:8.6
SliderMultiplier:1.7
SliderTickRate:1

[Events]
//Background and Video events
0,0,"fckslaine.jpg",0,0
Video,-282,"AZop.avi"
//Break Periods
//Storyboard Layer 0 (Background)
//Storyboard Layer 1 (Fail)
//Storyboard Layer 2 (Pass)
//Storyboard Layer 3 (Foreground)
//Storyboard Sound Samples

[TimingPoints]
230,379.746835443038,4,2,1,20,1,0
1179,-100,4,2,1,30,0,0
1559,-100,4,2,1,35,0,0
1938,-100,4,2,1,40,0,0
2318,-100,4,2,1,45,0,0
2698,-100,4,2,1,50,0,0
2888,-100,4,2,1,30,0,0
3078,-100,4,2,1,10,0,0
3267,-100,4,2,1,50,0,0
15419,-133.333333333333,4,2,1,35,0,0
26622,-200,4,2,1,35,0,0
27192,-200,4,2,1,10,0,0
27571,-111.111111111111,4,2,1,45,0,0
39723,-111.111111111111,4,2,1,35,0,0
51875,-111.111111111111,4,2,1,45,0,0
63267,-90.9090909090909,4,2,1,50,0,0
64027,-86.9565217391304,4,2,1,60,0,1
75609,-86.9565217391304,4,2,1,40,0,1
76179,-86.9565217391304,4,2,1,60,0,1
88141,-86.9565217391304,4,2,1,60,0,0

[Colours]
Combo1 : 33,54,95
Combo2 : 177,158,92
Combo3 : 0,128,64
Combo4 : 255,128,0

[HitObjects]
256,192,799,12,0,3078,0:0:0:0:
89,130,3267,6,0,P|90:177|103:231,1,85,12|8,0:0|0:0,0:0:0:0:
140,296,3647,1,2,0:0:0:0:
209,233,3837,2,0,P|261:211|309:221,1,85,2|8,0:0|0:0,0:0:0:0:
384,283,4217,1,2,0:0:0:0:
512,172,4407,1,2,0:0:0:0:
350,118,4597,1,8,0:0:0:0:
416,191,4786,5,2,0:0:0:0:
360,16,4976,1,2,0:0:0:0:
360,16,5166,2,0,P|311:12|267:26,1,85,8|2,0:0|0:0,0:0:0:0:
189,144,5546,1,8,0:0:0:0:
106,83,5736,2,0,P|62:84|11:100,2,85,2|0|2,0:0|0:0|0:0,0:0:0:0:
145,205,6305,6,0,P|155:258|147:326,1,85,8|8,0:0|0:0,0:0:0:0:
272,224,6685,1,2,0:0:0:0:
357,95,6875,2,0,P|357:137|367:179,1,85,2|8,0:0|0:0,0:0:0:0:
428,271,7255,1,2,0:0:0:0:
498,185,7445,1,2,0:0:0:0:
295,34,7635,6,0,P|282:104|299:220,1,170,8|2,0:0|0:0,0:0:0:0:
381,267,8204,2,0,P|423:270|466:266,1,85,8|2,0:0|0:0,0:0:0:0:
279,317,8584,2,0,P|232:312|172:314,1,85,8|2,0:0|0:0,0:0:0:0:
107,276,8964,2,0,P|98:233|100:175,1,85,2|2,0:0|0:0,0:0:0:0:
203,58,9343,5,12,0:0:0:0:
94,77,9533,1,8,0:0:0:0:
173,153,9723,1,2,0:0:0:0:
309,58,9913,1,2,0:0:0:0:
418,77,10103,1,8,0:0:0:0:
339,153,10293,1,2,0:0:0:0:
203,58,10483,1,2,0:0:0:0:
203,58,10673,6,0,P|152:56|104:68,1,85,10|2,0:0|0:0,0:0:0:0:
120,212,11052,1,2,0:0:0:0:
120,212,11242,2,0,P|162:218|204:212,1,85,8|2,0:0|0:0,0:0:0:0:
385,71,11622,1,10,0:0:0:0:
220,111,11812,1,2,0:0:0:0:
347,170,12002,1,0,0:0:0:0:
315,15,12192,1,2,0:0:0:0:
164,25,12381,6,0,P|120:44|83:83,1,85,8|8,0:0|0:0,0:0:0:0:
48,151,12761,1,2,0:0:0:0:
208,184,12951,2,0,P|202:231|217:283,1,85,2|8,0:0|0:0,0:0:0:0:
254,350,13331,1,2,0:0:0:0:
427,291,13521,1,2,0:0:0:0:
427,291,13711,6,0,P|447:226|435:107,1,170,8|2,0:0|0:0,0:0:0:0:
372,61,14280,2,0,P|324:57|276:61,1,85,8|2,0:0|0:0,0:0:0:0:
126,140,14660,2,0,P|170:143|211:140,1,85,8|0,0:0|0:0,0:0:0:0:
330,146,15040,1,2,0:3:0:0:
164,28,15230,1,0,0:0:0:0:
159,229,15419,5,6,0:0:0:0:
330,146,15799,1,2,0:0:0:0:
212,47,16179,1,8,0:0:0:0:
118,42,16369,1,2,0:0:0:0:
41,95,16559,1,2,0:0:0:0:
28,190,16748,5,0,0:0:0:0:
28,190,16938,2,0,P|53:231|79:259,1,63.7500024318696,2|0,0:0|0:0,0:0:0:0:
175,326,17318,2,0,L|212:246,1,63.7500024318696,2|0,0:0|0:0,0:0:0:0:
328,232,17698,2,0,P|377:231|415:214,1,63.7500024318696,8|0,0:0|0:0,0:0:0:0:
452,104,18078,2,0,P|458:66|451:30,1,63.7500024318696,2|0,0:0|0:0,0:0:0:0:
287,67,18457,5,2,0:0:0:0:
287,67,18837,1,2,0:0:0:0:
287,67,19217,1,8,0:0:0:0:
184,68,19407,1,2,0:0:0:0:
104,131,19597,1,2,0:0:0:0:
90,232,19786,1,0,0:0:0:0:
152,316,19976,6,0,P|192:341|228:348,1,63.7500024318696,2|0,0:0|0:0,0:0:0:0:
300,248,20356,2,0,P|341:256|372:274,1,63.7500024318696,2|0,0:0|0:0,0:0:0:0:
470,343,20736,2,0,P|481:295|486:243,1,63.7500024318696,8|0,0:0|0:0,0:0:0:0:
496,144,21116,1,2,0:0:0:0:
314,54,21495,5,2,0:0:0:0:
314,54,21875,1,2,0:0:0:0:
314,54,22255,1,8,0:0:0:0:
319,155,22445,1,2,0:0:0:0:
236,214,22635,1,2,0:0:0:0:
129,205,22824,1,0,0:0:0:0:
129,205,23014,6,0,P|108:143|117:105,1,63.7500024318696,2|0,0:0|0:0,0:0:0:0:
282,131,23394,2,0,P|303:193|294:230,1,63.7500024318696,2|0,0:0|0:0,0:0:0:0:
174,289,23774,2,0,P|118:299|77:294,1,63.7500024318696,8|0,0:0|0:0,0:0:0:0:
260,364,24154,2,0,P|315:374|358:371,1,63.7500024318696,2|0,0:0|0:0,0:0:0:0:
477,291,24533,6,0,L|484:194,1,63.7500024318696,2|0,0:0|0:0,0:0:0:0:
348,136,24913,2,0,L|342:228,1,63.7500024318696,2|0,0:0|0:0,0:0:0:0:
200,128,25293,2,0,L|206:36,1,63.7500024318696,8|2,0:0|0:0,0:0:0:0:
204,64,25673,1,2,0:0:0:0:
69,342,26052,2,0,P|126:365|246:334,1,127.500004863739,2|2,0:0|0:0,0:0:0:0:
248,166,26622,5,0,0:0:0:0:
248,166,26717,1,0,0:0:0:0:
248,166,26812,2,0,L|236:239,1,63.75,8|0,0:0|0:0,0:0:0:0:
233,249,27192,1,6,0:0:0:0:
233,249,27571,6,0,P|182:254|133:245,1,76.4999976654053,6|0,0:0|0:0,0:0:0:0:
25,162,27951,2,0,P|75:156|119:163,1,76.4999976654053,2|0,0:0|0:0,0:0:0:0:
152,67,28331,1,8,0:0:0:0:
250,38,28521,1,2,0:0:0:0:
333,95,28711,1,2,0:0:0:0:
341,194,28900,1,0,0:0:0:0:
341,194,29090,6,0,L|324:290,1,76.4999976654053,2|0,0:0|0:0,0:0:0:0:
216,244,29470,1,2,0:0:0:0:
131,325,29660,1,0,0:0:0:0:
70,222,29850,2,0,P|66:172|76:128,1,76.4999976654053,8|0,0:0|0:0,0:0:0:0:
192,136,30230,2,0,L|282:136,1,76.4999976654053,2|0,0:0|0:0,0:0:0:0:
406,52,30609,5,2,0:0:0:0:
406,52,30799,1,0,0:0:0:0:
457,149,30989,1,2,0:0:0:0:
457,149,31179,1,0,0:0:0:0:
290,264,31369,1,8,0:0:0:0:
392,231,31559,1,2,0:0:0:0:
369,335,31748,1,2,0:0:0:0:
185,361,31938,1,0,0:0:0:0:
185,361,32128,6,0,P|162:303|160:252,1,76.4999976654053,2|0,0:0|0:0,0:0:0:0:
249,136,32508,2,0,P|236:201|216:229,1,76.4999976654053,2|0,0:0|0:0,0:0:0:0:
99,112,32888,1,8,0:0:0:0:
191,31,33078,1,0,0:0:0:0:
249,136,33267,2,0,P|310:146|394:123,1,114.749996498108,2|0,0:0|0:0,0:0:0:0:
407,127,33647,6,0,L|397:211,1,76.4999976654053,2|0,0:0|0:0,0:0:0:0:
285,261,34027,2,0,P|215:268|140:251,1,114.749996498108,2|0,0:0|0:0,0:0:0:0:
129,245,34407,2,0,P|80:229|43:231,1,76.4999976654053,8|2,0:0|0:0,0:0:0:0:
48,137,34786,2,0,P|84:127|117:107,1,76.4999976654053,2|0,0:0|0:0,0:0:0:0:
268,48,35166,6,0,P|232:58|199:78,1,76.4999976654053,2|0,0:0|0:0,0:0:0:0:
371,200,35546,2,0,P|381:162|380:124,1,76.4999976654053,2|0,0:0|0:0,0:0:0:0:
190,216,35926,2,0,P|226:249|285:271,1,76.4999976654053,8|0,0:0|0:0,0:0:0:0:
278,152,36305,1,2,0:0:0:0:
362,91,36685,6,0,P|388:40|390:11,1,76.4999976654053,2|0,0:0|0:0,0:0:0:0:
188,92,37065,2,0,P|130:94|105:107,1,76.4999976654053,2|0,0:0|0:0,0:0:0:0:
289,252,37445,2,0,P|320:300|345:317,1,76.4999976654053,8|2,0:0|0:0,0:0:0:0:
453,330,37824,6,0,L|466:174,1,152.999995330811,2|2,0:0|0:0,0:0:0:0:
339,88,38394,1,0,0:0:0:0:
387,233,38584,1,2,0:0:0:0:
439,89,38774,1,0,0:0:0:0:
311,174,38964,2,0,P|281:208|244:227,1,76.4999976654053,10|0,0:0|0:0,0:0:0:0:
87,208,39343,2,0,P|55:188|31:159,1,76.4999976654053,2|0,0:0|0:0,0:0:0:0:
188,88,39723,5,6,0:0:0:0:
324,296,40103,1,2,0:0:0:0:
324,88,40483,1,2,0:0:0:0:
188,296,40862,1,2,0:0:0:0:
381,193,41242,5,2,0:0:0:0:
131,193,41622,2,0,P|108:235|107:295,1,76.4999976654053,2|0,0:0|0:0,0:0:0:0:
190,115,42002,2,0,P|213:73|215:15,1,76.4999976654053,2|0,0:0|0:0,0:0:0:0:
131,193,42381,2,0,P|192:236|290:253,1,152.999995330811,2|2,0:0|0:0,0:0:0:0:
284,252,43141,6,0,P|305:207|312:161,1,76.4999976654053,2|0,0:0|0:0,0:0:0:0:
406,27,43521,2,0,P|387:67|386:118,1,76.4999976654053,2|0,0:0|0:0,0:0:0:0:
442,267,43900,2,0,P|397:306|297:327,1,152.999995330811,2|2,0:0|0:0,0:0:0:0:
290,325,44660,6,0,P|310:275|312:248,1,76.4999976654053,2|0,0:0|0:0,0:0:0:0:
164,116,45040,2,0,P|165:154|184:188,1,76.4999976654053,2|0,0:0|0:0,0:0:0:0:
321,53,45419,1,2,0:0:0:0:
295,221,45609,1,0,0:0:0:0:
247,130,45799,6,0,P|290:127|346:136,1,76.4999976654053,2|0,0:0|0:0,0:0:0:0:
417,189,46179,1,2,0:0:0:0:
474,35,46369,1,0,0:0:0:0:
496,136,46559,2,0,P|499:187|487:230,1,76.4999976654053,2|0,0:0|0:0,0:0:0:0:
241,52,46938,2,0,P|317:54|383:92,1,152.999995330811,2|2,0:0|0:0,0:0:0:0:
320,176,47507,5,0,0:0:0:0:
112,147,47698,2,0,P|93:193|92:234,1,76.4999976654053,2|0,0:0|0:0,0:0:0:0:
156,305,48078,2,0,L|238:303,1,76.4999976654053,2|0,0:0|0:0,0:0:0:0:
418,212,48457,5,2,0:0:0:0:
312,231,48647,1,0,0:0:0:0:
234,159,48837,2,0,P|217:81|255:5,1,152.999995330811,2|2,0:0|0:0,0:0:0:0:
421,31,49407,2,0,P|438:109|394:190,1,152.999995330811,0|0,0:0|0:0,0:0:0:0:
326,97,49976,1,2,0:0:0:0:
326,97,50166,6,0,B|267:66|219:124|156:88,1,152.999995330811
284,168,50736,2,0,P|288:216|280:272,1,76.4999976654053,2|0,0:0|0:0,0:0:0:0:
180,280,51116,1,2,0:0:0:0:
112,152,51305,1,0,0:0:0:0:
284,168,51495,2,0,P|328:160|376:141,1,76.4999976654053,2|0,0:0|0:0,0:0:0:0:
390,12,51875,5,2,0:0:0:0:
294,305,52255,1,2,0:0:0:0:
188,365,52445,1,0,0:0:0:0:
77,317,52635,2,0,P|57:219|65:153,1,152.999995330811,8|2,0:0|0:0,0:0:0:0:
167,183,53204,1,0,0:0:0:0:
231,331,53394,6,0,L|343:324,1,76.4999976654053,2|0,0:0|0:0,0:0:0:0:
443,251,53774,2,0,L|336:242,1,76.4999976654053,2|0,0:0|0:0,0:0:0:0:
241,226,54154,2,0,P|262:146|228:61,2,152.999995330811,8|2|2,0:0|0:0|0:0,0:0:0:0:
83,291,55293,5,2,0:0:0:0:
41,209,55483,1,0,0:0:0:0:
223,205,55673,1,8,0:0:0:0:
185,288,55862,1,0,0:0:0:0:
133,211,56052,1,2,0:0:0:0:
175,129,56242,1,0,0:0:0:0:
350,197,56432,6,0,P|360:291|326:378,1,152.999995330811,2|2,0:0|0:0,0:0:0:0:
236,190,57192,2,0,P|282:110|351:92,1,152.999995330811,8|2,0:0|0:0,0:0:0:0:
321,238,57761,1,0,0:0:0:0:
199,308,57951,6,0,P|127:248|110:160,1,152.999995330811,2|2,0:0|0:0,0:0:0:0:
402,193,58521,1,0,0:0:0:0:
402,193,58711,2,0,P|374:263|313:308,1,152.999995330811,8|2,0:0|0:0,0:0:0:0:
257,96,59280,1,0,0:0:0:0:
257,96,59470,6,0,B|222:151|291:204|250:268,1,152.999995330811,2|2,0:0|0:0,0:0:0:0:
158,227,60040,1,0,0:0:0:0:
193,56,60230,2,0,P|259:21|329:72,1,152.999995330811,8|2,0:0|0:0,0:0:0:0:
172,142,60799,1,0,0:0:0:0:
172,142,60989,6,0,P|135:118|75:96,1,76.4999976654053,2|0,0:0|0:0,0:0:0:0:
340,142,61369,2,0,P|377:118|437:96,1,76.4999976654053,2|0,0:0|0:0,0:0:0:0:
316,308,61748,5,8,0:0:0:0:
256,140,61938,1,2,0:0:0:0:
411,187,62128,1,2,0:0:0:0:
157,273,62318,1,8,0:0:0:0:
157,273,63267,6,0,L|151:146,1,93.5000028533936,8|0,0:0|0:0,0:0:0:0:
355,111,63647,2,0,L|362:244,1,93.5000028533936,0|2,0:0|0:0,0:0:0:0:
267,347,64027,6,0,L|256:136,1,195.500003728867,6|2,0:0|0:0,0:0:0:0:
186,53,64597,2,0,P|144:57|56:100,1,97.7500018644333,8|0,0:0|0:0,0:0:0:0:
106,229,64976,1,2,0:0:0:0:
220,123,65166,1,8,0:0:0:0:
41,200,65356,1,2,0:0:0:0:
68,302,65546,6,0,P|158:341|289:320,1,195.500003728867,8|2,0:0|0:0,0:0:0:0:
356,204,66116,2,0,L|344:104,1,97.7500018644333,8|0,0:0|0:0,0:0:0:0:
260,60,66495,1,2,0:0:0:0:
284,256,66685,1,8,0:0:0:0:
480,244,66875,1,8,0:0:0:0:
464,44,67066,6,0,P|367:64|287:158,1,195.500003728867,8|2,0:0|0:0,0:0:0:0:
163,241,67635,2,0,P|120:230|60:191,1,97.7500018644333,8|2,0:0|0:0,0:0:0:0:
220,123,68015,1,2,0:0:0:0:
220,123,68205,2,0,P|206:62|218:1,1,97.7500018644333,8|2,0:0|0:0,0:0:0:0:
347,121,68585,5,2,0:0:0:0:
347,121,68774,2,0,P|392:78|457:62,1,97.7500018644333,8|2,0:0|0:0,0:0:0:0:
412,236,69154,1,2,0:0:0:0:
412,236,69344,2,0,P|367:279|302:295,1,97.7500018644333,8|2,0:0|0:0,0:0:0:0:
440,144,69724,1,8,0:0:0:0:
312,192,69913,1,2,0:0:0:0:
268,60,70103,6,0,P|194:52|64:118,1,195.500003728867,12|2,0:0|0:0,0:0:0:0:
58,213,70673,1,8,0:0:0:0:
58,213,70862,2,0,L|71:322,1,97.7500018644333,0|2,0:0|0:0,0:0:0:0:
222,348,71242,1,8,0:0:0:0:
165,244,71432,1,2,0:0:0:0:
281,241,71622,6,0,P|353:238|405:257,1,97.7500018644333,8|2,0:0|0:0,0:0:0:0:
385,362,72002,1,2,0:0:0:0:
427,186,72192,1,8,0:0:0:0:
427,186,72381,2,0,L|450:83,1,97.7500018644333,0|2,0:0|0:0,0:0:0:0:
360,12,72761,1,8,0:0:0:0:
323,168,72951,1,8,0:0:0:0:
323,168,73141,6,0,P|252:211|210:218,1,97.7500018644333,8|2,0:0|0:0,0:0:0:0:
121,200,73521,1,2,0:0:0:0:
282,309,73711,2,0,P|203:282|171:254,1,97.7500018644333,8|2,0:0|0:0,0:0:0:0:
179,157,74090,1,2,0:0:0:0:
174,349,74280,2,0,P|119:286|105:246,1,97.7500018644333,8|2,0:0|0:0,0:0:0:0:
58,169,74660,5,2,0:0:0:0:
209,23,74850,2,0,P|262:31|324:62,1,97.7500018644333,8|2,0:0|0:0,0:0:0:0:
385,181,75230,1,2,0:0:0:0:
471,51,75419,1,8,0:0:0:0:
286,112,75609,1,8,0:0:0:0:
286,112,75704,1,8,0:0:0:0:
286,112,75799,1,8,0:0:0:0:
286,112,75894,1,8,0:0:0:0:
286,112,75989,1,8,0:0:0:0:
286,112,76084,1,8,0:0:0:0:
286,112,76179,6,0,P|251:155|197:180,1,97.7500018644333,6|0,0:0|0:0,0:0:0:0:
39,200,76559,2,0,P|68:166|144:150,1,97.7500018644333,8|0,0:0|0:0,0:0:0:0:
168,273,76938,1,0,0:0:0:0:
178,117,77128,1,2,0:0:0:0:
334,130,77318,1,0,0:0:0:0:
319,285,77508,6,0,P|282:235|274:101,1,195.500003728867,8|2,0:0|0:0,0:0:0:0:
399,105,78078,2,0,P|410:58|400:11,1,97.7500018644333,8|0,0:0|0:0,0:0:0:0:
489,174,78457,2,0,P|507:220|509:303,1,97.7500018644333,2|2,0:0|0:0,0:0:0:0:
395,283,78837,2,0,P|364:324|292:363,1,97.7500018644333,0|8,0:0|0:0,0:0:0:0:
151,351,79217,6,0,P|88:288|184:264,1,195.500003728867,2|8,0:0|0:0,0:0:0:0:
263,296,79786,1,0,0:0:0:0:
358,227,79976,1,0,0:0:0:0:
339,111,80166,1,2,0:0:0:0:
229,68,80356,1,8,0:0:0:0:
214,184,80546,6,0,P|169:212|37:156,1,195.500003728867,0|2,0:0|0:0,0:0:0:0:
132,65,81116,2,0,L|260:69,1,97.7500018644333,8|0,0:0|0:0,0:0:0:0:
214,184,81495,1,0,0:0:0:0:
413,234,81685,1,2,0:0:0:0:
315,170,81875,1,8,0:0:0:0:
412,340,82065,1,2,0:0:0:0:
463,154,82255,6,0,P|425:109|287:102,1,195.500003728867,6|8,0:0|0:0,0:0:0:0:
166,166,82824,1,0,0:0:0:0:
166,166,83014,2,0,P|103:201|134:112,1,195.500003728867,2|0,0:0|0:0,0:0:0:0:
255,178,83584,1,8,0:0:0:0:
255,178,83774,6,0,B|292:239|225:309|272:368,1,195.500003728867,0|8,0:0|0:0,0:0:0:0:
424,275,84343,1,0,0:0:0:0:
424,275,84533,2,0,P|446:176|428:65,1,195.500003728867,2|0,0:0|0:0,0:0:0:0:
249,59,85103,1,8,0:0:0:0:
249,59,85293,6,0,P|181:71|73:162,1,195.500003728867,2|8,0:0|0:0,0:0:0:0:
263,325,85862,2,0,P|331:313|439:222,1,195.500003728867,2|2,0:0|0:0,0:0:0:0:
288,148,86432,6,0,P|253:79|248:32,1,97.7500018644333,8|0,0:0|0:0,0:0:0:0:
386,54,86812,2,0,P|463:58|506:77,1,97.7500018644333,0|2,0:0|0:0,0:0:0:0:
413,183,87192,2,0,P|370:247|332:275,1,97.7500018644333,8|2,0:0|0:0,0:0:0:0:
182,295,87571,5,8,0:0:0:0:
146,295,87666,1,8,0:0:0:0:
110,295,87761,1,8,0:0:0:0:
74,295,87856,1,2,0:0:0:0:
38,295,87951,2,2,P|26:239|38:183,1,97.7500018644333,8|0,0:0|0:0,0:0:0:0:
