osu file format v14

[General]
AudioFilename: Aldnoah Zero Season 2 OP_Opening_OST - _&Z_ by SawanoHiroyuki[nZk]_mizuki HD.mp3
AudioLeadIn: 1500
PreviewTime: 63078
Countdown: 0
SampleSet: Soft
StackLeniency: 0.7
Mode: 0
LetterboxInBreaks: 0
WidescreenStoryboard: 0

[Editor]
DistanceSpacing: 1
BeatDivisor: 2
GridSize: 4
TimelineZoom: 1

[Metadata]
Title:&Z (TV size-English ver.-)
TitleUnicode:&Z(TV size-English ver.-)
Artist:SawanoHiroyuki[nZk]:mizuki
ArtistUnicode:SawanoHiroyuki[nZk]:mizuki
Creator:Pho
Version:Easy
Source:Aldnoah.Zero
Tags:澤野弘之 aldnoah zero opening 2nd season アルドノア・ゼロ sawano hiroyuki slaine isa tool
BeatmapID:595837
BeatmapSetID:260881

[Difficulty]
HPDrainRate:2
CircleSize:3
OverallDifficulty:2
ApproachRate:3
SliderMultiplier:0.8
SliderTickRate:1

[Events]
//Background and Video events
0,0,"fckslaine.jpg",0,0
Video,-282,"AZop.avi"
//Break Periods
//Storyboard Layer 0 (Background)
//Storyboard Layer 1 (Fail)
//Storyboard Layer 2 (Pass)
//Storyboard Layer 3 (Foreground)
//Storyboard Sound Samples

[TimingPoints]
230,379.746835443038,4,2,1,20,1,0
799,-100,4,2,1,20,0,0
1179,-100,4,2,1,30,0,0
1559,-100,4,2,1,35,0,0
1938,-100,4,2,1,40,0,0
2318,-100,4,2,1,45,0,0
2698,-100,4,2,1,50,0,0
3078,-100,4,2,1,20,0,0
3267,-100,4,2,1,50,0,0
15419,-100,4,2,1,35,0,0
26622,-100,4,2,1,35,0,0
27571,-100,4,2,1,45,0,0
39723,-100,4,2,1,35,0,0
51875,-100,4,2,1,45,0,0
63267,-100,4,2,1,50,0,0
64027,-100,4,2,1,60,0,1
88141,-100,4,2,1,60,0,0

[Colours]
Combo1 : 33,54,95
Combo2 : 177,158,92
Combo3 : 0,128,64
Combo4 : 255,128,0

[HitObjects]
256,192,798,12,12,3267,0:0:0:0:
48,128,4786,6,0,P|91:171|210:169,1,160,2|8,0:0|0:0,0:0:0:0:
234,116,5926,1,0,0:0:0:0:
297,66,6305,6,0,P|359:53|452:102,1,160,8|8,0:0|0:0,0:0:0:0:
444,212,7635,2,0,P|373:239|320:244,1,120,8|8,0:0|0:0,0:0:0:0:
280,180,8584,1,8,0:0:0:0:
200,192,8964,1,2,0:0:0:0:
180,268,9343,6,0,L|157:359,1,80,12|2,0:0|0:0,0:0:0:0:
84,320,10103,2,0,L|107:229,1,80,8|2,0:0|0:0,0:0:0:0:
113,203,10673,2,0,P|136:134|252:64,1,200,10|10,0:0|0:0,0:0:0:0:
296,120,12002,1,0,0:0:0:0:
370,84,12381,6,0,L|458:76,1,80,8|2,0:0|0:0,0:0:0:0:
460,156,13141,2,0,L|364:164,1,80,8|2,0:0|0:0,0:0:0:0:
383,202,13711,2,0,P|360:279|315:319,1,120,8|8,0:0|0:0,0:0:0:0:
263,267,14660,1,8,0:0:0:0:
203,320,15040,1,2,0:3:0:0:
122,320,15419,6,0,P|71:318|41:312,2,80,6|2|8,0:0|0:0|0:0,0:0:0:0:
279,346,16938,2,0,P|329:344|360:338,2,80,2|2|8,0:0|0:0|0:0,0:0:0:0:
218,293,18078,1,2,0:0:0:0:
273,235,18457,6,0,L|272:148,2,80,2|2|8,0:0|0:0|0:0,0:0:0:0:
175,108,19976,2,0,P|88:133|25:185,1,160,2|8,0:0|0:0,0:0:0:0:
73,329,21495,6,0,P|110:334|176:320,1,80,2|2,0:0|0:0,0:0:0:0:
198,263,22255,2,0,P|222:208|259:182,1,80,8|2,0:0|0:0,0:0:0:0:
307,155,23014,1,2,0:0:0:0:
470,162,23774,2,0,L|468:58,1,80,8|2,0:0|0:0,0:0:0:0:
412,21,24533,6,0,P|338:17|229:58,3,160,2|8|2|8,0:0|0:0|0:0|0:0,0:0:0:0:
190,187,27571,6,0,P|193:232|210:284,2,80,6|2|8,0:0|0:0|0:0,0:0:0:0:
44,121,29090,2,0,P|40:73|24:24,2,80,2|2|8,0:0|0:0|0:0,0:0:0:0:
123,130,30230,1,2,0:0:0:0:
173,67,30609,6,0,L|264:54,1,80,2|2,0:0|0:0,0:0:0:0:
328,80,31369,1,8,0:0:0:0:
413,219,32128,2,0,L|314:236,1,80,2|2,0:0|0:0,0:0:0:0:
261,197,32888,1,8,0:0:0:0:
192,156,33267,1,2,0:0:0:0:
116,128,33647,6,0,P|101:204|133:319,1,160,2|8,0:0|0:0,0:0:0:0:
260,352,35166,2,0,P|275:276|243:161,1,160,2|8,0:0|0:0,0:0:0:0:
213,130,36305,1,2,0:0:0:0:
292,118,36685,6,0,L|456:110,1,160,2|8,0:0|0:0,0:0:0:0:
314,27,38204,2,0,L|219:32,2,80,2|2|10,0:0|0:0|0:0,0:0:0:0:
394,23,39343,1,2,0:0:0:0:
360,96,39723,6,0,P|357:171|392:262,1,160,6|2,0:0|0:0,0:0:0:0:
224,256,41242,2,0,P|208:172|220:84,1,160,2|2,0:0|0:0,0:0:0:0:
248,24,42381,1,2,0:0:0:0:
168,32,42761,6,0,P|88:60|60:128,1,160,2|2,0:0|0:0,0:0:0:0:
128,167,43900,2,0,P|192:206|120:331,1,240,2|2,0:0|0:0,0:0:0:0:
122,250,45419,6,0,L|300:234,1,160,2|2,0:0|0:0,0:0:0:0:
419,153,46938,2,0,L|226:119,1,160,2|2,0:0|0:0,0:0:0:0:
105,90,48457,1,2,0:0:0:0:
48,147,48837,6,0,P|39:208|58:312,1,160,2|0,0:0|0:0,0:0:0:0:
124,348,49976,1,2,0:0:0:0:
192,308,50356,1,0,0:0:0:0:
248,65,51495,1,2,0:0:0:0:
248,145,51875,6,0,P|268:186|385:239,1,160,2|8,0:0|0:0,0:0:0:0:
440,212,53014,1,2,0:0:0:0:
455,133,53394,2,0,P|435:92|318:39,1,160,2|8,0:0|0:0,0:0:0:0:
173,38,54913,6,0,P|100:67|57:133,1,160,2|8,0:0|0:0,0:0:0:0:
58,212,56052,1,2,0:0:0:0:
120,261,56432,2,0,L|132:347,2,80,2|2|8,0:0|0:0|0:0,0:0:0:0:
207,126,57951,6,0,P|290:113|379:110,1,160,2|8,0:0|0:0,0:0:0:0:
432,154,59090,1,2,0:0:0:0:
449,231,59470,2,0,P|432:304|356:354,1,160,2|8,0:0|0:0,0:0:0:0:
208,321,60989,2,0,P|191:259|208:160,1,160,2|8,0:0|0:0,0:0:0:0:
256,104,62128,2,0,L|256:40,1,40,2|8,0:0|0:0,0:0:0:0:
256,264,63267,5,8,0:0:0:0:
389,176,64027,6,0,P|431:144|461:47,2,120,6|8|8,0:0|0:0|0:0,0:0:0:0:
334,235,65546,2,0,P|340:287|409:361,2,120,8|8|8,0:0|0:0|0:0,0:0:0:0:
308,159,67065,6,0,P|259:138|160:161,2,120,8|8|8,0:0|0:0|0:0,0:0:0:0:
267,228,68584,1,2,0:0:0:0:
135,318,69343,2,0,P|107:250|104:209,1,80,8|8,0:0|0:0,0:0:0:0:
182,219,70103,6,0,P|148:138|108:98,2,120,12|8|8,0:0|0:0|0:0,0:0:0:0:
256,189,71622,2,0,L|256:40,2,120,8|8|8,0:0|0:0|0:0,0:0:0:0:
330,218,73141,6,0,P|348:162|384:114,2,120,8|8|8,0:0|0:0|0:0,0:0:0:0:
268,270,74660,1,2,0:0:0:0:
188,280,75040,1,2,0:0:0:0:
114,247,75419,2,0,P|88:210|74:174,1,80,8|8,0:0|0:0,0:0:0:0:
68,96,76179,6,0,L|156:75,1,80,6|8,0:0|0:0,0:0:0:0:
228,75,76938,2,0,P|237:129|225:183,1,80,0|0,0:0|0:0,0:0:0:0:
224,192,77508,2,0,P|263:239|331:255,1,120,8|8,0:0|0:0,0:0:0:0:
396,252,78457,1,2,0:0:0:0:
404,173,78837,1,0,0:0:0:0:
341,124,79217,6,0,P|392:93|452:236,1,240,2|8,0:0|0:0,0:0:0:0:
444,237,80546,2,0,L|342:328,1,120,0|8,0:0|0:0,0:0:0:0:
284,278,81495,1,0,0:0:0:0:
204,282,81875,1,8,0:0:0:0:
133,244,82255,6,0,P|101:185|170:25,1,240,6|8,0:0|0:0,0:0:0:0:
216,88,83774,2,0,P|308:119|444:29,1,240,2|8,0:0|0:0,0:0:0:0:
480,120,85293,6,0,L|515:249,2,120,2|2|8,0:0|0:0|0:0,0:0:0:0:
456,44,86812,1,0,0:0:0:0:
376,33,87192,1,8,0:0:0:0:
344,106,87571,1,8,0:0:0:0:
405,157,87951,2,2,L|396:217,1,40,8|0,0:0|0:0,0:0:0:0:
