osu file format v14

[General]
AudioFilename: &Z JP ver.mp3
AudioLeadIn: 0
PreviewTime: 63312
Countdown: 0
SampleSet: Soft
StackLeniency: 0.7
Mode: 0
LetterboxInBreaks: 0
WidescreenStoryboard: 0

[Editor]
Bookmarks: 1648,13800,25952,38104,50256,60889,62408
DistanceSpacing: 1
BeatDivisor: 4
GridSize: 4
TimelineZoom: 1.6

[Metadata]
Title:&Z (TV size)
TitleUnicode:&Z (TV size)
Artist:SawanoHiroyuki[nZk]:mizuki
ArtistUnicode:SawanoHiroyuki[nZk]:mizuki
Creator:TT Mouse
Version:Insane
Source:アルドノア・ゼロ
Tags:澤野弘之 Aldnoah.Zero opening 2nd season
BeatmapID:594331
BeatmapSetID:260149

[Difficulty]
HPDrainRate:6
CircleSize:4.1
OverallDifficulty:7.5
ApproachRate:8.5
SliderMultiplier:1.59999990463257
SliderTickRate:2

[Events]
//Background and Video events
0,0,"BG2.jpg",0,0
Video,0,"video.avi"
//Break Periods
//Storyboard Layer 0 (Background)
//Storyboard Layer 1 (Fail)
//Storyboard Layer 2 (Pass)
//Storyboard Layer 3 (Foreground)
//Storyboard Sound Samples

[TimingPoints]
3502,379.746835443038,4,3,1,55,1,0
15559,-125,4,2,1,40,0,0
27615,-90.9090909090909,4,3,1,55,0,0
39862,-90.9090909090909,4,2,1,45,0,0
63313,-166.666666666667,4,3,1,50,0,0
63596,-166.666666666667,4,3,1,5,0,0
63786,-166.666666666667,4,3,1,50,0,0
63976,-166.666666666667,4,3,1,5,0,0
64261,-76.9230769230769,4,3,1,70,0,1
88280,-100,4,3,1,20,0,0

[Colours]
Combo1 : 135,65,65
Combo2 : 236,195,167
Combo3 : 79,31,93
Combo4 : 176,73,129

[HitObjects]
184,338,3502,5,4,0:0:0:0:
251,200,3691,1,2,0:0:0:0:
114,271,3881,1,0,0:0:0:0:
268,292,4071,1,0,0:0:0:0:
155,183,4262,2,0,P|160:111|237:44,1,159.999990463257,8|0,0:0|0:0,0:0:0:0:
300,121,4832,1,8,0:0:0:0:
421,105,5021,6,0,P|410:66|386:34,1,79.9999952316284,2|0,0:0|0:0,0:0:0:0:
300,121,5401,2,0,P|314:162|360:211,1,79.9999952316285,2|0,0:0|0:0,0:0:0:0:
413,272,5781,2,0,P|354:304|266:277,1,159.999990463257,8|0,0:0|0:0,0:0:0:0:
227,176,6351,1,0,0:0:0:0:
170,352,6539,5,4,0:0:0:0:
26,227,6730,1,2,0:0:0:0:
140,247,6920,1,0,0:0:0:0:
55,331,7110,1,0,0:0:0:0:
98,140,7300,2,0,P|100:81|82:33,1,79.9999952316284,8|0,0:0|0:0,0:0:0:0:
222,23,7680,2,0,P|242:59|273:83,1,79.9999952316285,0|8,0:0|0:0,0:0:0:0:
382,132,8059,6,0,P|391:91|387:51,1,79.9999952316285,2|0,0:0|0:0,0:0:0:0:
284,189,8439,1,2,0:0:0:0:
482,169,8628,1,0,0:0:0:0:
386,302,8819,2,0,P|374:263|376:222,1,79.9999952316285,8|0,0:0|0:0,0:0:0:0:
241,300,9198,1,0,0:0:0:0:
314,353,9389,5,0,0:0:0:0:
144,352,9577,2,0,P|155:310|145:251,1,79.9999952316285,4|2,0:0|0:0,0:0:0:0:
31,294,9958,1,0,0:0:0:0:
63,152,10148,1,0,0:0:0:0:
192,207,10337,2,0,P|233:196|291:155,1,79.9999952316284,8|0,0:0|0:0,0:0:0:0:
321,77,10718,1,0,0:0:0:0:
389,236,10908,1,8,0:0:0:0:
320,77,11097,6,0,P|275:65|220:74,1,79.9999952316285,2|0,0:0|0:0,0:0:0:0:
429,124,11477,2,0,P|459:90|477:42,1,79.9999952316284,2|0,0:0|0:0,0:0:0:0:
483,262,11857,1,8,0:0:0:0:
339,174,12047,1,0,0:0:0:0:
356,309,12237,2,0,B|390:234,1,79.9999952316285
248,99,12616,5,4,0:0:0:0:
339,174,12805,1,2,0:0:0:0:
148,271,12996,2,0,L|240:252,1,79.9999952316285
78,356,13376,2,0,P|40:291|60:201,1,159.999990463257,8|0,0:0|0:0,0:0:0:0:
132,136,13946,1,8,0:0:0:0:
98,36,14135,5,2,0:0:0:0:
17,106,14325,1,0,0:0:0:0:
212,70,14515,2,0,P|260:59|296:44,1,79.9999952316284,2|0,0:0|0:0,0:0:0:0:
383,10,14895,2,0,P|410:59|374:161,1,159.999990463257,8|0,0:0|0:0,0:0:0:0:
292,200,15465,1,0,0:0:0:0:
292,200,15654,6,0,B|315:250|368:256|368:256|369:315,1,127.999992370606,4|0,0:0|0:0,0:0:0:0:
167,333,16414,2,0,L|85:352,2,64,8|0|0,0:0|0:0|0:0,0:0:0:0:
208,224,16984,1,0,0:0:0:0:
208,224,17173,6,0,P|215:156|267:110,1,128,0|0,0:0|0:0,0:0:0:0:
354,112,17743,1,0,0:0:0:0:
299,29,17933,1,8,0:0:0:0:
309,201,18123,1,0,0:0:0:0:
441,117,18313,2,0,L|432:26,1,64
309,201,18692,2,0,L|315:275,1,64
217,338,19072,2,0,B|171:325|134:288|134:288|88:310,1,128,0|8,0:0|0:0,0:0:0:0:
57,146,19642,1,0,0:0:0:0:
128,200,19832,1,0,0:0:0:0:
40,244,20021,5,0,0:0:0:0:
144,98,20210,2,0,L|99:28,1,63.9999961853028
108,300,20591,2,0,L|158:364,1,64
304,236,20971,1,8,0:0:0:0:
195,216,21161,1,0,0:0:0:0:
350,346,21351,2,0,P|389:323|418:285,1,63.9999961853028
304,236,21730,6,0,P|284:178|290:105,1,128
401,63,22300,1,0,0:0:0:0:
401,63,22490,2,0,L|427:136,1,64,8|0,0:0|0:0,0:0:0:0:
198,139,22870,1,0,0:0:0:0:
237,56,23059,1,0,0:0:0:0:
226,228,23249,6,0,P|192:249|154:252,1,64
39,110,23629,1,0,0:0:0:0:
39,110,23819,1,0,0:0:0:0:
109,174,24009,1,8,0:0:0:0:
129,74,24199,1,0,0:0:0:0:
41,249,24389,2,0,L|57:334,1,64
197,350,24768,6,0,B|248:339|286:295|286:295|338:290,1,128
413,330,25338,1,0,0:0:0:0:
471,237,25527,2,0,P|485:204|494:151,2,64,8|0|0,0:0|0:0|0:0,0:0:0:0:
369,200,26097,5,0,0:0:0:0:
369,200,26286,2,0,B|363:156|380:126|380:126|372:87|337:68,1,128
219,137,26857,1,0,0:0:0:0:
219,137,27047,2,0,P|204:91|220:5,1,128,8|0,0:0|0:0,0:0:0:0:
215,13,27806,6,0,L|149:95,1,87.999997440338,4|0,0:0|0:0,0:0:0:0:
23,103,28186,2,0,L|85:34,1,88.000002685547,8|8,0:2|0:0,0:0:0:0:
172,209,28566,1,8,0:2:0:0:
35,287,28755,1,8,0:2:0:0:
69,190,28946,1,8,0:0:0:0:
130,340,29135,5,0,0:0:0:0:
129,340,29325,2,0,P|187:350|251:345,1,88.000002685547,8|0,0:0|0:0,0:0:0:0:
401,299,29705,2,0,P|349:294|295:266,1,87.9999974403381,8|0,0:0|0:0,0:0:0:0:
272,178,30085,1,2,0:0:0:0:
378,202,30275,1,2,0:0:0:0:
294,358,30465,1,0,0:0:0:0:
464,357,30654,5,0,0:0:0:0:
464,357,30844,2,0,L|498:240,1,88.000002685547,4|0,0:0|0:0,0:0:0:0:
424,90,31224,2,0,L|398:179,1,88.000002685547,8|8,0:2|0:0,0:0:0:0:
268,268,31604,2,0,P|308:208|280:103,1,176.000005371094,8|8,0:2|0:0,0:0:0:0:
192,176,32173,5,0,0:0:0:0:
192,176,32363,2,0,L|107:212,1,87.9999974403381,8|0,0:0|0:0,0:0:0:0:
7,293,32743,1,8,0:0:0:0:
111,211,32933,1,2,0:0:0:0:
12,179,33123,1,2,0:0:0:0:
108,328,33313,1,0,0:0:0:0:
12,179,33502,2,0,P|28:129|17:64,1,88.000002685547
131,31,33882,6,0,P|167:62|225:74,1,88.000002685547,4|0,0:0|0:0,0:0:0:0:
197,202,34261,6,0,P|155:215|122:244,1,88.000002685547,8|0,0:2|0:0,0:0:0:0:
178,341,34641,1,8,0:2:0:0:
178,341,34832,1,8,0:2:0:0:
270,274,35021,1,8,0:0:0:0:
270,274,35211,1,0,0:0:0:0:
334,361,35401,6,0,P|370:320|388:264,1,88.000002685547,8|0,0:0|0:0,0:0:0:0:
374,109,35781,2,0,P|349:145|335:187,1,88.000002685547,8|2,0:0|0:0,0:0:0:0:
455,93,36161,2,0,P|401:32|309:56,1,176.000005371094,2|0,0:0|0:0,0:0:0:0:
247,123,36730,1,0,0:0:0:0:
175,189,36919,6,0,B|131:188|101:144|101:144|77:105|27:99,1,175.999994880676,4|8,0:0|0:2,0:0:0:0:
31,183,37490,1,8,0:0:0:0:
173,103,37679,2,0,L|139:23,1,88.000002685547,8|0,0:2|0:0,0:0:0:0:
31,183,38058,2,0,L|67:276,1,88.000002685547,8|0,0:0|0:2,0:0:0:0:
296,279,38438,6,0,P|230:230|131:227,1,176.000005371094,8|0,0:0|0:0,0:0:0:0:
136,320,39009,1,8,0:0:0:0:
220,153,39198,2,0,L|255:65,1,88.000002685547,0|0,0:0|0:0,0:0:0:0:
328,173,39578,2,0,L|395:277,1,88.000002685547,8|0,0:0|0:0,0:0:0:0:
363,348,39957,6,0,P|438:336|463:310,1,88.000002685547,6|0,0:0|0:0,0:0:0:0:
479,246,40337,1,2,0:0:0:0:
264,262,40718,1,2,0:0:0:0:
359,68,41097,1,2,0:0:0:0:
393,276,41477,5,10,0:0:0:0:
242,128,41857,1,2,0:0:0:0:
451,61,42237,1,2,0:0:0:0:
451,61,42615,2,0,L|389:165,1,88.000002685547,2|0,0:0|0:0,0:0:0:0:
263,186,42995,6,0,L|322:101,1,88.000002685547,10|0,0:0|0:0,0:0:0:0:
350,226,43375,2,0,P|279:281|191:253,2,176.000005371094,2|2|2,0:0|0:0|0:0,0:0:0:0:
243,85,44515,5,10,0:0:0:0:
350,226,44894,1,2,0:0:0:0:
177,191,45275,1,2,0:0:0:0:
177,191,45465,1,0,0:0:0:0:
177,191,45654,2,0,L|184:292,1,88.000002685547,2|0,0:0|0:0,0:0:0:0:
242,136,46034,6,0,P|190:107|133:115,1,88.000002685547,10|0,0:0|0:0,0:0:0:0:
14,152,46414,2,0,P|65:181|103:185,1,88.000002685547,2|0,0:0|0:0,0:0:0:0:
112,42,46794,1,2,0:0:0:0:
58,300,47173,1,2,0:0:0:0:
306,209,47553,5,10,0:0:0:0:
306,209,47933,2,0,P|309:252|325:294,1,87.9999974403381,2|0,0:0|0:0,0:0:0:0:
466,148,48313,2,0,P|395:125|370:126,1,88.000002685547,2|0,0:0|0:0,0:0:0:0:
277,95,48692,1,2,0:0:0:0:
277,95,48882,1,0,0:0:0:0:
277,95,49071,6,0,P|209:145|112:146,1,176.000005371094,6|2,0:0|0:0,0:0:0:0:
71,70,49642,1,0,0:0:0:0:
120,148,49832,2,0,P|118:223|99:263,1,88.000002685547,2|0,0:0|0:0,0:0:0:0:
101,353,50211,1,2,0:0:0:0:
33,289,50401,1,0,0:0:0:0:
101,353,50591,6,0,B|164:350|200:323|200:323|244:314|282:327,1,176.000005371094,10|2,0:0|0:0,0:0:0:0:
364,340,51161,1,0,0:0:0:0:
447,279,51351,2,0,P|385:237|355:234,1,88.000002685547,2|0,0:0|0:0,0:0:0:0:
274,230,51730,2,0,P|252:185|257:113,1,87.9999974403381,2|0,0:0|0:0,0:0:0:0:
276,64,52110,5,6,0:0:0:0:
276,64,52490,1,2,0:2:0:0:
179,98,52680,1,0,0:0:0:0:
102,31,52870,1,8,0:1:0:0:
102,31,53059,1,0,0:0:0:0:
82,131,53249,1,0,0:0:0:0:
82,131,53439,1,0,0:0:0:0:
158,199,53629,6,0,B|161:247|139:281|139:281|110:315|110:315|115:373,2,176.000005371094,8|0|8,0:0|0:0|0:1,0:0:0:0:
49,219,54768,1,0,0:0:0:0:
274,326,55148,5,4,0:0:0:0:
274,326,55528,1,0,0:0:0:0:
312,231,55718,1,0,0:0:0:0:
244,154,55907,1,8,0:1:0:0:
244,154,56097,1,0,0:0:0:0:
327,93,56287,1,0,0:0:0:0:
327,93,56477,1,0,0:0:0:0:
392,171,56666,6,0,B|440:120|422:60|422:60|443:23|492:2,2,175.999994880676,8|0|8,0:0|0:0|0:1,0:0:0:0:
180,106,57806,1,0,0:0:0:0:
180,106,57996,1,0,0:0:0:0:
180,106,58185,6,0,B|132:157|150:217|150:217|129:254|80:275,1,175.999994880676,4|0,0:0|0:0,0:0:0:0:
13,302,58756,1,0,0:0:0:0:
193,336,58946,2,0,L|271:293,1,88.000002685547,8|0,0:1|0:0,0:0:0:0:
357,339,59325,1,0,0:0:0:0:
414,254,59515,1,0,0:0:0:0:
331,197,59704,6,0,P|287:184|229:189,2,87.9999974403381,8|0|0,0:0|0:0|0:0,0:0:0:0:
419,156,60275,1,0,0:0:0:0:
419,156,60464,2,0,P|462:80|451:-5,1,176.000005371094,8|0,0:1|0:0,0:0:0:0:
367,40,61034,1,0,0:0:0:0:
367,40,61224,6,0,P|282:63|184:48,1,176.000000125885,4|0,0:0|0:0,0:0:0:0:
165,239,61984,1,8,0:1:0:0:
62,76,62363,1,8,0:0:0:0:
62,76,62552,1,8,0:1:0:0:
62,76,63502,6,0,L|111:32,1,47.9999985351563,8|0,0:0|0:0,0:0:0:0:
213,107,63882,2,0,L|166:115,1,47.9999985351563,8|0,0:0|0:0,0:0:0:0:
87,187,64262,6,0,B|141:236|219:207|219:207|262:213|288:273,1,207.999990478516,12|0,0:0|0:0,0:0:0:0:
239,366,64832,2,0,P|308:367|393:244,1,207.999990478516,8|0,0:0|0:0,0:0:0:0:
394,93,65400,1,0,0:0:0:0:
506,177,65590,1,0,0:0:0:0:
278,174,65780,6,0,B|224:85|287:12|287:12|335:22,1,207.999978080751,8|0,0:0|0:0,0:0:0:0:
373,182,66351,2,0,B|360:230|316:264|316:264|256:276|200:236,1,207.999984279633,8|0,0:0|0:0,0:0:0:0:
65,167,66920,1,0,0:0:0:0:
127,289,67110,1,0,0:0:0:0:
142,135,67300,6,0,L|150:29,1,103.999995239258,12|0,0:0|0:0,0:0:0:0:
149,31,67680,1,2,0:0:0:0:
257,189,67870,2,0,L|264:74,1,103.999995239258,8|0,0:0|0:0,0:0:0:0:
263,85,68249,1,2,0:0:0:0:
363,220,68438,1,0,0:0:0:0:
364,44,68629,1,0,0:0:0:0:
257,189,68819,6,0,P|258:240|291:304,1,103.999989040375,8|0,0:0|0:0,0:0:0:0:
474,219,69199,2,0,P|461:165|415:120,1,103.999989040375,2|8,0:0|0:0,0:0:0:0:
363,220,69577,2,0,P|373:274|410:317,1,103.999989040375,8|0,0:0|0:0,0:0:0:0:
337,131,69958,1,2,0:0:0:0:
215,292,70148,1,0,0:0:0:0:
215,292,70337,6,0,P|256:179|189:96,1,207.999978080751,12|0,0:0|0:0,0:0:0:0:
109,83,70908,1,8,0:0:0:0:
214,111,71097,2,0,B|291:104|344:58|344:58|386:63|407:84,1,207.999990478516,8|0,0:0|0:0,0:0:0:0:
423,178,71667,5,0,0:0:0:0:
423,178,71857,2,0,P|459:217|528:241,2,103.999995239258,8|0|0,0:0|0:0|0:0,0:0:0:0:
458,81,72427,1,8,0:0:0:0:
347,233,72616,2,0,L|280:321,1,103.999995239258,8|0,0:0|0:0,0:0:0:0:
217,102,72996,1,0,0:0:0:0:
318,123,73186,1,0,0:0:0:0:
162,237,73376,6,0,P|90:172|90:55,1,207.999990478516,12|0,0:0|0:0,0:0:0:0:
217,102,73946,1,8,0:0:0:0:
162,236,74135,2,0,L|116:347,1,103.999989040375,0|0,0:0|0:0,0:0:0:0:
43,254,74515,1,8,0:0:0:0:
235,316,74705,1,0,0:0:0:0:
235,316,74895,6,0,B|279:244|279:244|330:219,1,103.999995239258,8|0,0:0|0:0,0:0:0:0:
393,176,75275,2,0,P|391:114|379:70,1,103.999995239258,2|0,0:0|0:0,0:0:0:0:
253,52,75653,1,8,0:0:0:0:
92,142,75844,1,0,0:0:0:0:
84,166,75939,1,0,0:0:0:0:
83,192,76034,1,0,0:0:0:0:
86,217,76129,1,0,0:0:0:0:
94,241,76224,1,0,0:0:0:0:
106,263,76319,1,0,0:0:0:0:
125,279,76414,6,0,L|244:245,1,103.999995239258,12|0,0:0|0:0,0:0:0:0:
383,340,76793,1,0,0:0:0:0:
239,259,76984,1,8,0:0:0:0:
367,333,77173,2,0,P|383:278|422:233,1,103.999995239258
502,222,77553,1,0,0:0:0:0:
298,150,77743,5,0,0:0:0:0:
298,150,77933,2,0,P|317:99|374:52,2,103.999995239258,8|0|0,0:0|0:0|0:0,0:0:0:0:
322,236,78502,1,8,0:0:0:0:
182,330,78692,2,0,P|103:286|82:262,1,103.999989040375
59,94,79072,2,0,P|101:120|143:173,1,103.999995239258
322,236,79452,6,0,P|380:137|364:29,1,207.999990478516,12|0,0:0|0:0,0:0:0:0:
244,109,80021,1,8,0:0:0:0:
322,236,80211,2,0,L|440:278,1,103.999995239258
451,169,80591,1,0,0:0:0:0:
213,149,80781,5,0,0:0:0:0:
213,149,80971,2,0,L|233:266,1,103.999989040375,8|0,0:0|0:0,0:0:0:0:
123,336,81351,2,0,L|108:229,1,103.999995239258,2|8,0:0|0:0,0:0:0:0:
132,38,81730,1,8,0:0:0:0:
48,118,81920,1,0,0:0:0:0:
247,105,82110,2,0,L|380:76,1,103.999995239258,2|0,0:0|0:0,0:0:0:0:
418,301,82490,6,0,P|324:320|204:252,1,207.999990478516,12|0,0:0|0:0,0:0:0:0:
110,287,83059,1,8,0:0:0:0:
314,203,83249,2,0,P|356:99|302:-1,1,207.999978080751,8|0,0:0|0:0,0:0:0:0:
143,94,83819,5,0,0:0:0:0:
143,94,84009,2,0,P|171:154|212:193,1,103.999995239258,12|0,0:0|0:0,0:0:0:0:
455,219,84389,2,0,P|438:176|402:130,1,103.999992139817,0|8,0:0|0:0,0:0:0:0:
241,259,84768,2,0,P|291:342|418:348,1,207.999990478516,8|0,0:0|0:0,0:0:0:0:
455,219,85338,1,0,0:0:0:0:
241,260,85528,6,0,L|112:287,1,103.999995239258,4|0,0:0|0:0,0:0:0:0:
76,69,85908,1,0,0:0:0:0:
191,50,86097,1,4,0:0:0:0:
286,108,86287,2,0,P|357:110|407:76,1,103.999995239258,0|0,0:0|0:0,0:0:0:0:
151,157,86667,2,0,P|113:220|107:282,1,103.999995239258,4|0,0:0|0:0,0:0:0:0:
241,259,87047,5,8,0:0:0:0:
191,50,87237,1,8,0:0:0:0:
36,196,87427,1,2,0:0:0:0:
258,161,87616,1,0,0:0:0:0:
119,250,87805,6,0,L|89:310,1,51.9999945201877,12|0,0:0|0:0,0:0:0:0:
76,102,87995,2,0,L|69:51,1,51.9999945201877,8|0,0:0|0:0,0:0:0:0:
36,196,88185,1,8,0:0:0:0:
257,161,88375,1,10,0:0:0:0:
