osu file format v14

[General]
AudioFilename: &Z JP ver.mp3
AudioLeadIn: 0
PreviewTime: 63312
Countdown: 0
SampleSet: None
StackLeniency: 0.7
Mode: 0
LetterboxInBreaks: 0
WidescreenStoryboard: 0

[Editor]
Bookmarks: 1648,13800,25952,38104,50256,60889,62408
DistanceSpacing: 1.2
BeatDivisor: 4
GridSize: 4
TimelineZoom: 1.2

[Metadata]
Title:&Z (TV size)
TitleUnicode:&Z (TV size)
Artist:SawanoHiroyuki[nZk]:mizuki
ArtistUnicode:SawanoHiroyuki[nZk]:mizuki
Creator:TT Mouse
Version:Hard
Source:アルドノア・ゼロ
Tags:澤野弘之 Aldnoah.Zero opening 2nd season
BeatmapID:594329
BeatmapSetID:260149

[Difficulty]
HPDrainRate:5
CircleSize:3.8
OverallDifficulty:5
ApproachRate:7
SliderMultiplier:1.5
SliderTickRate:1

[Events]
//Background and Video events
0,0,"BG2.jpg",0,0
Video,0,"video.avi"
//Break Periods
//Storyboard Layer 0 (Background)
//Storyboard Layer 1 (Fail)
//Storyboard Layer 2 (Pass)
//Storyboard Layer 3 (Foreground)
//Storyboard Sound Samples

[TimingPoints]
3502,379.746835443038,4,3,1,55,1,0
3502,-125,4,3,1,55,0,0
15558,-125,4,2,1,40,0,0
27615,-125,4,3,1,55,0,0
39862,-125,4,2,1,45,0,0
63312,-125,4,3,1,50,0,0
64261,-100,4,3,1,70,0,1
88280,-100,4,3,1,20,0,0

[Colours]
Combo1 : 135,65,65
Combo2 : 236,195,167
Combo3 : 79,31,93
Combo4 : 176,73,129

[HitObjects]
172,262,3502,6,0,P|132:305|74:313,1,120,4|2,0:0|0:0,0:0:0:0:
96,234,4071,1,0,0:0:0:0:
96,234,4261,2,0,L|114:154,1,60,8|0,0:0|0:0,0:0:0:0:
183,123,4641,2,0,L|189:203,1,60,8|8,0:2|0:0,0:0:0:0:
264,136,5020,6,0,P|303:109|328:29,1,120,2|2,0:0|0:0,0:0:0:0:
407,41,5590,1,0,0:0:0:0:
444,109,5780,2,0,L|441:188,1,60,8|0,0:0|0:0,0:0:0:0:
459,245,6160,2,0,L|392:284,1,60,0|0,0:0|0:0,0:0:0:0:
320,249,6539,5,4,0:0:0:0:
320,249,6729,1,0,0:0:0:0:
243,212,6919,2,0,P|264:166|285:140,1,60,2|0,0:0|0:0,0:0:0:0:
181,272,7299,2,0,P|181:305|171:347,1,60,8|0,0:0|0:0,0:0:0:0:
96,267,7679,1,8,0:2:0:0:
96,267,7869,1,8,0:0:0:0:
96,267,8058,6,0,P|115:199|163:153,1,120,2|2,0:0|0:0,0:0:0:0:
219,119,8628,1,0,0:0:0:0:
143,81,8818,2,0,L|76:80,2,60,8|0|0,0:0|0:0|0:2,0:0:0:0:
216,31,9388,5,0,0:0:0:0:
216,31,9577,2,0,L|300:50,1,60,4|0,0:0|0:0,0:0:0:0:
357,62,9957,1,2,0:0:0:0:
357,62,10147,1,0,0:0:0:0:
403,132,10337,2,0,B|391:174|416:221|416:221|392:263,1,120,8|0,0:0|0:2,0:0:0:0:
342,305,10907,1,8,0:2:0:0:
342,305,11096,6,0,P|253:261|215:259,1,120,2|2,0:0|0:0,0:0:0:0:
157,295,11666,1,0,0:0:0:0:
157,295,11856,2,0,P|159:241|151:211,1,60,8|0,0:0|0:0,0:0:0:0:
198,163,12236,2,0,P|235:152|277:168,1,60,0|0,0:2|0:0,0:0:0:0:
323,207,12615,6,0,P|376:168|405:109,1,120,4|2,0:0|0:0,0:0:0:0:
374,34,13185,1,0,0:0:0:0:
374,34,13375,1,8,0:0:0:0:
291,52,13565,1,0,0:0:0:0:
291,52,13755,2,0,L|215:70,1,60,8|8,0:2|0:0,0:0:0:0:
161,171,14134,6,0,L|235:156,1,60,2|0,0:0|0:0,0:0:0:0:
322,223,14514,2,0,L|259:241,1,60,2|0,0:0|0:0,0:0:0:0:
210,312,14894,2,0,B|162:328|162:328|136:305|82:307,2,120,8|0|4,0:0|0:2|0:0,0:0:0:0:
327,352,16033,5,0,0:0:0:0:
432,294,16413,2,0,P|442:219|433:159,1,120,8|0,0:0|0:0,0:0:0:0:
395,110,16983,1,0,0:0:0:0:
395,110,17172,6,0,L|323:141,1,60
248,128,17552,2,0,L|282:78,2,60,0|0|8,0:0|0:0|0:0,0:0:0:0:
243,212,18122,1,0,0:0:0:0:
242,296,18312,2,0,L|181:325,1,60
113,360,18691,6,0,P|108:296|148:251,1,120
49,115,19451,1,8,0:0:0:0:
49,115,19641,1,0,0:0:0:0:
49,115,19831,2,0,P|103:123|126:118,1,60
186,79,20210,6,0,P|138:40|77:41,2,120,0|0|8,0:0|0:0|0:0,0:0:0:0:
190,163,21160,1,0,0:0:0:0:
190,163,21350,2,0,L|192:232,1,60
274,238,21729,6,0,P|335:248|403:226,2,120,0|0|8,0:0|0:0|0:0,0:0:0:0:
304,159,22679,1,0,0:0:0:0:
304,159,22869,2,0,L|271:97,1,60
330,45,23248,6,0,P|399:72|466:70,1,120
472,262,24008,1,8,0:0:0:0:
472,262,24198,1,0,0:0:0:0:
445,342,24388,2,0,L|374:363,1,60
310,322,24767,6,0,P|304:254|271:203,1,120,0|0,0:0|0:0,0:0:0:0:
193,127,25527,2,0,P|170:161|164:197,2,60,8|0|0,0:0|0:0|0:0,0:0:0:0:
293,40,26286,6,0,P|214:39|156:17,1,120
89,56,26856,1,0,0:0:0:0:
89,56,27046,2,0,L|64:134,1,60,8|0,0:0|0:0,0:0:0:0:
72,192,27426,2,0,L|147:205,1,60
184,271,27805,6,0,P|260:278|323:252,1,120,4|0,0:0|0:0,0:0:0:0:
376,226,28375,1,8,0:0:0:0:
376,226,28565,2,0,P|376:186|385:158,1,60,8|0,0:2|0:0,0:0:0:0:
336,94,28945,2,0,P|277:77|262:62,1,60,8|0,0:0|0:0,0:0:0:0:
207,36,29324,6,0,P|157:72|132:133,2,120,8|2|8,0:0|0:0|0:2,0:0:0:0:
215,159,30464,2,0,P|193:189|156:210,1,60,2|0,0:0|0:0,0:0:0:0:
89,213,30843,6,0,B|73:269|99:313|99:313|118:343,1,120,4|0,0:0|0:0,0:0:0:0:
187,310,31413,1,8,0:0:0:0:
187,310,31603,2,0,P|227:304|269:310,1,60,8|0,0:2|0:0,0:0:0:0:
317,353,31983,2,0,P|356:356|398:345,1,60,8|0,0:0|0:0,0:0:0:0:
378,272,32362,6,0,L|401:196,1,60,8|0,0:0|0:0,0:0:0:0:
422,135,32742,1,2,0:0:0:0:
357,77,32932,1,0,0:0:0:0:
274,73,33122,2,0,L|286:131,2,60,8|0|2,0:2|0:0|0:0,0:0:0:0:
172,130,33881,6,0,P|203:185|271:210,1,120,4|0,0:0|0:0,0:0:0:0:
270,294,34451,1,8,0:0:0:0:
270,294,34641,2,0,P|248:328|236:370,1,60,8|0,0:2|0:0,0:0:0:0:
162,312,35020,2,0,P|183:281|194:247,1,60,8|0,0:0|0:0,0:0:0:0:
107,239,35400,6,0,P|75:289|86:359,2,120,8|2|8,0:0|0:0|0:2,0:0:0:0:
50,65,36539,1,2,0:0:0:0:
50,65,36729,1,0,0:0:0:0:
133,59,36919,6,0,P|190:72|275:70,1,120,4|0,0:0|0:0,0:0:0:0:
304,138,37489,1,8,0:0:0:0:
304,138,37679,2,0,L|246:193,1,60,8|0,0:2|0:0,0:0:0:0:
178,213,38058,2,0,L|217:268,1,60,8|0,0:0|0:0,0:0:0:0:
288,307,38438,6,0,P|242:341|162:332,2,120,8|0|8,0:0|0:0|0:2,0:0:0:0:
401,273,39577,1,8,0:2:0:0:
499,334,39957,6,0,P|513:269|490:196,1,120,6|2,0:0|0:0,0:0:0:0:
411,145,40717,1,2,0:0:0:0:
411,145,41096,1,2,0:0:0:0:
411,145,41476,6,0,P|350:173|280:159,1,120,10|2,0:0|0:0,0:0:0:0:
336,63,42236,1,2,0:0:0:0:
228,83,42615,1,2,0:0:0:0:
204,189,42995,6,0,P|220:244|271:294,2,120,10|2|2,0:0|0:0|0:0,0:0:0:0:
129,108,44134,1,2,0:0:0:0:
101,213,44514,5,10,0:0:0:0:
169,298,44894,2,0,P|123:320|48:310,2,120,2|2|2,0:0|0:0|0:0,0:0:0:0:
262,256,46033,6,0,P|327:267|387:307,1,120,10|2,0:0|0:0,0:0:0:0:
461,255,46793,1,2,0:0:0:0:
462,159,47172,1,2,0:0:0:0:
374,120,47552,6,0,P|418:72|478:63,2,120,10|2|2,0:0|0:0|0:0,0:0:0:0:
305,175,48691,2,0,L|295:246,1,60,2|0,0:0|0:0,0:0:0:0:
342,304,49071,6,0,P|288:319|227:281,1,120,6|2,0:0|0:0,0:0:0:0:
148,266,49641,1,0,0:0:0:0:
148,266,49831,2,0,L|107:318,1,60,2|0,0:0|0:0,0:0:0:0:
62,234,50210,2,0,L|107:171,1,60,2|0,0:0|0:0,0:0:0:0:
127,105,50590,6,0,P|94:99|54:109,2,60,10|0|2,0:0|0:0|0:0,0:0:0:0:
237,156,51350,2,0,P|292:170|353:158,1,120,2|2,0:0|0:0,0:0:0:0:
381,60,52109,5,4,0:0:0:0:
381,60,52489,2,0,P|431:103|457:177,1,120,0|8,0:0|0:1,0:0:0:0:
455,235,53058,2,0,P|487:227|515:210,2,60
399,298,53628,6,0,B|366:305|326:298|326:298|263:331,2,120,8|0|8,0:0|0:0|0:1,0:0:0:0:
356,183,54767,1,0,0:0:0:0:
192,221,55147,6,0,P|196:148|230:88,1,120,8|0,0:0|0:0,0:0:0:0:
156,46,55717,1,0,0:0:0:0:
156,46,55907,2,0,P|192:22|216:22,2,60,8|0|0,0:1|0:0|0:0,0:0:0:0:
74,65,56476,1,0,0:0:0:0:
95,144,56666,6,0,P|90:198|60:261,2,120,8|0|8,0:0|0:0|0:1,0:0:0:0:
176,265,57805,1,0,0:0:0:0:
224,335,57995,1,0,0:0:0:0:
308,312,58185,6,0,P|311:227|290:179,1,120,8|0,0:0|0:0,0:0:0:0:
215,183,58755,1,0,0:0:0:0:
215,183,58945,2,0,P|194:109|206:56,1,120,8|0,0:1|0:0,0:0:0:0:
279,32,59514,1,0,0:0:0:0:
279,32,59704,6,0,L|358:54,1,60,8|0,0:0|0:0,0:0:0:0:
394,147,60084,2,0,L|333:132,1,60
455,87,60464,2,0,P|479:152|451:211,1,120,8|0,0:1|0:0,0:0:0:0:
382,233,61033,1,0,0:0:0:0:
382,233,61223,6,0,B|364:271|378:319|378:319|351:367,2,120,8|0|8,0:0|0:0|0:1,0:0:0:0:
301,158,62362,1,8,0:2:0:0:
301,158,62552,1,8,0:1:0:0:
301,158,63501,5,8,0:0:0:0:
156,279,63881,1,8,0:0:0:0:
156,279,64071,1,0,0:0:0:0:
156,279,64261,6,0,B|104:253|89:218|89:218|107:187|104:147,1,150,4|0,0:0|0:0,0:0:0:0:
25,162,64831,2,0,B|33:89|102:84|102:84|126:35,1,150,8|0,0:0|0:0,0:0:0:0:
185,108,65400,1,8,0:2:0:0:
191,18,65590,1,0,0:0:0:0:
262,68,65780,6,0,B|299:96|306:136|306:136|278:199,1,150,8|0,0:0|0:0,0:0:0:0:
202,190,66350,2,0,B|173:250|173:250|180:290|217:318,1,150,8|0,0:0|0:0,0:0:0:0:
297,348,66919,1,8,0:2:0:0:
381,330,67109,1,8,0:2:0:0:
381,330,67299,6,0,B|355:274|355:274|304:270|273:225,1,150,4|0,0:0|0:0,0:0:0:0:
352,190,67869,2,0,B|405:169|435:120|435:120|482:108,1,150,8|0,0:0|0:0,0:0:0:0:
417,42,68438,1,8,0:2:0:0:
339,79,68628,1,0,0:0:0:0:
339,79,68818,6,0,L|247:52,1,75,4|8,0:0|0:2,0:0:0:0:
237,135,69198,2,0,L|158:159,1,75
89,112,69577,1,8,0:2:0:0:
30,175,69767,1,2,0:0:0:0:
67,252,69957,1,10,0:2:0:0:
153,244,70147,1,2,0:0:0:0:
153,244,70337,6,0,B|184:283|204:325|204:325|260:290,1,150,4|8,0:0|0:0,0:0:0:0:
322,248,70907,1,0,0:2:0:0:
330,338,71096,2,0,P|393:306|404:214,1,150,0|8,0:0|0:2,0:0:0:0:
361,160,71666,1,0,0:0:0:0:
361,160,71856,6,0,B|344:131|353:95|353:95|381:63|381:63|355:19,1,150,0|8,0:0|0:0,0:0:0:0:
271,53,72426,1,0,0:0:0:0:
206,120,72615,2,0,B|150:120|107:83|107:83|60:107,1,150,0|8,0:0|0:2,0:0:0:0:
55,192,73185,1,8,0:2:0:0:
55,192,73375,6,0,P|77:261|32:324,1,150,4|0,0:0|0:0,0:0:0:0:
137,319,73945,2,0,B|185:322|185:322|253:307|253:307|309:309,1,150,8|0,0:0|0:0,0:0:0:0:
357,356,74514,2,0,L|417:285,1,75,8|0,0:2|0:0,0:0:0:0:
411,202,74894,5,0,0:0:0:0:
328,157,75084,1,8,0:2:0:0:
252,213,75274,2,0,P|240:121|293:68,1,150,8|8,0:0|0:0,0:0:0:0:
368,30,75843,2,0,L|411:28,5,37.5
354,66,76413,6,0,L|450:123,1,75,4|0,0:0|0:0,0:0:0:0:
459,187,76793,1,8,0:2:0:0:
398,258,76983,1,0,0:0:0:0:
308,230,77172,2,0,L|314:154,1,75,8|0,0:0|0:0,0:0:0:0:
224,123,77552,1,0,0:2:0:0:
164,195,77742,1,0,0:0:0:0:
164,195,77932,6,0,B|155:236|193:292|193:292|164:336,1,150,8|8,0:0|0:2,0:0:0:0:
85,289,78501,1,0,0:0:0:0:
168,331,78691,2,0,P|241:348|322:338,1,150,8|0,0:0|0:2,0:0:0:0:
397,296,79261,1,0,0:0:0:0:
397,296,79451,6,0,L|407:214,1,75,4|0,0:0|0:0,0:0:0:0:
462,149,79831,1,8,0:2:0:0:
422,64,80020,1,8,0:0:0:0:
328,58,80210,2,0,L|259:98,1,75
273,186,80590,1,8,0:0:0:0:
231,269,80780,1,0,0:0:0:0:
231,269,80970,6,0,P|188:212|199:126,1,150,8|8,0:0|0:2,0:0:0:0:
97,150,81539,1,8,0:0:0:0:
97,150,81729,2,0,L|36:236,1,75
82,290,82109,2,0,L|171:319,1,75,8|0,0:0|0:0,0:0:0:0:
231,269,82489,6,0,P|318:256|389:272,1,150,4|8,0:0|0:2,0:0:0:0:
446,331,83058,1,8,0:0:0:0:
491,253,83248,2,0,P|495:181|455:98,1,150,0|8,0:0|0:0,0:0:0:0:
387,143,83818,1,0,0:0:0:0:
387,143,84008,6,0,P|351:127|313:94,1,75,8|0,0:0|0:0,0:0:0:0:
238,89,84388,1,8,0:2:0:0:
198,162,84577,1,8,0:0:0:0:
198,162,84767,2,0,B|191:201|209:239|209:239|201:284|171:312,1,150,0|8,0:0|0:0,0:0:0:0:
91,319,85337,1,0,0:0:0:0:
180,303,85527,6,0,B|248:281|290:313|358:294,1,150,4|8,0:0|0:2,0:0:0:0:
408,347,86096,2,0,P|419:281|363:215,1,150,4|0,0:0|0:0,0:0:0:0:
293,177,86666,2,0,B|322:133|367:127|367:127|389:94|381:56,1,150,12|8,0:0|0:0,0:0:0:0:
301,34,87236,5,2,0:0:0:0:
301,34,87426,2,0,L|203:63,1,75,8|0,0:2|0:0,0:0:0:0:
144,72,87805,2,0,P|101:47|86:38,2,37.5,8|0|0,0:0|0:0|0:0,0:0:0:0:
129,154,88185,2,0,L|50:167,1,75,8|0,0:2|0:0,0:0:0:0:
