osu file format v14

[General]
AudioFilename: &Z JP ver.mp3
AudioLeadIn: 0
PreviewTime: 63312
Countdown: 0
SampleSet: None
StackLeniency: 0.7
Mode: 0
LetterboxInBreaks: 0
WidescreenStoryboard: 0

[Editor]
Bookmarks: 1648,13800,25952,38104,50256,60889,62408
DistanceSpacing: 0.6
BeatDivisor: 4
GridSize: 16
TimelineZoom: 0.9999999

[Metadata]
Title:&Z (TV size)
TitleUnicode:&Z (TV size)
Artist:SawanoHiroyuki[nZk]:mizuki
ArtistUnicode:SawanoHiroyuki[nZk]:mizuki
Creator:TT Mouse
Version:Easy
Source:アルドノア・ゼロ
Tags:澤野弘之 Aldnoah.Zero opening 2nd season
BeatmapID:594327
BeatmapSetID:260149

[Difficulty]
HPDrainRate:3
CircleSize:2.5
OverallDifficulty:2
ApproachRate:3
SliderMultiplier:0.999999999999999
SliderTickRate:2

[Events]
//Background and Video events
0,0,"BG2.jpg",0,0
Video,0,"video.avi"
//Break Periods
//Storyboard Layer 0 (Background)
//Storyboard Layer 1 (Fail)
//Storyboard Layer 2 (Pass)
//Storyboard Layer 3 (Foreground)
//Storyboard Sound Samples

[TimingPoints]
3502,379.746835443038,4,3,1,55,1,0
15558,-100,4,2,1,40,0,0
27615,-100,4,3,1,55,0,0
39862,-100,4,2,1,45,0,0
63312,-100,4,3,1,50,0,0
64261,-100,4,3,1,70,0,1
88280,-100,4,3,1,20,0,0

[Colours]
Combo1 : 135,65,65
Combo2 : 236,195,167
Combo3 : 79,31,93
Combo4 : 176,73,129

[HitObjects]
30,241,3502,6,0,P|73:160|192:143,1,200,4|8,0:0|0:0,0:0:0:0:
197,254,5021,2,0,P|308:230|347:130,1,200,8|8,0:2|0:0,0:0:0:0:
367,41,6539,5,8,0:2:0:0:
451,125,7299,1,8,0:0:0:0:
439,239,8058,2,0,B|404:315|313:311|313:311|275:367,1,200,8|8,0:2|0:0,0:0:0:0:
167,350,9578,5,4,0:0:0:0:
95,253,10338,1,8,0:0:0:0:
161,153,11097,1,8,0:2:0:0:
278,177,11857,1,8,0:0:0:0:
357,267,12616,6,0,P|393:214|382:149,2,99.9999999999999,8|0|8,0:2|0:0|0:0,0:0:0:0:
270,350,14135,1,8,0:2:0:0:
204,249,14895,2,0,B|138:272|81:307|81:307|9:290,1,200,8|4,0:0|0:0,0:0:0:0:
41,174,16414,1,8,0:0:0:0:
160,171,17173,6,0,B|228:132|238:57|238:57|298:18,1,200,0|8,0:0|0:0,0:0:0:0:
404,41,18692,1,0,0:0:0:0:
451,151,19452,1,8,0:0:0:0:
369,239,20211,6,0,P|352:280|353:358,2,99.9999999999999,0|0|8,0:0|0:0|0:0,0:0:0:0:
249,244,21730,2,0,B|195:240|159:190|121:190|121:190|56:227,1,200,0|8,0:0|0:0,0:0:0:0:
124,325,23249,5,0,0:0:0:0:
239,359,24009,1,8,0:0:0:0:
348,310,24767,2,0,B|374:244|341:190|341:190|331:146|357:100,2,200,0|8|0,0:0|0:0|0:0,0:0:0:0:
241,255,27047,1,8,0:0:0:0:
227,135,27806,6,0,P|127:162|41:126,1,200,4|8,0:0|0:0,0:0:0:0:
62,244,29325,2,0,P|66:281|47:354,2,99.9999999999999,8|0|8,0:0|0:0|0:2,0:0:0:0:
182,242,30844,5,8,0:0:0:0:
263,329,31604,1,8,0:2:0:0:
340,237,32363,2,0,P|296:124|200:91,1,200,8|8,0:0|0:2,0:0:0:0:
123,148,33882,5,8,0:0:0:0:
112,267,34642,1,8,0:2:0:0:
220,317,35401,2,0,B|278:313|324:279|324:279|437:293,1,200,8|8,0:0|0:2,0:0:0:0:
459,179,36920,5,8,0:0:0:0:
339,187,37679,1,8,0:2:0:0:
338,67,38439,2,0,L|462:61,2,99.9999999999999,8|0|8,0:0|0:0|0:2,0:0:0:0:
226,112,39957,6,0,B|246:163|209:210|198:255|198:255|253:348,2,200,4|2|2,0:0|0:0|0:0,0:0:0:0:
110,144,42237,1,2,0:0:0:0:
100,263,42996,5,2,0:0:0:0:
214,299,43756,1,2,0:0:0:0:
321,246,44515,2,0,P|335:301|312:361,2,99.9999999999999,2|0|2,0:0|0:0|0:0,0:0:0:0:
223,176,46034,2,0,B|320:105|421:180,1,200,2|2,0:0|0:0,0:0:0:0:
451,283,47553,5,2,0:0:0:0:
502,176,48313,1,2,0:0:0:0:
446,69,49072,2,0,B|345:51|345:51|288:78|212:83,1,200,2|2,0:0|0:0,0:0:0:0:
135,47,50591,5,2,0:0:0:0:
123,166,51351,1,2,0:0:0:0:
242,180,52110,1,6,0:0:0:0:
287,291,52870,1,8,0:1:0:0:
403,261,53628,6,0,B|441:200|422:127|422:127|431:65,2,200,0|8|0,0:0|0:1|0:0,0:0:0:0:
368,376,55908,1,8,0:1:0:0:
253,338,56667,2,0,P|200:339|127:347,2,99.9999999999999,0|0|8,0:0|0:0|0:1,0:0:0:0:
288,223,58185,6,0,B|282:150|218:142|197:98|197:98|199:45,1,200,0|8,0:0|0:1,0:0:0:0:
318,64,59705,1,0,0:0:0:0:
378,167,60465,1,8,0:1:0:0:
298,256,61224,5,0,0:0:0:0:
186,214,61983,2,0,P|103:220|34:244,1,150,8|8,0:1|0:0,0:0:0:0:
88,98,63502,1,8,0:0:0:0:
208,95,64262,6,0,P|300:70|420:79,1,200,4|0,0:0|0:0,0:0:0:0:
449,186,65781,1,8,0:0:0:0:
347,249,66540,1,0,0:0:0:0:
415,347,67300,6,0,P|324:367|235:292,1,200,4|0,0:0|0:0,0:0:0:0:
242,187,68819,1,8,0:0:0:0:
139,249,69578,1,0,0:0:0:0:
133,129,70338,6,0,P|202:80|329:92,1,200,4|0,0:0|0:0,0:0:0:0:
321,143,71477,1,0,0:0:0:0:
326,202,71856,2,0,B|392:208|455:188|455:188|486:233|476:273,1,200,8|0,0:0|0:0,0:0:0:0:
374,312,73376,6,0,B|313:318|290:274|229:267|229:267|183:315,1,200,4|0,0:0|0:0,0:0:0:0:
87,350,74895,2,0,B|53:318|53:318|60:257|104:234|98:173,1,200,8|0,0:0|0:0,0:0:0:0:
67,122,76034,1,0,0:0:0:0:
40,67,76413,6,0,B|118:36|181:54|181:54|222:101,1,200,4|0,0:0|0:0,0:0:0:0:
277,200,77933,1,8,0:0:0:0:
339,97,78692,1,0,0:0:0:0:
400,199,79452,6,0,P|373:294|269:334,1,200,4|0,0:0|0:0,0:0:0:0:
229,317,80591,1,0,0:0:0:0:
173,294,80971,2,0,P|150:210|215:110,1,200,8|0,0:0|0:0,0:0:0:0:
323,119,82490,5,4,0:0:0:0:
349,235,83249,1,0,0:0:0:0:
440,157,84009,1,8,0:0:0:0:
464,274,84768,1,0,0:0:0:0:
365,342,85528,6,0,B|293:348|270:310|208:291|208:291|155:305,1,200,4|0,0:0|0:0,0:0:0:0:
126,332,86667,2,0,P|97:257|136:137,1,200,4|0,0:0|0:0,0:0:0:0:
188,142,87806,2,0,B|213:160|246:194|246:194|321:182,1,150,8|2,0:0|0:0,0:0:0:0:
