osu file format v14

[General]
AudioFilename: 05. &Z (TV size).mp3
AudioLeadIn: 2000
PreviewTime: 62974
Countdown: 0
SampleSet: Soft
StackLeniency: 0.7
Mode: 0
LetterboxInBreaks: 0
WidescreenStoryboard: 1

[Editor]
DistanceSpacing: 1.3
BeatDivisor: 4
GridSize: 4
TimelineZoom: 1.7

[Metadata]
Title:&Z (TV size)
TitleUnicode:&Z (TV size)
Artist:SawanoHiroyuki[nZk]:mizuki
ArtistUnicode:SawanoHiroyuki[nZk]:mizuki
Creator:Haruto_Aizawa
Version:Hard
Source:アルドノア・ゼロ
Tags:Aldnoah.Zero Season 2 Opening Rock Mako Sakata NewIpas
BeatmapID:673474
BeatmapSetID:275507

[Difficulty]
HPDrainRate:5
CircleSize:3.5
OverallDifficulty:6
ApproachRate:7
SliderMultiplier:1.28
SliderTickRate:2

[Events]
//Background and Video events
0,0,"BG21.png",0,0
Video,-282,"Video.avi"
//Break Periods
//Storyboard Layer 0 (Background)
//Storyboard Layer 1 (Fail)
//Storyboard Layer 2 (Pass)
//Storyboard Layer 3 (Foreground)
//Storyboard Sound Samples

[TimingPoints]
126,379.746835443038,4,2,1,20,1,0
3163,-100,4,2,1,60,0,0
6391,-100,4,2,1,30,0,0
6581,-100,4,2,1,60,0,0
15315,-100,4,2,0,60,0,0
39619,-100,4,2,2,40,0,0
52341,-100,4,2,1,40,0,0
62974,-133.333333333333,4,2,1,45,0,0
63923,-100,4,2,1,65,0,1
78353,-100,4,2,0,65,0,1
78923,-100,4,2,1,65,0,1
88037,-100,4,2,1,55,0,0

[Colours]
Combo1 : 241,162,26
Combo2 : 64,186,237
Combo3 : 186,32,27
Combo4 : 150,150,150
Combo5 : 59,183,115
Combo6 : 255,216,0

[HitObjects]
56,56,3163,6,0,L|136:56,1,64,8|0,0:0|0:0,0:0:0:0:
204,56,3543,1,0,0:0:0:0:
268,108,3733,1,0,0:0:0:0:
244,188,3923,2,0,P|260:232|232:304,1,128,8|0,0:0|0:0,0:0:0:0:
300,356,4493,2,0,P|332:308|340:224,1,128,8|0,0:0|0:0,0:0:0:0:
336,156,5062,1,8,0:0:0:0:
492,104,5442,2,0,P|500:152|492:192,1,64,8|0,0:0|0:0,0:0:0:0:
456,240,5822,2,0,P|428:280|412:292,1,64
336,308,6201,21,8,0:0:0:0:
256,292,6391,1,8,0:0:0:0:
180,332,6581,2,0,L|96:332,1,64
40,300,6961,2,0,B|60:252|104:252|104:252|176:252,1,128,8|0,0:0|0:0,0:0:0:0:
232,252,7531,2,0,P|220:212|140:172,1,128,8|0,0:0|0:0,0:0:0:0:
64,168,8100,1,8,0:0:0:0:
112,100,8290,1,0,0:0:0:0:
196,92,8480,2,0,P|256:120|300:176,1,128,8|0,0:0|0:0,0:0:0:0:
436,256,9239,38,0,L|440:188,1,64,4|8,0:0|0:0,0:0:0:0:
496,128,9619,2,0,L|440:68,1,64
368,92,9999,2,0,P|324:68|244:96,1,128,8|0,0:0|0:0,0:0:0:0:
192,148,10569,2,0,P|236:168|312:144,1,128,8|0,0:0|0:0,0:0:0:0:
392,156,11138,1,8,0:0:0:0:
364,320,11518,1,8,0:0:0:0:
196,308,11898,2,0,L|120:308,1,64
52,292,12277,37,8,0:0:0:0:
12,220,12467,1,8,0:0:0:0:
8,136,12657,2,0,P|24:92|44:80,1,64
120,64,13037,1,8,0:0:0:0:
192,152,13417,1,0,0:0:0:0:
192,152,13607,2,0,P|248:180|324:144,1,128,8|0,0:0|0:0,0:0:0:0:
392,160,14176,2,0,L|392:228,1,64,8|0,0:0|0:0,0:0:0:0:
352,296,14556,1,8,0:0:0:0:
436,296,14746,2,0,L|512:296,2,64,0|2|0,0:0|0:3|0:0,0:0:0:0:
352,296,15315,53,4,0:0:0:0:
232,180,15695,1,0,0:0:0:0:
192,340,16075,2,0,L|64:340,1,128,0|2,1:0|0:0,0:0:0:0:
44,260,16644,1,0,0:0:0:0:
44,260,16834,2,0,L|132:260,2,64,2|0|2,0:0|0:0|0:0,0:0:0:0:
40,176,17404,1,0,0:0:0:0:
8,100,17594,2,0,P|68:100|116:148,1,128,0|2,1:0|0:0,0:0:0:0:
280,148,18353,6,0,B|316:148|340:124|340:124|364:148|404:148,1,128,2|2,0:0|0:0,0:0:0:0:
500,216,19113,2,0,P|484:272|460:292,2,64,0|0|2,1:0|0:0|0:0,0:0:0:0:
416,220,19682,1,0,0:0:0:0:
336,232,19872,69,2,0:0:0:0:
336,232,20062,2,0,P|316:268|280:288,1,64,0|2,0:0|0:0,0:0:0:0:
216,280,20442,1,0,0:0:0:0:
180,356,20632,2,0,P|140:316|140:240,1,128,0|0,1:0|0:0,0:0:0:0:
0,148,21391,6,0,P|16:88|72:40,1,128,2|2,0:0|0:0,0:0:0:0:
140,72,21961,1,0,0:0:0:0:
224,72,22151,2,0,L|292:72,2,64,0|0|0,1:0|0:0|0:0,0:0:0:0:
256,236,22910,6,0,P|316:240|392:216,1,128,2|0,0:0|0:0,0:0:0:0:
468,80,23670,2,0,L|384:56,1,64,0|0,1:0|0:0,0:0:0:0:
324,60,24050,2,0,L|260:80,1,64,2|0,0:0|0:0,0:0:0:0:
180,80,24429,2,0,P|212:144|272:164,1,128,2|2,0:0|0:0,0:0:0:0:
428,164,25189,2,0,P|420:220|340:260,1,128,0|2,1:0|0:0,0:0:0:0:
200,260,25948,54,0,L|72:260,1,128,2|2,0:0|0:0,0:0:0:0:
100,180,26518,1,2,0:0:0:0:
100,180,26708,2,0,L|232:180,1,128,0|0,1:0|0:0,0:0:0:0:
392,204,27467,22,0,P|384:172|356:144,1,64,4|0,0:0|0:0,0:0:0:0:
312,216,27847,2,0,P|288:248|276:288,1,64
364,280,28227,2,0,P|404:284|440:272,2,64,0|0|0,1:0|0:0|0:0,0:0:0:0:
312,216,28796,1,0,0:0:0:0:
232,232,28986,54,0,L|168:232,1,64
280,296,29366,2,0,P|328:300|368:284,1,64,2|0,0:0|0:0,0:0:0:0:
380,224,29746,2,0,B|416:232|448:260|448:260|488:204,1,128,0|0,1:0|0:0,0:0:0:0:
436,148,30315,1,0,0:0:0:0:
356,128,30505,6,0,L|284:128,1,64,2|0,0:0|0:0,0:0:0:0:
200,164,30885,2,0,L|200:92,1,64,2|0,0:0|0:0,0:0:0:0:
280,212,31265,2,0,B|280:300|280:300|320:332,1,128,0|2,1:0|0:0,0:0:0:0:
384,284,31834,1,0,0:0:0:0:
408,364,32024,6,0,P|460:330|475:269,1,128,2|0,0:0|0:0,0:0:0:0:
476,184,32594,1,0,0:0:0:0:
464,100,32784,2,0,P|444:60|416:36,2,64,0|0|2,1:0|0:0|0:0,0:0:0:0:
304,144,33543,54,0,B|240:144|240:144|168:188,1,128,2|2,0:0|0:0,0:0:0:0:
100,180,34113,1,0,0:0:0:0:
132,256,34303,2,0,L|212:256,1,64,0|0,1:0|0:0,0:0:0:0:
228,332,34682,2,0,P|264:304|288:264,1,64,2|0,0:0|0:0,0:0:0:0:
356,312,35062,6,0,P|372:276|380:232,1,64,2|0,0:0|0:0,0:0:0:0:
460,256,35442,2,0,P|468:220|468:188,1,64
484,112,35822,2,0,B|428:108|396:148|396:148|352:148,1,128,0|2,1:0|0:0,0:0:0:0:
284,136,36391,1,0,0:0:0:0:
204,156,36581,6,0,L|220:236,1,64,2|0,0:0|0:0,0:0:0:0:
192,76,36961,2,0,P|220:60|260:52,1,64,2|0,0:0|0:0,0:0:0:0:
132,128,37341,2,0,P|112:156|108:200,1,64,0|0,1:0|0:0,0:0:0:0:
140,260,37720,2,0,P|172:296|248:320,2,128,2|2|2,0:0|0:0|0:0,0:0:0:0:
36,112,38860,6,0,P|32:64|44:40,1,64,0|0,1:0|0:0,0:0:0:0:
120,44,39239,1,2,0:0:0:0:
204,40,39429,1,2,0:0:0:0:
288,32,39619,6,0,P|336:36|404:84,2,128,4|2|2,0:0|0:0|0:0,0:0:0:0:
260,196,40758,1,0,0:0:0:0:
376,316,41138,6,0,P|420:264|428:188,2,128,2|0|2,0:0|0:0|0:0,0:0:0:0:
260,196,42277,1,0,0:0:0:0:
112,120,42657,70,0,P|96:168|120:248,1,128,2|0,0:0|0:0,0:0:0:0:
268,308,43417,2,0,B|304:292|304:292|400:292,1,128,2|2,0:0|0:0,0:0:0:0:
500,164,44176,5,0,0:0:0:0:
332,164,44556,1,2,0:0:0:0:
416,24,44936,1,0,0:0:0:0:
416,24,45315,2,0,L|348:24,1,64,2|2,0:0|0:0,0:0:0:0:
272,52,45695,38,0,P|224:64|184:132,1,128
104,152,46265,2,0,P|124:188|152:212,1,64
264,312,46834,2,0,P|340:320|400:304,1,128,2|0,0:0|0:0,0:0:0:0:
480,168,47594,6,0,B|480:76|480:76|432:44,1,128,0|2,0:0|0:0,0:0:0:0:
368,56,48163,1,0,0:0:0:0:
284,52,48353,2,0,P|248:68|216:88,1,64
156,120,48733,70,0,P|164:156|228:232,1,128,2|0,0:0|0:0,0:0:0:0:
284,280,49303,1,2,0:0:0:0:
356,324,49493,2,0,L|424:324,1,64
432,240,49872,2,0,P|456:216|472:184,1,64,2|0,0:0|0:0,0:0:0:0:
400,144,50252,6,0,P|384:172|288:184,1,128
176,72,51012,2,0,L|108:71,1,64
76,148,51391,2,0,B|68:180|68:180|80:228,1,64,2|0,0:0|0:0,0:0:0:0:
8,260,51771,70,0,P|72:292|140:260,1,128,2|0,0:0|0:0,0:0:0:0:
180,212,52341,1,0,0:0:0:0:
212,288,52531,2,0,L|280:288,1,64,8|0,0:0|0:0,0:0:0:0:
348,332,52910,2,0,P|360:292|384:264,1,64
428,212,53290,6,0,P|448:244|428:332,2,128,0|0|8,0:0|0:0|0:0,0:0:0:0:
264,180,54429,1,0,0:0:0:0:
368,48,54809,6,0,P|308:28|244:56,1,128
312,108,55379,2,0,P|316:152|308:180,1,64,0|8,0:0|0:0,0:0:0:0:
232,144,55758,2,0,P|204:160|164:160,1,64
96,128,56138,1,0,0:0:0:0:
12,136,56328,54,0,P|32:180|112:212,1,128
268,212,57088,1,8,0:0:0:0:
336,260,57277,1,0,0:0:0:0:
320,340,57467,1,0,0:0:0:0:
236,340,57657,1,0,0:0:0:0:
200,264,57847,54,0,P|160:200|160:120,1,128
212,88,58417,1,0,0:0:0:0:
284,128,58607,2,0,P|293:190|329:243,1,128,8|0,0:0|0:0,0:0:0:0:
408,220,59176,1,0,0:0:0:0:
392,300,59366,6,0,P|328:324|240:324,1,128
196,284,59936,1,0,0:0:0:0:
236,212,60126,2,0,P|312:200|356:160,1,128,8|0,0:0|0:0,0:0:0:0:
376,88,60695,1,0,0:0:0:0:
296,112,60885,6,0,P|268:128|232:132,2,64
240,52,61455,1,0,0:0:0:0:
168,92,61644,2,0,P|156:52|164:20,2,64,8|0|0,0:0|0:0|0:0,0:0:0:0:
140,172,62214,1,8,0:0:0:0:
80,104,63163,6,0,L|72:204,1,96.0000036621095,8|0,0:0|0:0,0:0:0:0:
16,260,63733,1,0,0:0:0:0:
88,300,63923,6,0,P|164:304|232:296,1,128,4|0,0:0|0:0,0:0:0:0:
208,216,64493,2,0,B|184:184|184:184|184:132,2,64,8|0|0,0:0|0:0|0:0,0:0:0:0:
272,164,65062,1,0,1:0:0:0:
344,120,65252,1,0,0:0:0:0:
340,204,65442,6,0,P|332:260|380:328,1,128,0|0,1:0|0:0,0:0:0:0:
412,248,66012,2,0,B|432:192|400:152|400:152|432:116,1,128,0|0,1:0|0:0,0:0:0:0:
368,64,66581,1,8,0:0:0:0:
288,44,66771,1,8,0:0:0:0:
208,64,66961,6,0,P|168:80|132:108,1,64
72,120,67341,1,0,0:0:0:0:
28,192,67531,2,0,P|72:220|96:228,1,64,8|0,0:0|0:0,0:0:0:0:
160,252,67910,1,0,0:0:0:0:
240,276,68100,2,0,P|296:280|328:272,1,64,8|0,0:0|0:0,0:0:0:0:
360,340,68480,22,0,P|392:292|400:264,1,64,0|8,0:0|0:0,0:0:0:0:
476,292,68860,2,0,P|472:256|400:208,1,128,0|8,0:0|0:0,0:0:0:0:
368,132,69429,1,0,0:0:0:0:
304,76,69619,2,0,B|268:76|268:76|224:100,1,64,8|0,0:0|0:0,0:0:0:0:
180,32,69999,54,0,P|156:92|196:160,1,128,4|0,0:0|0:0,0:0:0:0:
260,164,70569,1,0,1:0:0:0:
208,228,70758,2,0,P|148:228|96:172,1,128,0|8,0:0|0:0,0:0:0:0:
52,120,71328,1,0,0:0:0:0:
28,200,71518,6,0,P|64:264|124:300,1,128,8|0,0:0|0:0,0:0:0:0:
188,312,72088,1,8,0:0:0:0:
268,324,72277,2,0,L|340:308,1,64
412,296,72657,2,0,P|392:260|348:232,1,64,8|0,0:0|0:0,0:0:0:0:
452,212,73037,6,0,P|416:176|332:176,1,128,8|0,0:0|0:0,0:0:0:0:
348,88,73607,2,0,P|292:104|260:168,1,128,0|0,1:0|0:0,0:0:0:0:
176,156,74176,1,0,1:0:0:0:
100,192,74366,2,0,P|128:244|156:260,1,64
208,276,74746,1,0,1:0:0:0:
280,316,74936,6,0,P|244:348|164:348,1,128,0|0,0:0|1:0,0:0:0:0:
72,292,75505,2,0,L|30:293,5,32,8|8|8|8|8|8,0:0|0:0|0:0|0:0|0:0|0:0,0:0:0:0:
40,252,76075,6,0,B|40:184|40:184|76:132,1,128,4|8,0:0|0:0,0:0:0:0:
36,60,76644,2,0,P|100:52|156:104,1,128
184,164,77214,1,0,0:0:0:0:
260,196,77404,2,0,B|296:164|296:164|380:164,1,128,8|0,0:0|0:0,0:0:0:0:
408,88,77974,2,0,P|444:112|468:156,1,64,8|0,0:0|0:0,0:0:0:0:
460,212,78353,6,0,P|428:236|396:248,1,64,2|0,0:0|0:0,0:0:0:0:
324,260,78733,1,2,0:0:0:0:
240,272,78923,1,0,1:0:0:0:
156,276,79113,22,0,B|84:276|84:276|36:232,1,128,0|8,0:0|0:0,0:0:0:0:
104,184,79682,1,0,0:0:0:0:
32,144,79872,2,0,P|64:112|100:104,1,64
156,72,80252,1,8,0:0:0:0:
224,120,80442,2,0,P|268:148|288:228,1,128
372,232,81012,6,0,P|372:184|360:144,1,64,8|0,0:0|0:0,0:0:0:0:
368,84,81391,2,0,P|416:88|444:108,1,64
460,172,81771,2,0,P|460:232|456:256,1,64,8|0,0:0|0:0,0:0:0:0:
412,304,82151,54,0,P|364:332|288:312,1,128,4|0,0:0|1:0,0:0:0:0:
264,240,82720,1,0,0:0:0:0:
348,252,82910,2,0,P|344:208|272:160,1,128
264,240,83480,1,8,0:0:0:0:
180,232,83670,6,0,B|156:192|156:192|156:156|156:156|136:116,1,128,0|8,0:0|0:0,0:0:0:0:
72,60,84239,1,0,0:0:0:0:
56,140,84429,2,0,B|75:179|75:179|75:215|75:215|100:264,1,128
168,304,84999,1,8,0:0:0:0:
252,316,85189,6,0,L|320:316,2,64,0|0|8,0:0|0:0|0:0,0:0:0:0:
252,232,85758,2,0,L|252:152,2,64
336,236,86328,2,0,B|336:180|336:180|336:136|296:100,1,128,8|0,0:0|0:0,0:0:0:0:
228,92,86898,1,0,0:0:0:0:
148,64,87088,54,0,P|116:84|96:108,1,64,0|0,1:0|0:0,0:0:0:0:
52,172,87467,2,0,L|8:172,2,32,8|8|8,0:0|0:0|0:0,0:0:0:0:
52,256,87847,2,0,L|124:256,1,64,12|0,0:0|0:0,0:0:0:0:
