osu file format v13

[General]
AudioFilename: aldnoahzero2op.mp3
AudioLeadIn: 0
PreviewTime: 63175
Countdown: 0
SampleSet: Soft
StackLeniency: 0.7
Mode: 0
LetterboxInBreaks: 0
WidescreenStoryboard: 0

[Editor]
DistanceSpacing: 0.7
BeatDivisor: 4
GridSize: 4
TimelineZoom: 1.3

[Metadata]
Title:&Z (TV size-English ver.-)
TitleUnicode:&Z(TV size-English ver.-)
Artist:SawanoHiroyuki[nZk]:mizuki
ArtistUnicode:SawanoHiroyuki[nZk]:mizuki
Creator:xxdeathx
Version:Hard
Source:Aldnoah.Zero
Tags:aldnoah zero season 2 opening s2 op アルドノア・ゼロ sawano hiroyuki captin1 lanturn kibbleru iamkwan rakuen
BeatmapID:595163
BeatmapSetID:259907

[Difficulty]
HPDrainRate:5
CircleSize:4
OverallDifficulty:6
ApproachRate:7.3
SliderMultiplier:1.28
SliderTickRate:1

[Events]
//Background and Video events
0,0,"bg.jpg",0,0
Video,-282,"video.avi"
//Break Periods
//Storyboard Layer 0 (Background)
//Storyboard Layer 1 (Fail)
//Storyboard Layer 2 (Pass)
//Storyboard Layer 3 (Foreground)
//Storyboard Sound Samples

[TimingPoints]
3270,379.746835443038,4,2,1,60,1,0
15421,-133.333333333333,4,2,1,40,0,0
27573,-100,4,2,1,50,0,0
39725,-133.333333333333,4,2,1,40,0,0
51497,-80,4,2,1,40,0,0
52257,-100,4,2,1,40,0,0
64029,-86.9565217391304,4,2,1,70,0,1
88333,-86.9565217391304,4,2,1,70,0,0

[Colours]
Combo1 : 0,112,193
Combo2 : 0,130,0
Combo3 : 17,255,255
Combo4 : 206,206,208
Combo5 : 90,220,3

[HitObjects]
164,132,3270,6,0,P|132:140|96:132,2,63.9999999999999,12|0|0,0:0|0:0|0:0,0:0:0:0:
232,96,3839,1,0,0:0:0:0:
256,168,4029,2,0,L|260:332,1,128,8|0,0:0|0:0,0:0:0:0:
240,368,4599,2,0,B|288:380|328:336|328:336|332:280,1,128,8|0,0:0|0:0,0:0:0:0:
336,232,5168,1,8,0:0:0:0:
336,232,5548,2,0,B|360:228|384:252|384:252|336:168,1,128,8|0,0:0|0:0,0:0:0:0:
272,52,6307,5,8,0:0:0:0:
212,100,6497,1,0,0:0:0:0:
280,132,6687,2,0,L|344:132,1,63.9999999999999,0|0,0:0|0:0,0:0:0:0:
400,76,7067,2,0,P|424:136|388:200,1,128,8|0,0:0|0:0,0:0:0:0:
324,208,7637,2,0,B|344:272|404:268|404:268|384:284,1,128,8|0,0:0|0:0,0:0:0:0:
332,332,8206,1,8,0:0:0:0:
476,248,8586,2,0,B|484:268|480:300|480:300|412:356,1,128,8|0,0:0|0:0,0:0:0:0:
400,192,9345,6,0,L|396:112,1,63.9999999999999,12|0,0:0|0:0,0:0:0:0:
324,156,9725,2,0,P|292:164|256:156,1,63.9999999999999,0|0,0:0|0:0,0:0:0:0:
208,104,10105,2,0,B|156:104|132:144|132:144|108:144|84:164,1,128,8|0,0:0|0:0,0:0:0:0:
136,214,10675,2,0,B|175:215|196:177|196:177|204:244,1,128,8|0,0:0|0:0,0:0:0:0:
164,296,11244,1,8,0:0:0:0:
132,144,11624,1,8,0:0:0:0:
266,160,12004,2,0,L|275:223,1,63.9999999999999,0|0,0:0|0:0,0:0:0:0:
288,300,12383,5,8,0:0:0:0:
352,212,12573,1,8,0:0:0:0:
364,288,12763,2,0,B|372:336|372:336|344:372,1,63.9999999999999,0|0,0:0|0:0,0:0:0:0:
288,300,13143,1,8,0:0:0:0:
352,212,13333,2,0,P|392:200|432:208,1,63.9999999999999,0|0,0:0|0:0,0:0:0:0:
492,200,13713,2,0,B|496:156|472:112|472:112|456:144,1,128,8|0,0:0|0:0,0:0:0:0:
452,264,14282,2,0,P|460:304|456:336,1,63.9999999999999,8|0,0:0|0:0,0:0:0:0:
384,352,14662,1,8,0:0:0:0:
308,332,14852,2,0,L|224:336,2,63.9999999999999,0|2|0,0:0|0:3|0:0,0:0:0:0:
384,352,15421,5,4,0:0:0:0:
384,352,15801,1,0,0:0:0:0:
384,352,16181,2,0,L|376:228,1,96.0000036621094,8|2,0:0|0:0,0:0:0:0:
328,172,16940,2,0,P|280:188|216:164,1,96.0000036621094,2|0,0:0|0:0,0:0:0:0:
156,124,17700,2,0,L|44:120,1,96.0000036621094,8|0,0:0|0:0,0:0:0:0:
232,100,18459,6,0,P|252:56|236:0,1,96.0000036621094,2|0,0:0|0:0,0:0:0:0:
156,124,19219,2,0,L|148:200,2,48.0000018310547,8|0|2,0:0|0:0|0:0,0:0:0:0:
72,80,19978,2,0,B|63:151|63:151|40:180,1,96.0000036621094,2|0,0:0|0:0,0:0:0:0:
0,252,20738,2,0,P|44:280|96:268,1,96.0000036621094,10|0,0:0|0:0,0:0:0:0:
160,212,21497,6,0,L|292:232,1,96.0000036621094,2|0,0:0|0:0,0:0:0:0:
348,252,22257,2,0,L|428:244,2,48.0000018310547,8|0|2,0:0|0:0|0:0,0:0:0:0:
320,160,23016,2,0,B|304:116|324:88|324:88|376:96,1,96.0000036621094,2|0,0:0|0:0,0:0:0:0:
440,100,23776,2,0,P|440:72|420:36,1,48.0000018310547,8|0,0:0|0:0,0:0:0:0:
396,24,24156,2,0,L|316:12,1,48.0000018310547,0|0,0:0|0:0,0:0:0:0:
300,16,24535,6,0,P|252:52|236:104,1,96.0000036621094,2|0,0:0|0:0,0:0:0:0:
332,108,25295,2,0,L|352:200,2,48.0000018310547,8|0|2,0:0|0:0|0:0,0:0:0:0:
416,152,26054,2,0,B|428:212|428:212|408:232|380:240,1,96.0000036621094,2|0,0:0|0:0,0:0:0:0:
352,244,26624,1,0,0:0:0:0:
352,244,26814,2,0,P|304:232|240:268,1,96.0000036621094,8|0,0:0|0:0,0:0:0:0:
252,260,27573,6,0,P|216:264|172:260,1,63.9999999999999,4|0,0:0|0:0,0:0:0:0:
88,200,27953,2,0,P|124:196|160:200,1,63.9999999999999,0|0,0:0|0:0,0:0:0:0:
272,180,28333,2,0,P|276:144|272:112,2,63.9999999999999,8|0|2,0:0|0:0|0:0,0:0:0:0:
252,260,28902,1,0,0:0:0:0:
324,284,29092,2,0,P|360:292|416:272,1,63.9999999999999,2|0,0:0|0:0,0:0:0:0:
252,260,29472,2,0,L|240:348,1,63.9999999999999,0|0,0:0|0:0,0:0:0:0:
312,208,29852,2,0,P|336:152|312:80,1,128,8|0,0:0|0:0,0:0:0:0:
248,60,30421,1,0,0:0:0:0:
184,108,30611,6,0,P|152:116|112:104,1,63.9999999999999,2|0,0:0|0:0,0:0:0:0:
248,60,30991,2,0,L|336:44,1,63.9999999999999,0|0,0:0|0:0,0:0:0:0:
256,140,31371,2,0,B|256:184|256:184|200:272,1,128,8|0,0:0|0:0,0:0:0:0:
140,284,31940,1,0,0:0:0:0:
124,176,32130,2,0,P|56:196|80:252,1,128,2|0,0:0|0:0,0:0:0:0:
140,284,32700,1,0,0:0:0:0:
228,240,32890,2,0,L|300:252,2,63.9999999999999,8|0|0,0:0|0:0|0:0,0:0:0:0:
140,284,33459,1,0,0:0:0:0:
240,316,33649,6,0,B|328:332|328:332|372:304,1,128,0|0,0:0|0:0,0:0:0:0:
412,252,34219,1,0,0:0:0:0:
480,312,34409,2,0,P|488:352|472:388,1,63.9999999999999,8|0,0:0|0:0,0:0:0:0:
412,252,34788,2,0,L|408:164,1,63.9999999999999,0|0,0:0|0:0,0:0:0:0:
372,84,35168,2,0,P|332:76|288:92,1,63.9999999999999,2|0,0:0|0:0,0:0:0:0:
440,120,35548,2,0,L|508:112,1,63.9999999999999,0|0,0:0|0:0,0:0:0:0:
376,164,35928,2,0,B|328:192|328:192|296:180|296:180|308:236,1,128,8|0,0:0|0:0,0:0:0:0:
328,292,36497,1,0,0:0:0:0:
224,208,36687,6,0,L|240:288,1,63.9999999999999,2|0,0:0|0:0,0:0:0:0:
248,124,37067,2,0,P|276:108|332:120,1,63.9999999999999,0|0,0:0|0:0,0:0:0:0:
176,148,37447,2,0,P|148:164|92:152,1,63.9999999999999,8|0,0:0|0:0,0:0:0:0:
128,88,37826,2,0,B|156:68|188:72|188:72|204:8,2,128,0|2|2,0:0|0:0|0:0,0:0:0:0:
4,180,38966,2,0,L|24:260,1,63.9999999999999,8|0,0:0|0:0,0:0:0:0:
88,212,39345,2,0,L|144:268,1,63.9999999999999,0|0,0:0|0:0,0:0:0:0:
240,220,39725,6,0,L|368:212,2,96.0000036621094,4|0|2,0:0|0:0|0:0,0:0:0:0:
152,256,40864,1,0,0:0:0:0:
96,140,41244,2,0,L|-32:148,2,96.0000036621094,2|0|2,0:0|0:0|0:0,0:0:0:0:
180,188,42383,1,0,0:0:0:0:
228,68,42763,6,0,B|256:52|256:52|344:44,1,96.0000036621094,0|0,0:0|0:0,0:0:0:0:
344,140,43523,2,0,B|320:120|320:120|280:124|280:124|240:148,1,96.0000036621094,2|0,0:0|0:0,0:0:0:0:
304,224,44282,1,2,0:0:0:0:
304,224,44662,1,0,0:0:0:0:
424,84,45042,1,2,0:0:0:0:
424,84,45421,2,0,P|428:112|424:144,1,48.0000018310547,0|0,0:0|0:0,0:0:0:0:
392,204,45801,6,0,B|380:276|380:276|416:316,1,96.0000036621094,2|0,0:0|0:0,0:0:0:0:
395,293,46371,2,0,L|455:285,1,48.0000018310547,0|2,0:0|0:0,0:0:0:0:
284,216,46940,2,0,L|208:224,2,48.0000018310547,0|0|2,0:0|0:0|0:0,0:0:0:0:
156,128,47700,2,0,B|192:152|192:152|276:144,1,96.0000036621094,0|2,0:0|0:0,0:0:0:0:
300,88,48270,1,0,0:0:0:0:
360,140,48459,2,0,P|368:176|356:208,1,48.0000018310547,0|0,0:0|0:0,0:0:0:0:
436,216,48839,6,0,P|444:160|428:104,1,96.0000036621094,2|0,0:0|0:0,0:0:0:0:
384,64,49409,1,0,0:0:0:0:
384,64,49599,2,0,P|360:60|320:72,1,48.0000018310547,0|2,0:0|0:0,0:0:0:0:
484,64,49978,2,0,L|492:16,1,48.0000018310547,0|0,0:0|0:0,0:0:0:0:
436,124,50358,2,0,P|388:144|336:124,1,96.0000036621094,2|0,0:0|0:0,0:0:0:0:
212,60,51118,2,0,L|132:56,1,48.0000018310547,2|0,0:0|0:0,0:0:0:0:
164,57,51497,6,0,B|136:88|136:88|128:148,1,79.9999999999999,2|0,0:0|0:0,0:0:0:0:
112,204,51877,2,0,B|140:228|172:224|172:224|136:244,1,79.9999999999999,2|0,0:0|0:0,0:0:0:0:
80,296,52257,5,2,0:0:0:0:
228,296,52637,2,0,L|292:224,1,63.9999999999999,8|0,0:0|0:0,0:0:0:0:
244,176,53016,2,0,P|220:156|168:156,1,63.9999999999999,0|0,0:0|0:0,0:0:0:0:
320,192,53396,2,0,B|364:208|404:200|404:200|412:184|392:160,2,128,2|0|8,0:0|0:0|0:0,0:0:0:0:
268,48,54535,1,0,0:0:0:0:
172,168,54915,6,0,P|152:232|164:296,1,128,2|0,0:0|0:0,0:0:0:0:
176,312,55485,1,0,0:0:0:0:
196,328,55675,1,8,0:0:0:0:
220,332,55864,1,0,0:0:0:0:
244,332,56054,1,0,0:0:0:0:
268,324,56244,1,0,0:0:0:0:
336,272,56434,2,0,L|480:256,1,128,2|0,0:0|0:0,0:0:0:0:
472,256,57194,5,8,0:0:0:0:
448,328,57383,1,0,0:0:0:0:
396,192,57573,1,0,0:0:0:0:
468,168,57763,1,0,0:0:0:0:
400,268,57953,6,0,B|352:268|332:228|332:228|336:276,1,128,2|0,0:0|0:0,0:0:0:0:
348,348,58523,1,0,0:0:0:0:
260,216,58713,2,0,B|268:304|268:304|220:360,1,128,8|0,0:0|0:0,0:0:0:0:
168,360,59282,1,0,0:0:0:0:
120,264,59472,2,0,B|120:228|152:176|152:176|176:224,1,128,2|0,0:0|0:0,0:0:0:0:
196,276,60042,1,0,0:0:0:0:
320,264,60232,2,0,P|336:208|292:148,1,128,8|0,0:0|0:0,0:0:0:0:
224,140,60801,1,0,0:0:0:0:
140,180,60991,6,0,L|68:180,2,63.9999999999999,2|0|0,0:0|0:0|0:0,0:0:0:0:
224,140,61561,1,0,0:0:0:0:
304,188,61751,2,0,P|336:192|372:180,2,63.9999999999999,8|0|8,0:0|0:0|0:3,0:0:0:0:
224,140,62320,1,8,0:0:0:0:
224,140,63270,6,0,B|192:156|192:176|192:176|204:188|204:188|192:192|180:188|180:188|184:220|168:248,1,128,8|0,0:0|0:0,0:0:0:0:
152,296,63839,1,0,0:0:0:0:
152,296,64029,6,0,B|216:316|248:252|248:252|244:316,1,147.200002807617,12|0,0:0|0:0,0:0:0:0:
176,224,64599,2,0,B|142:139|142:139|148:72,1,147.200002807617,8|2,0:0|0:0,0:0:0:0:
212,24,65168,1,8,0:0:0:0:
344,120,65358,1,2,0:0:0:0:
268,96,65548,2,0,B|244:88|219:96|219:96|216:132|216:132|240:192,1,147.200002807617,8|0,0:0|0:0,0:0:0:0:
236,264,66118,2,0,B|280:268|304:232|304:232|336:228|396:256,1,147.200002807617,8|0,0:0|0:0,0:0:0:0:
448,284,66687,1,8,0:0:0:0:
452,376,66877,1,8,0:0:0:0:
360,316,67067,6,0,B|340:312|328:308|328:308|316:320|268:336,1,73.6000014038086,8|0,0:0|0:0,0:0:0:0:
192,340,67447,1,0,0:0:0:0:
84,248,67637,2,0,B|148:252|148:252|168:280,1,73.6000014038086,8|0,0:0|0:0,0:0:0:0:
192,340,68016,1,0,0:0:0:0:
256,256,68206,2,0,P|268:216|256:176,1,73.6000014038086,8|0,0:0|0:0,0:0:0:0:
200,72,68586,1,2,0:0:0:0:
200,72,68776,1,8,0:0:0:0:
200,72,68966,2,0,B|224:128|296:120|296:120|292:64,1,147.200002807617,0|8,0:0|0:0,0:0:0:0:
256,12,69535,1,0,0:0:0:0:
152,132,69725,2,0,P|184:168|240:188,1,73.6000014038086,8|0,0:0|0:0,0:0:0:0:
348,172,70105,6,0,P|392:184|344:240,1,147.200002807617,12|0,0:0|0:0,0:0:0:0:
276,192,70675,1,8,0:0:0:0:
276,192,70864,2,0,B|276:204|280:220|280:220|268:264|300:296|300:296|268:288|268:288|240:268,1,147.200002807617,2|8,0:0|0:0,0:0:0:0:
184,256,71434,1,0,0:0:0:0:
244,356,71624,2,0,B|308:372|308:372|364:360|376:304,1,147.200002807617,2|0,0:0|0:0,0:0:0:0:
348,243,72194,1,8,0:0:0:0:
412,184,72383,2,0,B|462:176|462:176|440:168,1,73.6000014038086,0|0,0:0|0:0,0:0:0:0:
336,136,72763,1,8,0:0:0:0:
348,244,72953,1,8,0:0:0:0:
464,252,73143,6,0,B|496:248|496:248|520:320|460:344,1,147.200002807617,8|0,0:0|0:0,0:0:0:0:
368,320,73713,2,0,B|328:328|296:304|296:304|228:324|304:348,1,147.200002807617,8|0,0:0|0:0,0:0:0:0:
348,244,74282,1,8,0:0:0:0:
260,228,74472,2,0,P|220:244|176:296,1,73.6000014038086,0|0,0:0|0:0,0:0:0:0:
152,340,74852,1,8,0:0:0:0:
52,272,75042,2,0,B|0:220|48:168|48:168|88:176,1,147.200002807617,2|8,0:0|0:0,0:0:0:0:
152,220,75611,1,8,0:0:0:0:
152,220,75706,1,8,0:0:0:0:
152,220,75801,2,0,L|176:184,3,36.8000007019043,8|8|8|8,0:0|0:0|0:0|0:0,0:0:0:0:
196,168,76181,6,0,B|232:148|236:112|236:112|280:120|280:120|284:168,1,147.200002807617,12|8,0:0|0:0,0:0:0:0:
224,240,76751,2,0,B|244:228|256:216|256:216|289:231|344:220|356:152,1,147.200002807617,2|0,0:0|0:0,0:0:0:0:
384,100,77320,1,0,0:0:0:0:
308,52,77510,2,0,B|208:36|208:36|176:56|168:96,1,147.200002807617,8|0,0:0|0:0,0:0:0:0:
196,168,78080,2,0,P|216:208|204:268,1,73.6000014038086,8|0,0:0|0:0,0:0:0:0:
120,136,78459,2,0,L|104:56,1,73.6000014038086,2|0,0:0|0:0,0:0:0:0:
80,208,78839,1,2,0:0:0:0:
140,276,79029,1,8,0:0:0:0:
196,168,79219,6,0,B|224:140|224:140|288:140|312:204,1,147.200002807617,2|8,0:0|0:0,0:0:0:0:
304,284,79788,1,0,0:0:0:0:
304,284,79978,2,0,P|348:276|392:228,1,73.6000014038086,0|0,0:0|0:0,0:0:0:0:
224,248,80358,1,8,0:0:0:0:
136,192,80548,2,0,B|96:160|120:84|120:84|168:116,1,147.200002807617,2|0,0:0|0:0,0:0:0:0:
232,128,81118,2,0,L|328:108,1,73.6000014038086,8|0,0:0|0:0,0:0:0:0:
388,84,81497,5,2,0:0:0:0:
312,36,81687,1,0,0:0:0:0:
316,192,81877,1,8,0:0:0:0:
256,256,82067,1,0,0:0:0:0:
372,276,82257,6,0,P|436:228|376:204,1,147.200002807617,4|8,0:0|0:0,0:0:0:0:
316,192,82826,1,0,0:0:0:0:
192,212,83016,2,0,B|160:216|148:200|148:200|144:192|136:176|136:176|120:192|116:200|116:200|96:192|96:192|60:200,1,147.200002807617,2|0,0:0|0:0,0:0:0:0:
4,244,83586,1,8,0:0:0:0:
88,122,83776,2,0,B|132:88|184:108|200:144|200:144|216:116,1,147.200002807617,2|8,0:0|0:0,0:0:0:0:
212,44,84345,1,0,0:0:0:0:
136,176,84535,2,0,B|104:232|156:276|156:276|208:256,1,147.200002807617,2|0,0:0|0:0,0:0:0:0:
244,196,85105,1,8,0:0:0:0:
356,120,85295,6,0,L|440:112,2,73.6000014038086,4|0|8,0:0|0:0|0:0,0:0:0:0:
396,220,85864,2,0,L|472:256,2,73.6000014038086,2|0|0,0:0|0:0|0:0,0:0:0:0:
288,280,86434,2,0,B|192:292|192:292|144:264,1,147.200002807617,8|0,0:0|0:0,0:0:0:0:
84,204,87004,1,0,0:0:0:0:
40,304,87194,2,0,P|40:344|64:376,1,73.6000014038086,8|0,0:0|0:0,0:0:0:0:
84,204,87573,2,0,L|72:156,2,36.8000007019043,8|8|8,0:0|0:0|0:0,0:0:0:0:
172,248,87953,2,0,L|264:208,1,73.6000014038086,12|0,0:0|0:0,0:0:0:0:
