osu file format v14

[General]
AudioFilename: SawamoHiroyuki[nZk]mizuki - &z.mp3
AudioLeadIn: 0
PreviewTime: 63506
Countdown: 0
SampleSet: None
StackLeniency: 0.7
Mode: 3
LetterboxInBreaks: 0
SpecialStyle: 0
WidescreenStoryboard: 1

[Editor]
Bookmarks: 1085
DistanceSpacing: 0.7
BeatDivisor: 4
GridSize: 4
TimelineZoom: 1.9

[Metadata]
Title:&Z (TV Size)
TitleUnicode:&Z (TV Size)
Artist:SawanoHiroyuki[nZk]:mizuki
ArtistUnicode:SawanoHiroyuki[nZk]:mizuki
Creator:MuhammadRaihan
Version:4K Normal
Source:Aldnoah.Zero
Tags:aldnoah.zero 2 opening 澤野弘之 Sawano Hiroyuki アルドノア・ゼロ
BeatmapID:661918
BeatmapSetID:294414

[Difficulty]
HPDrainRate:7
CircleSize:4
OverallDifficulty:7
ApproachRate:5
SliderMultiplier:1.4
SliderTickRate:1

[Events]
//Background and Video events
0,0,"aldnoah_zero_slaine_troyard_by_akw_art_design-d7vozjv.jpg",0,0
//Break Periods
//Storyboard Layer 0 (Background)
//Storyboard Layer 1 (Fail)
//Storyboard Layer 2 (Pass)
//Storyboard Layer 3 (Foreground)
//Storyboard Sound Samples

[TimingPoints]
3555,379.746835443038,4,3,1,50,1,0
64314,-100,4,3,1,50,0,1
88238,-100,4,3,1,50,0,0

[HitObjects]
64,192,3555,5,8,0:0:0:20:
448,192,3555,1,8,0:0:0:20:
320,192,3744,1,4,0:0:0:40:
64,192,3934,1,4,0:0:0:40:
448,192,4124,1,4,0:0:0:40:
64,192,4314,1,8,0:0:0:20:
192,192,4314,1,8,0:0:0:20:
448,192,4504,1,4,0:0:0:40:
64,192,4694,1,4,0:0:0:40:
320,192,4884,1,8,0:0:0:20:
448,192,4884,1,8,0:0:0:20:
192,192,5073,1,4,0:0:0:40:
320,192,5263,1,4,0:0:0:40:
64,192,5453,1,8,0:0:0:20:
192,192,5453,1,8,0:0:0:20:
320,192,5643,1,4,0:0:0:40:
192,192,5833,1,8,0:0:0:20:
448,192,5833,1,8,0:0:0:20:
64,192,6213,128,4,6592:0:0:0:20:
320,192,6213,1,4,0:0:0:20:
448,192,6592,1,8,0:0:0:20:
320,192,6592,1,8,0:0:0:20:
192,192,6782,1,8,0:0:0:40:
64,192,6972,1,4,0:0:0:40:
448,192,7162,1,4,0:0:0:40:
64,192,7352,1,8,0:0:0:20:
192,192,7352,1,8,0:0:0:20:
448,192,7542,1,4,0:0:0:40:
192,192,7732,1,4,0:0:0:40:
320,192,7922,1,8,0:0:0:20:
448,192,7922,1,8,0:0:0:20:
320,192,8111,128,4,8491:0:0:0:20:
64,192,8111,1,4,0:0:0:20:
64,192,8491,1,8,0:0:0:20:
448,192,8491,1,8,0:0:0:20:
192,192,8681,1,4,0:0:0:40:
64,192,8871,1,8,0:0:0:20:
448,192,8871,1,8,0:0:0:20:
192,192,9251,1,4,0:0:0:20:
448,192,9251,128,4,9630:0:0:0:20:
64,192,9630,1,8,0:0:0:20:
192,192,9630,1,8,0:0:0:20:
320,192,9820,1,8,0:0:0:40:
448,192,10010,1,4,0:0:0:40:
64,192,10200,1,4,0:0:0:40:
320,192,10390,1,8,0:0:0:20:
448,192,10390,1,8,0:0:0:20:
192,192,10580,1,4,0:0:0:40:
320,192,10770,1,4,0:0:0:40:
192,192,10960,1,8,0:0:0:20:
64,192,10960,1,8,0:0:0:20:
448,192,11149,1,4,0:0:0:40:
192,192,11339,1,4,0:0:0:40:
64,192,11529,1,8,0:0:0:20:
320,192,11529,1,8,0:0:0:20:
192,192,11719,1,4,0:0:0:40:
64,192,11909,1,8,0:0:0:20:
448,192,11909,1,8,0:0:0:20:
448,192,12289,1,4,0:0:0:20:
192,192,12289,128,4,12668:0:0:0:20:
64,192,12668,1,8,0:0:0:20:
448,192,12668,1,8,0:0:0:20:
448,192,12858,1,8,0:0:0:40:
192,192,13048,1,4,0:0:0:40:
448,192,13238,1,4,0:0:0:40:
64,192,13428,1,8,0:0:0:20:
192,192,13428,1,8,0:0:0:20:
448,192,13618,1,4,0:0:0:40:
320,192,13808,1,4,0:0:0:40:
64,192,13998,1,8,0:0:0:20:
192,192,13998,1,8,0:0:0:20:
448,192,14187,128,4,14567:0:0:0:40:
64,192,14567,1,8,0:0:0:20:
192,192,14567,1,8,0:0:0:20:
320,192,14757,1,4,0:0:0:40:
192,192,14947,1,8,0:0:0:20:
448,192,14947,1,8,0:0:0:20:
320,192,15327,1,4,0:0:0:20:
64,192,15327,128,2,15706:0:0:0:20:
448,192,15706,1,4,0:0:0:40:
320,192,16086,1,4,0:0:0:20:
64,192,16086,128,4,16466:0:0:0:20:
448,192,16466,1,8,0:0:0:20:
320,192,16466,1,8,0:0:0:20:
192,192,16656,1,4,0:0:0:40:
192,192,16846,1,4,0:0:0:40:
320,192,17225,1,4,0:0:0:40:
192,192,17415,1,4,0:0:0:40:
448,192,17605,1,4,0:0:0:40:
64,192,17795,1,4,0:0:0:40:
448,192,17985,1,8,0:0:0:20:
320,192,17985,1,8,0:0:0:20:
192,192,18175,1,4,0:0:0:40:
448,192,18365,128,4,18744:0:0:0:40:
192,192,18744,1,4,0:0:0:20:
64,192,18744,128,0,19124:0:0:0:20:
448,192,19124,128,0,19504:0:0:0:20:
320,192,19124,1,4,0:0:0:20:
64,192,19504,1,8,0:0:0:20:
192,192,19504,1,8,0:0:0:20:
320,192,19694,1,4,0:0:0:40:
320,192,19884,1,4,0:0:0:40:
320,192,20263,1,4,0:0:0:40:
64,192,20453,1,4,0:0:0:40:
192,192,20643,1,4,0:0:0:20:
448,192,20643,128,4,21023:0:0:0:20:
64,192,21023,1,8,0:0:0:20:
192,192,21023,1,8,0:0:0:20:
320,192,21213,1,4,0:0:0:40:
64,192,21403,128,4,21782:0:0:0:20:
448,192,21403,1,4,0:0:0:20:
448,192,21782,1,4,0:0:0:40:
320,192,22162,128,0,22542:0:0:0:20:
448,192,22162,1,4,0:0:0:20:
64,192,22542,1,8,0:0:0:20:
192,192,22542,1,8,0:0:0:20:
448,192,22732,1,4,0:0:0:40:
448,192,22922,1,4,0:0:0:40:
448,192,23301,1,4,0:0:0:20:
192,192,23301,128,0,23681:0:0:0:20:
64,192,23681,1,4,0:0:0:20:
448,192,23681,128,0,24061:0:0:0:20:
192,192,24061,1,8,0:0:0:20:
64,192,24061,1,8,0:0:0:20:
320,192,24251,1,4,0:0:0:40:
448,192,24441,1,4,0:0:0:40:
192,192,24630,1,4,0:0:0:40:
64,192,24820,128,0,25200:0:0:0:20:
448,192,24820,1,4,0:0:0:20:
320,192,25200,128,0,25580:0:0:0:20:
448,192,25200,1,4,0:0:0:20:
64,192,25580,1,8,0:0:0:20:
192,192,25580,1,8,0:0:0:20:
448,192,25770,1,4,0:0:0:40:
448,192,25960,1,4,0:0:0:40:
64,192,26339,128,0,26719:0:0:0:20:
320,192,26339,1,4,0:0:0:20:
320,192,26719,1,4,0:0:0:40:
448,192,26909,1,4,0:0:0:40:
64,192,27099,1,8,0:0:0:20:
192,192,27099,1,8,0:0:0:20:
192,192,27479,1,4,0:0:0:20:
320,192,27479,128,4,27858:0:0:0:20:
64,192,27858,1,4,2:0:0:20:
448,192,27858,1,4,2:0:0:20:
192,192,28048,1,4,0:0:0:40:
64,192,28238,1,4,0:0:0:40:
448,192,28428,1,4,0:0:0:40:
192,192,28618,1,8,0:0:0:20:
64,192,28618,1,8,0:0:0:20:
320,192,28808,1,4,0:0:0:40:
320,192,28998,1,4,0:0:0:40:
64,192,29377,1,4,0:0:0:40:
448,192,29567,1,4,0:0:0:40:
192,192,29757,1,4,0:0:0:40:
448,192,29947,1,4,0:0:0:40:
64,192,30137,1,8,0:0:0:20:
192,192,30137,1,8,0:0:0:20:
320,192,30327,1,4,0:0:0:40:
448,192,30517,1,4,0:0:0:20:
64,192,30517,128,0,30896:0:0:0:20:
448,192,30896,128,0,31276:0:0:0:20:
192,192,30896,1,4,0:0:0:20:
64,192,31276,1,4,0:0:0:20:
320,192,31276,128,0,31656:0:0:0:20:
192,192,31656,1,8,0:0:0:20:
64,192,31656,1,8,0:0:0:20:
448,192,31846,1,4,0:0:0:40:
448,192,32036,1,4,0:0:0:40:
64,192,32415,1,4,0:0:0:20:
320,192,32415,128,0,32795:0:0:0:20:
64,192,32795,1,4,0:0:0:20:
448,192,32795,128,0,33175:0:0:0:20:
192,192,33175,1,8,0:0:0:20:
64,192,33175,1,8,0:0:0:20:
320,192,33365,1,4,0:0:0:40:
64,192,33555,128,0,33934:0:0:0:40:
320,192,33934,1,4,0:0:0:40:
448,192,34314,128,0,34694:0:0:0:20:
192,192,34314,1,4,0:0:0:20:
192,192,34694,1,8,0:0:0:20:
64,192,34694,1,8,0:0:0:20:
448,192,35073,1,4,0:0:0:20:
320,192,35073,128,0,35453:0:0:0:20:
64,192,35453,1,4,0:0:0:40:
64,192,35833,128,4,36213:0:0:0:40:
320,192,36213,1,0,0:0:0:20:
448,192,36213,1,8,0:0:0:20:
64,192,36592,1,4,0:0:0:20:
448,192,36592,128,4,36972:0:0:0:20:
192,192,36972,1,4,0:0:0:40:
448,192,37352,1,4,0:0:0:40:
320,192,37542,1,4,0:0:0:40:
64,192,37732,1,8,0:0:0:20:
192,192,37732,1,8,0:0:0:20:
448,192,37922,1,4,0:0:0:40:
192,192,38111,128,0,38491:0:0:0:20:
64,192,38111,1,4,0:0:0:20:
448,192,38491,1,4,0:0:0:40:
320,192,38681,1,4,0:0:0:40:
192,192,38871,1,4,0:0:0:40:
320,192,39061,1,4,0:0:0:40:
192,192,39251,1,8,0:0:0:20:
64,192,39251,1,8,0:0:0:20:
320,192,39630,1,4,0:0:0:40:
448,192,40010,1,4,2:0:0:20:
64,192,40010,1,4,2:0:0:20:
64,192,40390,1,4,0:0:0:40:
192,192,40770,1,4,0:0:0:40:
192,192,41149,1,4,0:0:0:40:
320,192,41529,1,4,0:0:0:40:
320,192,41909,1,4,0:0:0:40:
448,192,42289,1,4,0:0:0:40:
448,192,42668,1,4,0:0:0:20:
192,192,42668,128,4,43048:0:0:0:20:
64,192,43048,1,4,0:0:0:40:
192,192,43428,1,4,0:0:0:40:
320,192,43808,1,4,0:0:0:40:
448,192,44187,1,4,0:0:0:40:
320,192,44567,1,4,0:0:0:40:
192,192,44947,1,4,0:0:0:40:
192,192,45327,1,4,0:0:0:40:
448,192,45706,1,4,0:0:0:40:
192,192,45896,1,4,0:0:0:40:
64,192,46086,1,4,0:0:0:40:
320,192,46466,1,4,0:0:0:40:
320,192,46846,1,4,0:0:0:40:
192,192,47225,1,4,0:0:0:40:
192,192,47605,1,4,0:0:0:40:
320,192,47985,1,4,0:0:0:40:
64,192,48365,1,4,0:0:0:40:
448,192,48744,128,4,49124:0:0:0:20:
64,192,48744,1,4,0:0:0:20:
64,192,49124,128,0,50643:0:0:0:20:
192,192,49124,1,4,0:0:0:20:
320,192,49504,1,4,0:0:0:40:
448,192,49884,1,4,0:0:0:40:
320,192,50263,1,4,0:0:0:40:
192,192,50643,1,4,0:0:0:40:
320,192,50833,1,4,0:0:0:40:
192,192,51023,1,4,0:0:0:40:
320,192,51403,1,4,0:0:0:40:
192,192,51592,1,4,0:0:0:40:
64,192,51782,128,0,52162:0:0:0:20:
320,192,51782,1,4,0:0:0:20:
448,192,52162,1,4,0:0:0:40:
192,192,52542,1,4,0:0:0:40:
448,192,52732,1,4,0:0:0:40:
64,192,52922,1,8,0:0:0:20:
192,192,52922,1,8,0:0:0:20:
448,192,53111,1,4,0:0:0:40:
64,192,53301,1,4,0:0:0:40:
192,192,53491,1,4,0:0:0:40:
448,192,53681,1,4,0:0:0:20:
64,192,53681,128,0,54441:0:0:0:20:
320,192,54061,1,4,0:0:0:40:
320,192,54441,1,8,0:0:0:20:
448,192,54441,1,8,0:0:0:20:
64,192,54820,1,4,0:0:0:20:
320,192,54820,128,4,55200:0:0:0:20:
448,192,55200,1,4,0:0:0:20:
192,192,55200,128,4,55580:0:0:0:20:
448,192,55580,1,4,0:0:0:40:
64,192,55770,1,4,0:0:0:40:
448,192,55960,1,8,0:0:0:20:
320,192,55960,1,8,0:0:0:20:
192,192,56149,1,4,0:0:0:40:
320,192,56339,1,4,0:0:0:40:
64,192,56529,1,4,0:0:0:40:
320,192,56719,128,0,57099:0:0:0:20:
448,192,56719,1,4,0:0:0:20:
64,192,57099,128,0,57479:0:0:0:20:
192,192,57099,1,4,0:0:0:20:
320,192,57479,1,8,0:0:0:20:
448,192,57479,1,8,0:0:0:20:
192,192,57668,1,4,0:0:0:40:
64,192,57858,1,4,0:0:0:40:
64,192,58238,1,4,0:0:0:20:
448,192,58238,128,0,58998:0:0:0:20:
192,192,58618,1,4,0:0:0:40:
192,192,58998,1,8,0:0:0:20:
64,192,58998,1,8,0:0:0:20:
320,192,59377,1,4,0:0:0:40:
448,192,59757,1,4,0:0:0:20:
64,192,59757,128,0,60517:0:0:0:20:
320,192,60137,1,4,0:0:0:40:
320,192,60517,1,8,0:0:0:20:
448,192,60517,1,8,0:0:0:20:
448,192,60896,1,4,0:0:0:20:
192,192,60896,128,0,61276:0:0:0:20:
448,192,61276,1,4,0:0:0:40:
64,192,61466,1,4,0:0:0:40:
320,192,61656,1,4,0:0:0:40:
192,192,61846,1,4,0:0:0:40:
448,192,62036,1,8,0:0:0:20:
320,192,62036,1,8,0:0:0:20:
192,192,62225,1,4,0:0:0:40:
64,192,62415,1,4,0:0:0:40:
320,192,62605,1,8,0:0:0:20:
448,192,62605,1,8,0:0:0:20:
192,192,63555,1,8,0:0:0:20:
448,192,63555,1,8,0:0:0:20:
64,192,63934,1,8,0:0:0:20:
320,192,63934,1,8,0:0:0:20:
448,192,64314,1,4,2:0:0:30:
64,192,64314,1,4,2:0:0:30:
320,192,64504,1,4,0:0:0:60:
192,192,64694,1,4,0:0:0:60:
448,192,64884,1,8,0:0:0:30:
320,192,64884,1,8,0:0:0:30:
64,192,65263,1,8,0:0:0:30:
192,192,65263,1,8,0:0:0:30:
448,192,65453,1,4,0:0:0:60:
64,192,65643,1,8,0:0:0:30:
192,192,65643,1,8,0:0:0:30:
320,192,65833,1,4,0:0:0:60:
192,192,66023,1,4,0:0:0:60:
64,192,66213,1,4,0:0:0:60:
320,192,66403,1,8,0:0:0:30:
448,192,66403,1,8,0:0:0:30:
64,192,66592,1,4,0:0:0:60:
192,192,66782,1,4,0:0:0:60:
64,192,66972,1,8,0:0:0:30:
448,192,66972,1,8,0:0:0:30:
448,192,67162,1,8,0:0:0:60:
64,192,67352,128,4,67732:0:0:0:30:
320,192,67352,1,4,0:0:0:30:
448,192,67732,1,4,0:0:0:60:
192,192,67922,1,8,0:0:0:30:
64,192,67922,1,8,0:0:0:30:
448,192,68111,1,4,0:0:0:60:
320,192,68301,1,4,0:0:0:60:
64,192,68491,1,8,0:0:0:30:
192,192,68491,1,8,0:0:0:30:
448,192,68871,1,4,0:0:0:60:
192,192,69061,1,8,0:0:0:30:
64,192,69061,1,8,0:0:0:30:
448,192,69251,1,4,0:0:0:60:
320,192,69441,1,4,0:0:0:60:
192,192,69630,1,8,0:0:0:30:
64,192,69630,1,8,0:0:0:30:
320,192,70010,1,8,0:0:0:30:
448,192,70010,1,8,0:0:0:30:
64,192,70390,1,4,2:0:0:30:
448,192,70390,128,4,71529:2:0:0:30:
320,192,70580,1,4,0:0:0:60:
64,192,70770,1,4,0:0:0:60:
192,192,70960,1,4,0:0:0:60:
64,192,71149,1,4,0:0:0:60:
320,192,71339,1,4,0:0:0:60:
192,192,71529,1,8,0:0:0:30:
64,192,71529,1,8,0:0:0:30:
320,192,71719,1,4,0:0:0:60:
448,192,71909,1,4,0:0:0:60:
320,192,72099,1,4,0:0:0:60:
192,192,72289,1,4,0:0:0:60:
320,192,72479,1,4,0:0:0:60:
64,192,72668,1,4,0:0:0:60:
320,192,72858,1,4,0:0:0:60:
192,192,73048,1,4,0:0:0:60:
64,192,73238,1,8,0:0:0:30:
448,192,73238,1,8,0:0:0:30:
192,192,73428,128,0,73808:0:0:0:30:
320,192,73428,1,4,0:0:0:30:
64,192,73808,1,4,0:0:0:60:
448,192,73998,1,8,0:0:0:30:
320,192,73998,1,8,0:0:0:30:
192,192,74187,1,4,0:0:0:60:
64,192,74377,1,4,0:0:0:60:
448,192,74567,1,8,0:0:0:30:
192,192,74567,1,8,0:0:0:30:
64,192,74757,1,4,0:0:0:60:
320,192,74947,1,4,0:0:0:60:
448,192,75137,1,8,0:0:0:30:
192,192,75137,1,8,0:0:0:30:
64,192,75327,1,4,0:0:0:60:
64,192,75706,1,12,0:0:0:60:
448,192,75801,1,12,0:0:0:60:
64,192,75896,1,12,0:0:0:60:
448,192,75991,1,12,0:0:0:60:
192,192,76086,1,12,0:0:0:60:
320,192,76181,1,12,0:0:0:60:
192,192,76276,1,12,0:0:0:60:
320,192,76371,1,12,0:0:0:60:
64,192,76466,128,4,76846:2:0:0:30:
448,192,76466,1,4,2:0:0:30:
448,192,76846,1,8,0:0:0:30:
320,192,76846,1,8,0:0:0:30:
192,192,77225,1,4,0:0:0:60:
320,192,77415,1,4,0:0:0:60:
448,192,77605,1,4,0:0:0:60:
192,192,77795,1,8,0:0:0:30:
64,192,77795,1,8,0:0:0:30:
448,192,77985,1,4,0:0:0:60:
192,192,78175,1,4,0:0:0:60:
64,192,78365,1,8,0:0:0:30:
320,192,78365,1,8,0:0:0:30:
64,192,78744,128,0,79124:0:0:0:30:
448,192,78744,1,4,0:0:0:30:
448,192,79124,1,4,0:0:0:60:
64,192,79314,1,8,0:0:0:30:
192,192,79314,1,8,0:0:0:30:
448,192,79504,1,4,0:0:0:60:
320,192,79884,1,8,0:0:0:30:
64,192,79884,1,8,0:0:0:30:
64,192,80263,1,4,0:0:0:60:
192,192,80453,1,4,0:0:0:60:
448,192,80643,1,8,0:0:0:30:
320,192,80643,1,8,0:0:0:30:
192,192,80833,1,4,0:0:0:60:
320,192,81023,1,4,0:0:0:60:
192,192,81213,1,4,0:0:0:60:
64,192,81403,1,8,0:0:0:30:
448,192,81403,1,8,0:0:0:30:
192,192,81782,1,4,0:0:0:60:
320,192,81972,1,4,0:0:0:60:
64,192,82162,1,8,0:0:0:30:
192,192,82162,1,8,0:0:0:30:
320,192,82352,1,4,0:0:0:60:
64,192,82542,128,0,82922:0:0:0:30:
448,192,82542,1,4,2:0:0:30:
320,192,82922,1,8,0:0:0:30:
448,192,82922,1,8,0:0:0:30:
192,192,83301,1,4,0:0:0:60:
64,192,83491,1,4,0:0:0:60:
448,192,83681,1,8,0:0:0:30:
192,192,83681,1,8,0:0:0:30:
192,192,83871,1,8,0:0:0:60:
64,192,84061,1,4,0:0:0:30:
448,192,84061,128,4,84441:0:0:0:30:
192,192,84441,1,8,0:0:0:30:
64,192,84441,1,8,0:0:0:30:
64,192,84820,1,4,0:0:0:60:
192,192,85010,1,4,0:0:0:60:
320,192,85200,1,8,0:0:0:30:
448,192,85200,1,8,0:0:0:30:
192,192,85390,1,4,0:0:0:60:
448,192,85580,128,0,85960:2:0:0:30:
64,192,85580,1,4,2:0:0:30:
192,192,85960,1,8,0:0:0:30:
64,192,85960,1,8,0:0:0:30:
320,192,86149,1,4,0:0:0:60:
192,192,86339,1,4,0:0:0:60:
448,192,86529,1,4,0:0:0:60:
64,192,86719,1,8,0:0:0:30:
192,192,86719,1,8,0:0:0:30:
448,192,86909,1,4,0:0:0:60:
320,192,87099,1,4,0:0:0:60:
64,192,87289,1,4,0:0:0:60:
448,192,87479,1,8,0:0:0:30:
320,192,87479,1,8,0:0:0:30:
320,192,87858,1,12,0:0:0:60:
192,192,87953,1,12,0:0:0:60:
320,192,88048,1,12,0:0:0:60:
192,192,88143,1,12,0:0:0:60:
448,192,88238,1,12,0:0:0:60:
64,192,88333,1,12,0:0:0:0:
