osu file format v14

[General]
AudioFilename: &Z.mp3
AudioLeadIn: 0
PreviewTime: 63599
Countdown: 0
SampleSet: Soft
StackLeniency: 0.7
Mode: 0
LetterboxInBreaks: 1
WidescreenStoryboard: 1

[Editor]
Bookmarks: 3613,9688,16144,27916,40068,52220,68929,76524,82600
DistanceSpacing: 1.2
BeatDivisor: 4
GridSize: 4
TimelineZoom: 1.5

[Metadata]
Title:&Z
TitleUnicode:&Z
Artist:SawanoHiroyuki[nZk]:mizuki
ArtistUnicode:SawanoHiroyuki[nZk]:mizuki
Creator:Lasoki
Version:Normal
Source:Aldnoah.Zero
Tags:opening op s2 season 2 アルドノア・ゼロ Aldnoah Zero
BeatmapID:762381
BeatmapSetID:345190

[Difficulty]
HPDrainRate:3
CircleSize:2.5
OverallDifficulty:3
ApproachRate:4
SliderMultiplier:1.1
SliderTickRate:1

[Events]
//Background and Video events
Video,0,"&Z.avi"
0,0,"36ea8d9d.jpg",0,0
//Break Periods
//Storyboard Layer 0 (Background)
//Storyboard Layer 1 (Fail)
//Storyboard Layer 2 (Pass)
//Storyboard Layer 3 (Foreground)
//Storyboard Sound Samples

[TimingPoints]
3599,379.746835443038,4,2,2,100,1,0
5212,-100,4,2,3,100,0,0
5402,-100,4,2,2,100,0,0
8250,-100,4,2,3,100,0,0
8440,-100,4,2,2,100,0,0
9200,-100,4,2,1,100,0,0
9390,-100,4,2,2,100,0,0
16130,-100,4,2,1,65,0,0
27902,-100,4,2,1,70,0,0
29421,-100,4,2,1,65,0,0
40054,-100,4,2,1,70,0,0
41573,-100,4,2,1,65,0,0
64358,-100,4,2,2,100,0,1
88662,-100,4,2,1,5,0,0

[Colours]
Combo1 : 116,252,177
Combo2 : 82,176,254
Combo3 : 139,254,126
Combo4 : 247,238,134

[HitObjects]
40,192,3599,6,0,L|84:152,1,55,8|8,0:0|0:0,0:0:0:0:
128,108,3978,2,0,L|172:68,2,55,2|2|8,0:0|0:0|0:0,0:0:0:0:
204,216,4738,1,2,0:0:0:0:
268,220,4928,2,8,P|340:248|388:336,1,165
256,352,5877,2,0,L|192:340,1,55,8|2,0:0|0:0,0:0:0:0:
84,256,6447,2,0,L|84:192,1,55,2|8,0:0|0:0,0:0:0:0:
88,136,6826,6,0,L|48:96,2,55,8|2|2,0:0|0:0|0:0,0:0:0:0:
144,172,7396,2,0,P|196:184|272:176,1,110,8|2,0:0|0:0,0:0:0:0:
308,144,7966,2,0,P|364:184|420:280,1,165,8|8,0:0|0:0,0:0:0:0:
328,364,8915,1,8,0:0:0:0:
328,364,9295,1,2,0:0:0:0:
196,364,9674,6,0,L|140:348,1,55,12|8,0:0|0:0,0:0:0:0:
92,308,10054,2,0,L|56:252,2,55,2|2|8,0:0|0:0|0:0,0:0:0:0:
204,236,10814,1,2,0:0:0:0:
268,256,11004,2,0,P|328:264|380:244,1,110,8|2,0:0|0:0,0:0:0:0:
440,248,11573,2,0,P|458:196|452:142,1,110,8|8,0:0|0:0,0:0:0:0:
256,124,12523,1,2,0:0:0:0:
224,184,12712,6,0,L|200:244,1,55,8|8,0:0|0:0,0:0:0:0:
180,296,13092,2,0,L|180:360,2,55,2|2|8,0:0|0:0|0:0,0:0:0:0:
92,196,13852,1,2,0:0:0:0:
84,132,14042,2,0,P|135:113|189:115,1,110,8|2,0:0|0:0,0:0:0:0:
256,124,14611,1,8,0:0:0:0:
248,188,14801,2,0,P|220:204|176:204,1,55,0|10,0:0|0:0,0:0:0:0:
112,308,15371,1,0,0:0:0:0:
240,340,15750,5,4,0:0:0:0:
372,324,16130,2,0,P|440:296|468:256,1,110,0|8,0:0|0:0,0:0:0:0:
488,208,16700,2,0,L|488:144,1,55,0|2,0:0|0:0,0:0:0:0:
412,44,17269,2,0,P|372:84|360:152,1,110
368,268,18029,1,8,0:0:0:0:
292,376,18409,2,0,P|252:336|240:268,1,110,0|2,0:0|0:0,0:0:0:0:
244,152,19168,5,0,0:0:0:0:
124,92,19548,2,0,L|64:64,2,55,8|0|0,0:0|0:0|0:0,0:0:0:0:
244,152,20307,1,2,0:0:0:0:
132,216,20687,2,0,P|92:256|76:312,1,110,0|8,0:0|0:0,0:0:0:0:
208,328,21447,2,0,P|248:288|264:232,1,110,0|2,0:0|0:0,0:0:0:0:
268,104,22206,5,0,0:0:0:0:
400,104,22586,2,0,L|472:104,2,55,8|0|0,0:0|0:0|0:0,0:0:0:0:
312,204,23345,2,0,P|296:284|308:320,1,110,2|0,0:0|0:0,0:0:0:0:
428,268,24105,2,0,P|436:321|419:373,1,110,8|0,0:0|0:0,0:0:0:0:
304,308,24864,5,2,0:0:0:0:
184,360,25244,2,0,P|172:316|196:240,1,110,0|8,0:0|0:0,0:0:0:0:
212,192,25814,2,0,L|212:116,1,55
332,84,26383,2,0,P|344:128|320:204,1,110,2|0,0:0|0:0,0:0:0:0:
304,252,26953,2,0,L|304:328,1,55,0|8,0:0|0:0,0:0:0:0:
432,276,27523,1,0,0:0:0:0:
432,144,27902,6,0,P|420:96|320:40,1,165,6|0,0:0|0:0,0:0:0:0:
260,44,28662,1,8,0:0:0:0:
196,64,28852,2,0,L|132:104,1,55,0|2,0:0|0:0,0:0:0:0:
84,208,29421,2,0,L|92:264,1,55,2|0,0:0|0:0,0:0:0:0:
112,328,29801,2,0,P|160:352|224:340,1,110,0|8,0:0|0:0,0:0:0:0:
184,216,30561,2,0,L|188:156,1,55
192,96,30940,6,0,P|239:57|353:91,1,165,2|0,0:0|0:0,0:0:0:0:
388,112,31700,1,8,0:0:0:0:
416,172,31890,2,0,L|424:232,1,55
336,324,32459,2,0,P|272:336|208:332,1,110,2|0,0:0|0:0,0:0:0:0:
100,296,33219,1,8,0:0:0:0:
216,232,33599,2,0,P|280:220|344:224,1,110,0|2,0:0|0:0,0:0:0:0:
448,268,34358,5,0,0:0:0:0:
444,136,34738,2,0,L|444:64,2,55,8|0|0,0:0|0:0|0:0,0:0:0:0:
448,268,35497,2,0,P|368:320|352:320,2,110,2|0|8,0:0|0:0|0:0,0:0:0:0:
344,188,36636,1,0,0:0:0:0:
236,108,37016,6,0,P|316:56|332:56,1,110,2|0,0:0|0:0,0:0:0:0:
456,88,37776,2,0,L|500:44,2,55,8|0|0,0:0|0:0|0:0,0:0:0:0:
360,176,38535,2,0,L|268:252,1,110,2|0,0:0|0:0,0:0:0:0:
176,332,39295,1,8,0:0:0:0:
176,332,39674,1,0,0:0:0:0:
132,208,40054,6,0,P|140:136|180:92,1,110,6|0,0:0|0:0,0:0:0:0:
292,76,40814,1,0,0:0:0:0:
364,188,41193,1,0,0:0:0:0:
264,276,41573,1,2,0:0:0:0:
172,372,41953,2,0,P|136:328|136:256,1,110
172,152,42712,1,0,0:0:0:0:
268,60,43092,6,0,P|296:100|304:172,1,110,2|0,0:0|0:0,0:0:0:0:
288,224,43662,2,0,L|260:272,1,55
128,268,44231,2,0,L|100:220,1,55
82,155,44611,2,0,P|89:100|119:55,1,110,2|0,0:0|0:0,0:0:0:0:
216,148,45371,1,0,0:0:0:0:
216,148,45750,2,0,P|272:132|328:148,1,110,0|2,0:0|0:0,0:0:0:0:
380,260,46510,6,0,P|324:276|268:260,1,110,0|2,0:0|0:0,0:0:0:0:
216,148,47269,2,0,L|140:176,1,55
104,192,47649,1,2,0:0:0:0:
124,256,47839,2,0,L|152:332,1,55
276,288,48409,2,0,P|320:287|380:257,1,110,2|0,0:0|0:0,0:0:0:0:
428,216,48978,2,0,L|452:164,1,55,0|2,0:0|0:0,0:0:0:0:
364,68,49548,6,0,L|300:84,1,55
248,104,49928,2,0,P|208:120|144:164,1,110,2|0,0:0|0:0,0:0:0:0:
104,200,50497,1,0,0:0:0:0:
68,256,50687,2,0,L|36:320,2,55,2|0|0,0:0|0:0|0:0,0:0:0:0:
196,284,51447,2,0,L|260:264,1,55,2|0,0:0|0:0,0:0:0:0:
276,328,51826,2,0,L|328:310,1,55,2|0,0:0|0:0,0:0:0:0:
392,332,52206,5,2,0:0:0:0:
392,332,52586,1,0,0:0:0:0:
412,200,52966,1,8,0:0:0:0:
444,72,53345,2,0,P|384:68|332:100,1,110,0|2,0:0|0:0,0:0:0:0:
268,200,54105,1,0,0:0:0:0:
268,200,54485,1,8,0:0:0:0:
184,100,54864,2,0,P|135:76|81:81,1,110,0|2,0:0|0:0,0:0:0:0:
108,212,55624,5,0,0:0:0:0:
108,212,56004,1,8,0:0:0:0:
196,308,56383,2,0,P|250:325|319:318,1,110,0|2,0:0|0:0,0:0:0:0:
412,248,57143,1,0,0:0:0:0:
412,248,57523,1,8,0:0:0:0:
332,144,57902,2,0,P|277:126|208:133,1,110,0|2,0:0|0:0,0:0:0:0:
100,172,58662,6,0,L|40:192,2,55,0|0|8,0:0|0:0|0:0,0:0:0:0:
88,304,59421,2,0,L|140:286,1,55
200,260,59801,2,0,B|240:236|272:176|272:176|324:212,1,165,2|0,0:0|0:0,0:0:0:0:
376,236,60561,2,0,B|416:260|416:260|420:152|488:104,1,220,8|2,0:0|0:0,0:0:0:0:
352,104,61700,5,0,0:0:0:0:
220,84,62080,2,0,L|168:144,1,55,8|0,0:0|0:0,0:0:0:0:
224,176,62459,2,0,L|187:217,1,55,0|8,0:0|0:0,0:0:0:0:
88,328,64358,6,0,P|72:280|92:200,1,110,12|2,0:0|0:0,0:0:0:0:
116,168,64928,1,8,0:0:0:0:
240,124,65307,1,2,0:0:0:0:
303,118,65498,2,0,P|354:136|391:176,1,110,8|8,0:0|0:0,0:0:0:0:
448,296,66257,2,0,L|396:312,1,55,2|8,0:0|0:0,0:0:0:0:
264,308,66826,2,0,L|212:292,1,55,2|8,0:0|0:0,0:0:0:0:
152,260,67206,1,0,0:0:0:0:
96,224,67396,6,0,P|68:176|64:108,1,110,12|2,0:0|0:0,0:0:0:0:
72,56,67966,1,8,0:0:0:0:
204,40,68345,2,0,L|264:48,2,55,2|8|2,0:0|0:0|0:0,0:0:0:0:
200,108,68915,2,0,L|161:146,1,55,2|8,0:0|0:0,0:0:0:0:
80,252,69485,1,2,0:0:0:0:
128,300,69674,2,0,P|168:320|232:324,1,110,12|8,0:0|0:0,0:0:0:0:
364,332,70434,6,0,P|356:276|316:220,1,110,12|2,0:0|0:0,0:0:0:0:
284,184,71004,1,8,0:0:0:0:
284,52,71383,2,0,L|212:52,1,55,2|8,0:0|0:0,0:0:0:0:
164,60,71763,2,0,L|112:20,2,55,2|8|0,0:0|0:0|0:0,0:0:0:0:
168,128,72333,2,0,L|128:192,1,55,2|8,0:0|0:0,0:0:0:0:
200,292,72902,2,0,L|171:339,2,55,2|8|8,0:0|0:0|0:0,0:0:0:0:
264,280,73472,5,12,0:0:0:0:
384,224,73852,1,2,0:0:0:0:
340,172,74042,2,0,P|290:149|236:151,1,110,8|2,0:0|0:0,0:0:0:0:
172,172,74611,1,8,0:0:0:0:
68,92,74991,2,0,L|12:40,2,55,8|8|6,0:0|0:0|0:0,0:0:0:0:
172,172,75750,2,0,L|212:216,1,55,8|8,0:0|0:0,0:0:0:0:
272,236,76130,2,0,L|308:280,2,55,8|8|6,0:0|0:0|0:0,0:0:0:0:
292,104,76890,6,0,P|368:144|404:216,1,165,8|2,0:0|0:0,0:0:0:0:
400,276,77649,2,0,L|380:332,1,55,0|8,0:0|0:0,0:0:0:0:
320,308,78029,2,0,L|301:359,2,55,0|2|8,0:0|0:0|0:0,0:0:0:0:
364,184,78788,1,2,0:0:0:0:
364,184,78978,1,2,0:0:0:0:
304,68,79358,1,8,0:0:0:0:
240,56,79548,6,0,P|172:64|124:108,1,110,6|8,0:0|0:0,0:0:0:0:
224,184,80307,2,0,L|240:244,2,55,0|2|8,0:0|0:0|0:0,0:0:0:0:
104,236,81067,2,0,L|120:296,2,55,0|2|8,0:0|0:0|0:0,0:0:0:0:
124,104,81826,2,0,L|140:164,2,55,0|2|8,0:0|0:0|0:0,0:0:0:0:
108,40,82396,1,0,0:0:0:0:
108,40,82586,6,0,P|164:36|228:56,1,110,6|8,0:0|0:0,0:0:0:0:
320,132,83345,2,0,L|356:176,1,55,0|2,0:0|0:0,0:0:0:0:
268,276,83915,1,8,0:0:0:0:
184,172,84295,2,0,L|220:128,1,55,2|8,0:0|0:0,0:0:0:0:
304,28,84864,1,2,0:0:0:0:
304,28,85054,2,0,P|352:48|396:92,1,110,2|8,0:0|0:0,0:0:0:0:
420,148,85624,6,0,P|384:204|384:256,1,110,6|8,0:0|0:0,0:0:0:0:
384,312,86193,1,0,0:0:0:0:
260,268,86573,1,2,0:0:0:0:
260,268,86763,1,8,0:0:0:0:
256,192,86953,12,0,88662,0:0:0:0:
