osu file format v14

[General]
AudioFilename: &Z.mp3
AudioLeadIn: 0
PreviewTime: 63599
Countdown: 0
SampleSet: None
StackLeniency: 0.7
Mode: 0
LetterboxInBreaks: 1
WidescreenStoryboard: 1

[Editor]
Bookmarks: 3613,9688,16144,27916,40068,52220,68929,76524,82600
DistanceSpacing: 1.5
BeatDivisor: 4
GridSize: 4
TimelineZoom: 2.2

[Metadata]
Title:&Z
TitleUnicode:&Z
Artist:SawanoHiroyuki[nZk]:mizuki
ArtistUnicode:SawanoHiroyuki[nZk]:mizuki
Creator:Lasoki
Version:Insane
Source:Aldnoah.Zero
Tags:opening op s2 season 2 アルドノア・ゼロ Aldnoah Zero
BeatmapID:762380
BeatmapSetID:345190

[Difficulty]
HPDrainRate:9
CircleSize:3.5
OverallDifficulty:8
ApproachRate:9
SliderMultiplier:1.8
SliderTickRate:1

[Events]
//Background and Video events
Video,0,"&Z.avi"
0,0,"36ea8d9d.jpg",0,0
//Break Periods
//Storyboard Layer 0 (Background)
//Storyboard Layer 1 (Fail)
//Storyboard Layer 2 (Pass)
//Storyboard Layer 3 (Foreground)
//Storyboard Sound Samples

[TimingPoints]
3599,379.746835443038,4,2,2,100,1,0
9200,-100,4,2,1,100,0,0
9390,-100,4,2,2,100,0,0
15276,-100,4,2,1,100,0,0
15466,-100,4,2,2,100,0,0
15750,-133.333333333333,4,2,2,100,0,0
15940,-133.333333333333,4,2,2,30,0,0
16130,-133.333333333333,4,2,1,65,0,0
17459,-133.333333333333,4,2,1,30,0,0
17649,-133.333333333333,4,2,1,65,0,0
27523,-166.666666666667,4,2,1,65,0,0
27712,-166.666666666667,4,2,1,25,0,0
27902,-105.263157894737,4,2,1,70,0,0
28282,-117.647058823529,4,2,1,70,0,0
29421,-117.647058823529,4,2,1,65,0,0
29611,-117.647058823529,4,2,1,30,0,0
29801,-117.647058823529,4,2,1,65,0,0
31130,-117.647058823529,4,2,1,30,0,0
31320,-117.647058823529,4,2,1,65,0,0
39674,-142.857142857143,4,2,1,65,0,0
39864,-142.857142857143,4,2,1,30,0,0
40054,-133.333333333333,4,2,1,70,0,0
40434,-153.846153846153,4,2,1,70,0,0
41573,-153.846153846153,4,2,1,65,0,0
51826,-117.647058823529,4,2,1,65,0,0
52016,-117.647058823529,4,2,1,30,0,0
52206,-117.647058823529,4,2,1,65,0,0
52586,-133.333333333333,4,2,1,65,0,0
63599,-200,4,2,2,85,0,0
63978,-200,4,2,2,35,0,0
64168,-200,4,2,2,85,0,0
64263,-200,4,2,2,35,0,0
64358,-66.6666666666667,4,2,2,100,0,1
67776,-66.6666666666667,4,2,2,30,0,1
67966,-66.6666666666667,4,2,2,100,0,1
68345,-66.6666666666667,4,2,2,30,0,1
68535,-66.6666666666667,4,2,2,100,0,1
83345,-66.6666666666667,4,2,2,30,0,1
83535,-66.6666666666667,4,2,2,100,0,1
88662,-100,4,2,1,5,0,0

[Colours]
Combo1 : 116,252,177
Combo2 : 82,176,254
Combo3 : 139,254,126
Combo4 : 247,238,134

[HitObjects]
256,192,940,12,0,3219,0:0:0:0:
156,216,3599,6,0,P|180:172|232:148,1,90,12|8,0:0|0:0,0:0:0:0:
280,268,3978,1,2,0:0:0:0:
76,88,4168,1,2,0:0:0:0:
76,88,4358,2,0,P|108:52|160:32,1,90,8|2,0:0|0:0,0:0:0:0:
349,97,4738,2,0,P|309:77|280:44,1,90,2|8,0:0|0:0,0:0:0:0:
396,116,5117,1,2,0:0:0:0:
444,244,5307,1,2,0:0:0:0:
136,192,5497,2,0,B|212:236|224:176|312:208,1,180,8|8,0:0|0:0,0:0:0:0:
428,276,6067,1,2,0:0:0:0:
44,144,6447,1,0,0:0:0:0:
108,264,6636,6,0,P|136:304|144:352,1,90,8|8,0:0|0:0,0:0:0:0:
8,356,7016,1,2,0:0:0:0:
256,248,7206,1,2,0:0:0:0:
256,248,7396,2,0,L|312:356,1,90,8|2,0:0|0:0,0:0:0:0:
297,143,7776,2,0,L|264:60,1,90,2|8,0:0|0:0,0:0:0:0:
332,220,8155,1,2,0:0:0:0:
204,180,8345,1,2,0:0:0:0:
38,296,8535,2,0,B|83:293|109:322|109:322|124:289|124:289|156:316|184:312,1,180,8|8,0:0|0:0,0:0:0:0:
320,312,9105,1,2,0:0:0:0:
320,312,9295,1,2,0:0:0:0:
448,72,9674,5,12,0:0:0:0:
448,72,9864,1,8,0:0:0:0:
392,196,10054,1,2,0:0:0:0:
392,196,10244,1,2,0:0:0:0:
260,220,10434,2,0,P|272:264|332:308,1,90,8|2,0:0|0:0,0:0:0:0:
125,382,10814,2,0,P|156:350|168:308,1,90,2|8,0:0|0:0,0:0:0:0:
152,176,11193,1,2,0:0:0:0:
68,68,11383,1,2,0:0:0:0:
68,68,11573,2,0,L|268:68,1,180,8|8,0:0|0:0,0:0:0:0:
384,64,12143,1,2,0:0:0:0:
384,64,12523,5,2,0:0:0:0:
280,148,12712,2,0,P|324:140|368:108,1,90,8|8,0:0|0:0,0:0:0:0:
173,54,13092,2,0,P|129:62|92:88,1,90,2|2,0:0|0:0,0:0:0:0:
180,192,13472,1,8,0:0:0:0:
180,192,13662,1,2,0:0:0:0:
292,264,13852,1,2,0:0:0:0:
292,264,14042,1,8,0:0:0:0:
284,128,14231,1,2,0:0:0:0:
176,44,14421,1,2,0:0:0:0:
176,44,14611,2,0,P|80:100|32:168,1,180,8|8,0:0|0:0,0:0:0:0:
40,288,15181,2,0,L|40:384,2,90
108,212,15750,6,0,P|136:256|132:320,1,101.250003862381,4|0,0:0|0:0,0:0:0:0:
132,356,16130,2,0,L|296:352,1,135.000005149842,0|8,0:0|0:0,0:0:0:0:
368,352,16700,1,0,0:0:0:0:
468,348,16890,1,0,0:0:0:0:
468,144,17269,2,0,P|400:124|364:88,1,101.250003862381,2|0,0:0|0:0,0:0:0:0:
328,112,17649,2,0,P|272:148|247:209,1,135.000005149842,0|8,0:0|0:0,0:0:0:0:
428,304,18409,2,0,P|402:242|344:208,1,135.000005149842,0|2,0:0|0:0,0:0:0:0:
176,96,19168,5,0,0:0:0:0:
56,260,19548,2,0,L|20:344,1,67.5000025749208,8|0,0:0|0:0,0:0:0:0:
92,184,19928,1,0,0:0:0:0:
264,288,20307,2,0,B|296:316|340:320|340:320|320:352|320:396,1,135.000005149842,2|0,0:0|0:0,0:0:0:0:
418,88,21067,2,0,B|386:116|342:120|342:120|362:152|360:168,1,135.000005149842,8|0,0:0|0:0,0:0:0:0:
168,228,21826,6,0,P|52:220|32:228,1,135.000005149842,2|0,0:0|0:0,0:0:0:0:
220,140,22586,1,8,0:0:0:0:
104,308,22776,1,0,0:0:0:0:
220,140,22966,1,0,0:0:0:0:
416,184,23345,2,0,B|336:184|336:184|320:152|284:124,1,135.000005149842,2|0,0:0|0:0,0:0:0:0:
38,319,24105,2,0,B|118:319|118:319|134:287|152:276,1,135.000005149842,8|0,0:0|0:0,0:0:0:0:
356,288,24864,5,2,0:0:0:0:
152,140,25244,1,0,0:0:0:0:
352,100,25624,1,8,0:0:0:0:
304,188,25814,2,0,P|344:200|384:192,1,67.5000025749208
184,116,26383,1,2,0:0:0:0:
64,280,26763,1,0,0:0:0:0:
152,232,26953,2,0,P|164:272|156:312,1,67.5000025749208,0|8,0:0|0:0,0:0:0:0:
320,336,27523,2,0,P|376:332|400:320,1,80.9999975280763
444,276,27902,6,0,P|428:216|452:104,1,170.999995433807,6|0,0:0|0:0,0:0:0:0:
224,60,28662,2,0,P|184:68|140:100,1,76.5000014591217,8|0,0:0|0:0,0:0:0:0:
72,168,29042,1,0,0:0:0:0:
112,328,29421,2,0,P|164:328|232:304,1,114.750002188683,2|0,0:0|0:0,0:0:0:0:
268,272,29801,2,0,B|308:228|308:228|340:252|416:244,1,153.000002918243,0|8,0:0|0:0,0:0:0:0:
396,16,30561,1,0,0:0:0:0:
168,48,30940,6,0,P|112:64|56:120,1,114.750002188683,2|0,0:0|0:0,0:0:0:0:
32,144,31320,2,0,P|64:176|88:308,1,153.000002918243,0|8,0:0|0:0,0:0:0:0:
28,372,31890,1,0,0:0:0:0:
188,208,32080,1,0,0:0:0:0:
368,68,32459,2,0,B|416:36|416:36|436:80|500:100,1,153.000002918243,2|0,0:0|0:0,0:0:0:0:
125,121,33219,2,0,P|189:159|260:136,1,153.000002918243,8|0,0:0|0:0,0:0:0:0:
176,352,33978,5,2,0:0:0:0:
24,180,34358,1,0,0:0:0:0:
236,92,34738,2,0,L|316:64,1,76.5000014591217,8|0,0:0|0:0,0:0:0:0:
200,104,35117,1,0,0:0:0:0:
220,332,35497,2,0,P|244:248|216:176,1,153.000002918243,2|0,0:0|0:0,0:0:0:0:
4,260,36257,1,8,0:0:0:0:
464,260,36636,1,0,0:0:0:0:
121,90,37016,6,0,L|256:164,1,153.000002918243,2|0,0:0|0:0,0:0:0:0:
452,284,37776,1,8,0:0:0:0:
336,276,37966,1,0,0:0:0:0:
496,208,38155,1,0,0:0:0:0:
340,40,38535,2,0,P|368:112|352:200,2,153.000002918243,2|0|8,0:0|0:0|0:0,0:0:0:0:
190,327,39674,2,0,P|179:271|192:224,1,94.499997116089
200,188,40054,6,0,P|272:232|340:224,1,135.000005149842,6|0,0:0|0:0,0:0:0:0:
36,28,40814,1,0,0:0:0:0:
384,68,41193,1,0,0:0:0:0:
176,352,41573,1,0,0:0:0:0:
56,224,41953,2,0,B|84:196|84:196|124:212|160:212,1,116.999994644165
440,224,42712,2,0,B|412:196|412:196|372:212|336:212,1,116.999994644165
400,48,43472,5,0,0:0:0:0:
296,128,43662,1,2,0:0:0:0:
444,36,43852,1,0,0:0:0:0:
112,48,44231,1,0,0:0:0:0:
216,128,44421,1,2,0:0:0:0:
68,36,44611,1,0,0:0:0:0:
52,212,44991,2,0,B|84:224|84:224|112:212|136:220|136:220|163:209,1,116.999994644165
280,76,45750,1,0,0:0:0:0:
280,76,45940,1,2,0:0:0:0:
280,76,46130,5,0,0:0:0:0:
288,164,46320,1,0,0:0:0:0:
292,252,46510,1,0,0:0:0:0:
468,268,46700,1,2,0:0:0:0:
336,260,46890,1,0,0:0:0:0:
304,340,47080,1,0,0:0:0:0:
248,272,47269,1,0,0:0:0:0:
72,288,47459,1,2,0:0:0:0:
204,280,47649,5,0,0:0:0:0:
248,204,47839,1,0,0:0:0:0:
240,116,48029,1,0,0:0:0:0:
240,116,48219,1,0,0:0:0:0:
240,116,48409,1,0,0:0:0:0:
328,108,48599,1,0,0:0:0:0:
416,100,48788,6,0,L|492:88,2,58.4999973220826,0|2|0,0:0|0:0|0:0,0:0:0:0:
252,160,49358,1,0,0:0:0:0:
96,100,49548,2,0,L|38:90,2,58.4999973220826,0|2|0,0:0|0:0|0:0,0:0:0:0:
252,160,50117,1,0,0:0:0:0:
90,329,50307,2,0,L|132:288,2,58.4999973220826,2|2|0,0:0|0:0|0:0,0:0:0:0:
252,160,50877,1,0,0:0:0:0:
421,329,51067,2,0,L|380:288,2,58.4999973220826,2|0|0,0:0|0:0|0:0,0:0:0:0:
252,160,51636,1,0,0:0:0:0:
204,56,51826,6,0,P|152:48|60:68,1,114.750002188683,2|0,0:0|0:0,0:0:0:0:
117,216,52206,2,0,P|149:147|148:72,1,153.000002918243,2|0,0:0|0:0,0:0:0:0:
20,348,52966,1,8,0:0:0:0:
256,20,53345,1,0,0:0:0:0:
264,28,53725,1,0,0:0:0:0:
272,36,54105,1,0,0:0:0:0:
488,376,54485,1,8,0:0:0:0:
100,268,54864,1,0,0:0:0:0:
96,260,55244,5,0,0:0:0:0:
96,248,55624,1,0,0:0:0:0:
448,48,56004,1,8,0:0:0:0:
268,140,56383,2,0,B|232:172|232:172|276:188|252:220|252:220|284:260,1,135.000005149842
440,132,57143,1,0,0:0:0:0:
40,184,57523,1,8,0:0:0:0:
40,184,57902,1,0,0:0:0:0:
240,208,58282,6,0,P|268:244|316:264,1,67.5000025749208,0|2,0:0|0:0,0:0:0:0:
172,88,58662,2,0,P|144:52|96:32,1,67.5000025749208
308,128,59042,1,8,0:0:0:0:
108,148,59231,1,2,0:0:0:0:
256,132,59421,1,0,0:0:0:0:
256,132,59611,1,0,0:0:0:0:
156,132,59801,5,0,0:0:0:0:
452,176,59991,1,2,0:0:0:0:
304,144,60181,2,0,P|304:204|228:224,1,135.000005149842,0|8,0:0|0:0,0:0:0:0:
84,104,60750,1,2,0:0:0:0:
88,308,60940,1,0,0:0:0:0:
88,308,61130,1,0,0:0:0:0:
88,308,61320,5,0,0:0:0:0:
284,252,61510,1,2,0:0:0:0:
32,236,61700,1,0,0:0:0:0:
264,340,61890,1,0,0:0:0:0:
264,36,62080,1,8,0:0:0:0:
64,72,62269,1,2,0:0:0:0:
64,72,62459,1,2,0:0:0:0:
312,248,62649,1,8,0:0:0:0:
256,364,63599,2,0,B|244:336|244:336|260:328|260:328|244:312|244:312|260:296|260:296|244:268,1,112.5,8|0,0:0|0:0,0:0:0:0:
244,248,64168,2,0,P|232:228|228:208,1,22.5,2|0,0:0|0:0,0:0:0:0:
132,204,64358,6,0,P|116:136|272:128,1,270.000010299683,12|2,0:0|0:0,0:0:0:0:
344,308,64928,1,8,0:0:0:0:
468,148,65117,1,2,0:0:0:0:
268,116,65307,1,2,0:0:0:0:
148,280,65497,2,0,P|224:264|256:200,1,135.000005149842,8|2,0:0|0:0,0:0:0:0:
52,256,65877,1,8,0:0:0:0:
140,72,66067,2,0,P|168:144|176:216,1,135.000005149842,2|2,0:0|0:0,0:0:0:0:
316,348,66447,1,8,0:0:0:0:
440,188,66636,1,0,0:0:0:0:
244,244,66826,1,2,0:0:0:0:
400,40,67016,1,8,0:0:0:0:
400,40,67206,1,8,0:0:0:0:
200,56,67396,6,0,B|168:100|96:104|96:104|140:176|140:176|64:144|44:256,1,337.500012874604,12|0,0:0|0:0,0:0:0:0:
48,340,67966,2,0,B|120:336|144:268|144:268|200:316|200:316|224:244|304:248,1,337.500012874604,8|0,0:0|0:0,0:0:0:0:
296,348,68535,2,0,B|384:356|408:256,1,135.000005149842,8|2,0:0|0:0,0:0:0:0:
420,80,68915,1,2,0:0:0:0:
304,248,69105,1,8,0:0:0:0:
424,188,69295,1,2,0:0:0:0:
224,164,69485,1,2,0:0:0:0:
148,352,69674,2,0,P|232:372|328:336,1,135.000005149842,12|2,0:0|0:0,0:0:0:0:
84,308,70054,1,8,0:0:0:0:
224,164,70244,2,0,P|234:230|219:295,1,135.000005149842,2|8,0:0|0:0,0:0:0:0:
360,148,70624,5,2,0:0:0:0:
484,308,70814,1,2,0:0:0:0:
480,104,71004,1,8,0:0:0:0:
352,260,71193,1,0,0:0:0:0:
160,260,71383,2,0,P|106:301|100:366,1,135.000005149842,2|8,0:0|0:0,0:0:0:0:
412,364,71763,2,0,P|404:299|352:260,1,135.000005149842,2|8,0:0|0:0,0:0:0:0:
176,160,72143,1,2,0:0:0:0:
212,360,72333,1,2,0:0:0:0:
120,180,72523,1,8,0:0:0:0:
320,184,72712,1,0,0:0:0:0:
320,184,72902,2,0,B|280:112|308:20,1,135.000005149842,2|8,0:0|0:0,0:0:0:0:
224,240,73282,1,8,0:0:0:0:
20,240,73472,5,12,0:0:0:0:
188,352,73662,1,2,0:0:0:0:
120,160,73852,1,2,0:0:0:0:
56,352,74042,1,8,0:0:0:0:
488,140,74231,1,0,0:0:0:0:
488,139,74421,2,0,P|429:106|364:92,1,135.000005149842,2|8,0:0|0:0,0:0:0:0:
172,160,74801,1,2,0:0:0:0:
172,160,74991,1,2,0:0:0:0:
364,228,75181,1,8,0:0:0:0:
244,64,75371,1,2,0:0:0:0:
236,268,75561,1,2,0:0:0:0:
236,268,75750,1,2,0:0:0:0:
152,84,75940,5,8,0:0:0:0:
96,124,76035,1,8,0:0:0:0:
96,192,76130,1,8,0:0:0:0:
132,248,76225,1,8,0:0:0:0:
124,316,76320,1,8,0:0:0:0:
72,356,76415,1,8,0:0:0:0:
52,292,76510,6,0,P|136:240|176:372,1,270.000010299683,6|8,0:0|0:0,0:0:0:0:
459,92,77269,2,0,P|394:104|344:148,1,135.000005149842,0|2,0:0|0:0,0:0:0:0:
452,228,77649,1,0,0:0:0:0:
272,28,77839,1,8,0:0:0:0:
272,28,78029,1,0,0:0:0:0:
452,228,78219,1,2,0:0:0:0:
184,244,78409,2,0,L|348:236,1,135.000005149842,8|0,0:0|0:0,0:0:0:0:
452,228,78788,1,2,0:0:0:0:
452,228,78978,1,2,0:0:0:0:
432,96,79168,1,0,0:0:0:0:
252,300,79358,1,8,0:0:0:0:
210,168,79548,6,0,B|280:132|356:176|336:276|450:227,1,270.000010299683,6|8,0:0|0:0,0:0:0:0:
224,84,80117,1,0,0:0:0:0:
372,312,80307,1,0,0:0:0:0:
124,208,80497,2,0,B|164:276|248:256,1,135.000005149842,2|8,0:0|0:0,0:0:0:0:
408,144,80877,1,0,0:0:0:0:
208,172,81067,1,0,0:0:0:0:
64,316,81257,2,0,P|128:360|204:368,1,135.000005149842,2|8,0:0|0:0,0:0:0:0:
384,360,81636,1,0,0:0:0:0:
284,184,81826,1,0,0:0:0:0:
53,35,82016,2,0,P|50:102|84:160,1,135.000005149842,2|8,0:0|0:0,0:0:0:0:
260,56,82396,1,2,0:0:0:0:
400,324,82586,6,0,P|352:244|268:368,1,270.000010299683,6|8,0:0|0:0,0:0:0:0:
76,228,83155,2,0,P|169:223|129:115,1,202.500007724762
208,40,83535,2,0,P|128:36|68:112,2,135.000005149842,2|0|8,0:0|0:0|0:0,0:0:0:0:
376,176,84105,1,0,0:0:0:0:
196,296,84295,1,2,0:0:0:0:
388,32,84485,1,8,0:0:0:0:
464,232,84674,1,0,0:0:0:0:
256,172,84864,1,2,0:0:0:0:
256,172,85054,2,0,P|190:163|134:199,2,135.000005149842,2|0|8,0:0|0:0|0:0,0:0:0:0:
40,156,85624,6,0,P|64:272|216:264,1,270.000010299683,6|8,0:0|0:0,0:0:0:0:
248,72,86193,2,0,P|372:53|424:168,1,270.000010299683,0|2,0:0|0:0,0:0:0:0:
448,384,86763,2,0,B|360:336|404:268|404:268|300:288|300:288|340:180|272:136,1,405.000015449525,8|2,0:0|0:0,0:0:0:0:
472,216,87523,5,8,0:0:0:0:
236,344,87712,1,2,0:0:0:0:
220,120,87902,1,8,0:0:0:0:
284,144,87997,1,8,0:0:0:0:
352,144,88092,1,8,0:0:0:0:
416,120,88187,1,2,0:0:0:0:
468,76,88282,1,8,0:0:0:0:
168,76,88472,2,0,P|100:52|32:72,1,135.000005149842,4|0,0:0|0:0,0:0:0:0:
