osu file format v14

[General]
AudioFilename: &Z.mp3
AudioLeadIn: 0
PreviewTime: 63599
Countdown: 0
SampleSet: None
StackLeniency: 0.7
Mode: 0
LetterboxInBreaks: 1
WidescreenStoryboard: 1

[Editor]
Bookmarks: 3613,9688,16144,27916,40068,52220,68929,76524,82600
DistanceSpacing: 1.3
BeatDivisor: 4
GridSize: 4
TimelineZoom: 1.2

[Metadata]
Title:&Z
TitleUnicode:&Z
Artist:SawanoHiroyuki[nZk]:mizuki
ArtistUnicode:SawanoHiroyuki[nZk]:mizuki
Creator:Lasoki
Version:Hard
Source:Aldnoah.Zero
Tags:opening op s2 season 2 アルドノア・ゼロ Aldnoah Zero
BeatmapID:762379
BeatmapSetID:345190

[Difficulty]
HPDrainRate:5
CircleSize:2.5
OverallDifficulty:4
ApproachRate:6
SliderMultiplier:1.4
SliderTickRate:1

[Events]
//Background and Video events
Video,0,"&Z.avi"
0,0,"36ea8d9d.jpg",0,0
//Break Periods
//Storyboard Layer 0 (Background)
//Storyboard Layer 1 (Fail)
//Storyboard Layer 2 (Pass)
//Storyboard Layer 3 (Foreground)
//Storyboard Sound Samples

[TimingPoints]
3599,379.746835443038,4,2,2,100,1,0
9200,-100,4,2,1,100,0,0
9390,-100,4,2,2,100,0,0
15276,-100,4,2,1,100,0,0
15466,-100,4,2,2,100,0,0
15750,-133.333333333333,4,2,2,100,0,0
16130,-133.333333333333,4,2,1,65,0,0
27902,-117.647058823529,4,2,1,70,0,0
29421,-117.647058823529,4,2,1,65,0,0
40054,-153.846153846153,4,2,1,70,0,0
41573,-153.846153846153,4,2,1,65,0,0
51826,-133.333333333333,4,2,1,65,0,0
64358,-100,4,2,2,100,0,1
88662,-100,4,2,1,5,0,0

[Colours]
Combo1 : 116,252,177
Combo2 : 82,176,254
Combo3 : 139,254,126
Combo4 : 247,238,134

[HitObjects]
256,192,940,12,0,3219,0:0:0:0:
92,64,3599,6,0,L|36:128,1,70,12|8,0:0|0:0,0:0:0:0:
136,116,3978,2,0,L|80:180,2,70,2|2|8,0:0|0:0|0:0,0:0:0:0:
24,260,4738,1,2,0:0:0:0:
24,260,4928,1,8,0:0:0:0:
204,284,5307,1,2,0:0:0:0:
204,284,5497,2,0,P|220:216|272:160,1,140,8|8,0:0|0:0,0:0:0:0:
344,120,6067,1,2,0:0:0:0:
436,120,6257,2,0,L|436:200,1,70
376,256,6636,6,0,L|408:332,1,70,8|8,0:0|0:0,0:0:0:0:
312,308,7016,2,0,L|344:384,2,70,2|2|8,0:0|0:0|0:0,0:0:0:0:
256,136,7776,1,2,0:0:0:0:
256,136,7966,1,8,0:0:0:0:
88,68,8345,1,2,0:0:0:0:
88,68,8535,2,0,P|56:120|44:204,1,140,8|8,0:0|0:0,0:0:0:0:
72,284,9105,2,0,L|20:348,2,70,2|2|0,0:0|0:0|0:0,0:0:0:0:
128,212,9674,5,12,0:0:0:0:
128,212,9864,1,8,0:0:0:0:
184,140,10054,2,0,L|232:80,1,70,2|2,0:0|0:0,0:0:0:0:
260,172,10434,2,0,L|308:112,1,70,8|2,0:0|0:0,0:0:0:0:
392,88,10814,1,2,0:0:0:0:
392,88,11004,2,0,P|448:112|476:208,1,140,8|2,0:0|0:0,0:0:0:0:
392,176,11573,1,8,0:0:0:0:
208,348,11953,1,8,0:0:0:0:
164,268,12143,2,0,L|104:132,1,140,2|2,0:0|0:0,0:0:0:0:
72,56,12712,5,8,0:0:0:0:
72,56,12902,1,8,0:0:0:0:
164,56,13092,2,0,L|244:56,1,70,2|2,0:0|0:0,0:0:0:0:
272,140,13472,2,0,L|202:140,1,70,8|2,0:0|0:0,0:0:0:0:
112,140,13852,1,2,0:0:0:0:
28,172,14042,2,0,P|72:220|144:224,1,140,8|2,0:0|0:0,0:0:0:0:
112,140,14611,1,8,0:0:0:0:
296,140,14991,1,8,0:0:0:0:
388,140,15181,2,0,L|460:140,2,70,2|2|0,0:0|0:0|0:0,0:0:0:0:
296,140,15750,5,4,0:0:0:0:
192,228,16130,1,0,0:0:0:0:
280,332,16510,1,8,0:0:0:0:
212,332,16700,2,0,L|144:332,1,52.5000020027161,0|2,0:0|0:0,0:0:0:0:
48,252,17269,1,0,0:0:0:0:
96,124,17649,2,0,P|124:76|172:48,1,105.000004005432,0|8,0:0|0:0,0:0:0:0:
300,36,18409,1,0,0:0:0:0:
432,76,18788,6,0,P|475:104|500:149,1,105.000004005432,2|0,0:0|0:0,0:0:0:0:
376,200,19548,1,8,0:0:0:0:
316,232,19738,1,0,0:0:0:0:
248,240,19928,1,0,0:0:0:0:
280,108,20307,2,0,P|208:108|160:132,1,105.000004005432,2|0,0:0|0:0,0:0:0:0:
112,240,21067,1,8,0:0:0:0:
168,364,21447,2,0,P|213:330|240:276,1,105.000004005432,0|2,0:0|0:0,0:0:0:0:
264,156,22206,5,0,0:0:0:0:
356,260,22586,2,0,L|412:312,1,52.5000020027161,8|0,0:0|0:0,0:0:0:0:
448,340,22966,1,0,0:0:0:0:
476,208,23345,2,0,P|476:120|464:88,1,105.000004005432,2|0,0:0|0:0,0:0:0:0:
348,160,24105,1,8,0:0:0:0:
360,296,24485,1,0,0:0:0:0:
232,340,24864,6,0,P|232:252|244:220,1,105.000004005432,2|0,0:0|0:0,0:0:0:0:
252,100,25624,1,8,0:0:0:0:
184,108,25814,1,0,0:0:0:0:
132,152,26004,1,0,0:0:0:0:
136,288,26383,2,0,P|80:280|36:248,1,105.000004005432,2|0,0:0|0:0,0:0:0:0:
8,192,26953,1,0,0:0:0:0:
8,192,27143,2,0,L|56:88,1,105.000004005432,8|0,0:0|0:0,0:0:0:0:
52,96,27902,6,0,L|20:24,2,59.5000011348725,6|0|0,0:0|0:0|0:0,0:0:0:0:
120,236,28662,1,8,0:0:0:0:
192,260,28852,2,0,L|268:292,1,59.5000011348725
392,336,29421,1,2,0:0:0:0:
392,336,29611,1,0,0:0:0:0:
392,336,29801,2,0,P|400:260|376:204,1,119.000002269745,0|8,0:0|0:0,0:0:0:0:
292,100,30561,1,0,0:0:0:0:
136,104,30940,6,0,P|68:136|44:192,1,119.000002269745,2|0,0:0|0:0,0:0:0:0:
56,328,31700,1,8,0:0:0:0:
116,280,31890,1,0,0:0:0:0:
152,212,32080,1,0,0:0:0:0:
260,316,32459,2,0,L|260:188,1,119.000002269745,2|0,0:0|0:0,0:0:0:0:
352,363,33219,2,0,L|404:256,1,119.000002269745,8|0,0:0|0:0,0:0:0:0:
472,116,33978,5,2,0:0:0:0:
328,60,34358,1,0,0:0:0:0:
184,120,34738,1,8,0:0:0:0:
164,196,34928,2,0,L|144:260,1,59.5000011348725
272,344,35497,2,0,P|332:312|368:264,2,119.000002269745,2|0|8,0:0|0:0|0:0,0:0:0:0:
148,252,36636,1,0,0:0:0:0:
56,128,37016,6,0,P|100:80|168:60,1,119.000002269745,2|0,0:0|0:0,0:0:0:0:
300,100,37776,1,8,0:0:0:0:
260,164,37966,1,0,0:0:0:0:
192,200,38155,1,0,0:0:0:0:
282,348,38535,2,0,L|164:352,1,119.000002269745,2|0,0:0|0:0,0:0:0:0:
60,164,39295,1,8,0:0:0:0:
240,48,39674,1,0,0:0:0:0:
452,164,40054,5,2,0:0:0:0:
324,264,40434,1,0,0:0:0:0:
364,104,40814,1,0,0:0:0:0:
432,264,41193,1,0,0:0:0:0:
284,172,41573,1,2,0:0:0:0:
196,92,41953,2,0,P|168:136|168:184,1,90.9999958343508
228,272,42712,2,0,P|253:308|258:353,1,90.9999958343508,0|2,0:0|0:0,0:0:0:0:
140,352,43472,5,0,0:0:0:0:
140,352,43662,1,0,0:0:0:0:
139,352,43852,2,0,P|114:315|109:270,1,90.9999958343508
116,212,44421,1,0,0:0:0:0:
136,156,44611,2,0,L|176:64,1,90.9999958343508,2|0,0:0|0:0,0:0:0:0:
284,28,45371,1,0,0:0:0:0:
284,148,45750,2,0,L|247:231,1,90.9999958343508,0|2,0:0|0:0,0:0:0:0:
144,288,46510,6,0,L|124:228,2,45.4999979171754,2|0|2,0:0|0:0|0:0,0:0:0:0:
176,172,47269,2,0,L|156:112,2,45.4999979171754,2|0|2,0:0|0:0|0:0,0:0:0:0:
288,136,48029,2,0,L|273:179,2,45.4999979171754,2|0|2,0:0|0:0|0:0,0:0:0:0:
356,236,48788,2,0,L|341:279,1,45.4999979171754,2|0,0:0|0:0,0:0:0:0:
256,192,49168,12,0,51447,0:0:0:0:
140,324,51826,5,2,0:0:0:0:
328,328,52206,1,2,0:0:0:0:
328,328,52586,2,0,L|328:212,1,105.000004005432,0|8,0:0|0:0,0:0:0:0:
396,104,53345,1,0,0:0:0:0:
260,112,53725,1,0,0:0:0:0:
260,112,54105,2,0,P|192:124|144:148,1,105.000004005432,0|8,0:0|0:0,0:0:0:0:
84,260,54864,1,0,0:0:0:0:
24,136,55244,5,2,0:0:0:0:
24,136,55624,2,0,P|68:104|96:56,1,105.000004005432,0|8,0:0|0:0,0:0:0:0:
232,56,56383,1,0,0:0:0:0:
164,176,56763,1,0,0:0:0:0:
108,300,57143,2,0,P|188:312|220:300,1,105.000004005432,0|8,0:0|0:0,0:0:0:0:
209,305,57902,1,2,0:0:0:0:
344,292,58282,6,0,L|400:272,1,52.5000020027161
420,212,58662,2,0,L|444:164,2,52.5000020027161,0|0|8,0:0|0:0|0:0,0:0:0:0:
328,112,59421,2,0,L|316:56,2,52.5000020027161
200,160,60181,2,0,L|224:112,2,52.5000020027161,0|0|8,0:0|0:0|0:0,0:0:0:0:
76,104,60940,2,0,L|64:48,2,52.5000020027161,0|0|2,0:0|0:0|0:0,0:0:0:0:
96,172,61510,6,0,L|107:223,1,52.5000020027161
276,308,62080,1,8,0:0:0:0:
364,140,62459,1,0,0:0:0:0:
320,224,62649,1,8,0:0:0:0:
320,224,63599,1,8,0:0:0:0:
320,224,64168,1,0,0:0:0:0:
320,224,64358,5,12,0:0:0:0:
412,236,64548,1,2,0:0:0:0:
364,312,64738,1,2,0:0:0:0:
320,224,64928,2,0,P|356:160|424:144,1,140,8|2,0:0|0:0,0:0:0:0:
428,52,65497,2,0,L|280:52,1,140,8|8,0:0|0:0,0:0:0:0:
200,24,66067,6,0,P|196:60|216:104,1,70,2|2,0:0|0:0,0:0:0:0:
284,140,66447,1,8,0:0:0:0:
284,140,66636,1,0,0:0:0:0:
320,224,66826,1,2,0:0:0:0:
320,224,67016,1,8,0:0:0:0:
388,284,67206,2,0,L|448:336,1,70,8|12,0:0|0:0,0:0:0:0:
88,192,67966,1,8,0:0:0:0:
444,68,68535,1,8,0:0:0:0:
444,68,68725,1,2,0:0:0:0:
448,160,68915,6,0,P|400:152|376:128,1,70,2|8,0:0|0:0,0:0:0:0:
316,200,69295,2,0,P|286:181|252:179,1,70,2|2,0:0|0:0,0:0:0:0:
260,268,69674,1,12,0:0:0:0:
316,96,69864,1,2,0:0:0:0:
260,268,70054,1,8,0:0:0:0:
80,292,70434,6,0,L|16:328,2,70,8|2|2,0:0|0:0|0:0,0:0:0:0:
156,344,71004,2,0,P|172:296|132:216,1,140,8|2,0:0|0:0,0:0:0:0:
80,292,71573,1,8,0:0:0:0:
196,152,71763,1,2,0:0:0:0:
288,156,71953,6,0,L|368:160,1,70,8|2,0:0|0:0,0:0:0:0:
448,164,72333,1,2,0:0:0:0:
400,244,72523,2,0,P|344:260|308:340,1,140,8|2,0:0|0:0,0:0:0:0:
400,336,73092,1,8,0:0:0:0:
232,264,73282,2,0,L|144:228,1,70,8|12,0:0|0:0,0:0:0:0:
488,36,74042,1,8,0:0:0:0:
272,344,74611,1,8,0:0:0:0:
232,264,74801,2,0,L|200:196,1,70,2|2,0:0|0:0,0:0:0:0:
156,120,75181,5,8,0:0:0:0:
156,120,75561,1,2,0:0:0:0:
244,96,75750,1,8,0:0:0:0:
332,68,75940,2,0,L|376:56,6,35,8|8|8|8|8|8|12,0:0|0:0|0:0|0:0|0:0|0:0|0:0,0:0:0:0:
156,120,76890,6,0,P|196:176|272:180,1,140,8|0,0:0|0:0,0:0:0:0:
244,96,77459,2,0,P|304:104|348:168,1,140,2|8,0:0|0:0,0:0:0:0:
228,304,78219,1,2,0:0:0:0:
312,268,78409,1,8,0:0:0:0:
140,208,78788,1,2,0:0:0:0:
56,244,78978,1,2,0:0:0:0:
200,132,79358,2,0,P|232:168|232:212,1,70,8|6,0:0|0:0,0:0:0:0:
412,236,79928,6,0,L|272:280,1,140,8|0,0:0|0:0,0:0:0:0:
192,304,80497,1,2,0:0:0:0:
104,328,80687,1,8,0:0:0:0:
344,36,81257,1,2,0:0:0:0:
256,60,81447,1,8,0:0:0:0:
16,352,82016,1,2,0:0:0:0:
104,328,82206,1,8,0:0:0:0:
184,284,82396,1,0,0:0:0:0:
124,216,82586,6,0,P|196:192|264:244,1,140,4|8,0:0|0:0,0:0:0:0:
392,332,83345,2,0,L|312:272,1,70,0|2,0:0|0:0,0:0:0:0:
244,132,83915,1,8,0:0:0:0:
72,68,84295,2,0,L|160:100,1,70,0|8,0:0|0:0,0:0:0:0:
156,272,84864,1,2,0:0:0:0:
156,272,85054,1,2,0:0:0:0:
328,220,85434,1,0,0:0:0:0:
372,300,85624,6,0,P|408:264|404:168,1,140,6|8,0:0|0:0,0:0:0:0:
368,100,86193,1,0,0:0:0:0:
188,112,86573,1,2,0:0:0:0:
188,112,86763,1,8,0:0:0:0:
188,112,86953,2,0,P|136:136|112:216,1,140,0|2,0:0|0:0,0:0:0:0:
204,204,87523,1,8,0:0:0:0:
48,108,87712,1,2,0:0:0:0:
204,204,87902,2,0,L|248:240,4,35,8|8|8|8|8,0:0|0:0|0:0|0:0|0:0,0:0:0:0:
120,172,88472,1,4,0:0:0:0:
