osu file format v14

[General]
AudioFilename: SawanoHiroyuki[nZk]_mizuki-_amp_Z.mp3
AudioLeadIn: 0
PreviewTime: 62926
Countdown: 0
SampleSet: Soft
StackLeniency: 0.7
Mode: 0
LetterboxInBreaks: 0
EpilepsyWarning: 1
WidescreenStoryboard: 1

[Editor]
DistanceSpacing: 1.2
BeatDivisor: 4
GridSize: 4
TimelineZoom: 1

[Metadata]
Title:&Z
TitleUnicode:&Z
Artist:SawanoHiroyuki[nZk]:mizuki
ArtistUnicode:SawanoHiroyuki[nZk]:mizuki
Creator:-Nya-
Version:Normal
Source:アルドノア・ゼロ
Tags:澤野弘之 Aldnoah.Zero opening 2nd season full version 10nya -_t_e_n_n_y_a_-
BeatmapID:852625
BeatmapSetID:315012

[Difficulty]
HPDrainRate:4
CircleSize:3.5
OverallDifficulty:4
ApproachRate:4.5
SliderMultiplier:1
SliderTickRate:1

[Events]
//Background and Video events
0,0,"zero.jpg",0,0
//Break Periods
2,102050,112742
2,188061,198564
//Storyboard Layer 0 (Background)
//Storyboard Layer 1 (Fail)
//Storyboard Layer 2 (Pass)
//Storyboard Layer 3 (Foreground)
//Storyboard Sound Samples

[TimingPoints]
3116,379.746835443038,4,2,1,70,1,0
15362,-100,4,2,1,60,0,0
63875,-100,4,2,1,70,0,1
88179,-100,4,2,1,70,0,0
138305,-100,4,2,1,70,0,1
162419,-100,4,2,1,70,0,0
200584,-100,4,2,1,70,0,1
224698,-100,4,2,1,70,0,0

[Colours]
Combo1 : 174,94,94
Combo2 : 74,165,255
Combo3 : 255,169,83

[HitObjects]
76,56,3116,6,0,P|120:68|188:52,1,100,4|0,0:0|0:0,0:0:0:0:
232,44,3685,1,0,0:0:0:0:
288,68,3875,2,0,L|364:148,1,100,8|0,0:0|0:0,0:0:0:0:
368,260,4634,2,0,L|292:340,1,100,0|8,0:0|0:0,0:0:0:0:
180,340,5394,2,0,P|128:328|72:344,1,100,8|0,0:0|0:0,0:0:0:0:
48,224,6153,6,0,L|24:120,1,100,8|0,0:0|0:0,0:0:0:0:
16,68,6723,1,0,0:0:0:0:
72,48,6913,2,0,B|124:56|124:56|180:48,1,100,8|0,0:0|0:0,0:0:0:0:
292,52,7672,2,0,P|324:88|344:144,1,100,0|8,0:0|0:0,0:0:0:0:
360,256,8432,2,0,P|377:302|410:339,1,100,8|0,0:0|0:0,0:0:0:0:
432,220,9191,6,0,P|400:184|340:176,1,100,4|0,0:0|0:0,0:0:0:0:
296,196,9761,1,0,0:0:0:0:
244,224,9951,2,0,L|196:320,1,100,8|0,0:0|0:0,0:0:0:0:
80,320,10710,2,0,B|56:272|56:272|16:232,1,100,0|8,0:0|0:0,0:0:0:0:
20,120,11470,2,0,L|104:40,1,100,8|0,0:0|0:0,0:0:0:0:
212,40,12229,6,0,P|240:68|256:128,1,100,8|0,0:0|0:0,0:0:0:0:
244,184,12799,1,0,0:0:0:0:
232,244,12989,2,0,L|312:312,1,100,8|0,0:0|0:0,0:0:0:0:
428,300,13748,2,0,B|448:252|448:252|448:204,1,100,0|8,0:0|0:0,0:0:0:0:
428,84,14508,1,8,0:0:0:0:
316,36,14888,1,8,0:0:0:0:
204,80,15267,6,0,P|188:120|196:184,1,100,4|2,0:0|0:0,0:0:0:0:
204,236,15837,1,0,0:0:0:0:
208,296,16027,2,0,P|196:340|136:360,1,100,8|2,0:0|0:0,0:0:0:0:
48,300,16786,2,0,L|24:188,2,100,0|2|8,0:0|0:0|0:0,0:0:0:0:
149,361,17926,1,2,0:0:0:0:
120,244,18305,6,0,L|96:136,1,100,0|2,0:0|0:0,0:0:0:0:
96,88,18875,1,0,0:0:0:0:
112,32,19065,2,0,P|172:48|232:48,1,100,8|2,0:0|0:0,0:0:0:0:
324,80,19824,2,0,P|364:128|380:184,1,100,0|2,0:0|0:0,0:0:0:0:
360,280,20584,2,0,L|336:328,1,50,8|0,0:0|0:0,0:0:0:0:
292,364,20964,2,0,P|220:360|184:344,1,100,2|0,0:0|0:0,0:0:0:0:
104,272,21723,5,2,0:0:0:0:
132,156,22103,2,0,L|232:112,1,100,8|2,0:0|0:0,0:0:0:0:
276,88,22672,1,0,0:0:0:0:
332,64,22862,2,0,P|384:68|440:56,1,100,0|2,0:0|0:0,0:0:0:0:
488,164,23622,2,0,L|468:264,1,100,8|2,0:0|0:0,0:0:0:0:
460,320,24191,1,0,0:0:0:0:
400,332,24381,6,0,B|348:328|348:328|292:336,1,100,0|2,0:0|0:0,0:0:0:0:
180,336,25141,2,0,L|104:260,1,100,8|2,0:0|0:0,0:0:0:0:
124,148,25900,2,0,P|180:104|212:64,1,100,0|2,0:0|0:0,0:0:0:0:
236,36,26470,1,0,0:0:0:0:
296,44,26660,2,0,L|376:108,1,100,8|2,0:0|0:0,0:0:0:0:
428,212,27419,6,0,P|432:256|392:312,2,100,4|2|8,0:0|0:0|0:0,0:0:0:0:
320,156,28559,1,2,0:0:0:0:
220,220,28938,2,0,L|156:300,1,100,0|2,0:0|0:0,0:0:0:0:
56,232,29698,2,0,L|118:153,1,100,8|2,0:0|0:0,0:0:0:0:
152,104,30267,1,0,0:0:0:0:
192,60,30457,6,0,P|240:68|300:52,1,100,0|2,0:0|0:0,0:0:0:0:
408,84,31217,2,0,L|464:184,1,100,8|2,0:0|0:0,0:0:0:0:
476,228,31786,1,0,0:0:0:0:
460,288,31976,2,0,B|412:312|412:312|360:356,1,100,0|2,0:0|0:0,0:0:0:0:
256,352,32736,2,0,L|208:332,1,50,8|0,0:0|0:0,0:0:0:0:
156,304,33116,2,0,L|160:204,1,100,2|0,0:0|0:0,0:0:0:0:
200,92,33875,5,0,0:0:0:0:
316,56,34255,1,8,0:0:0:0:
420,112,34634,1,2,0:0:0:0:
416,232,35014,2,0,P|404:268|348:304,1,100,0|0,0:0|0:0,0:0:0:0:
236,300,35774,2,0,P|193:274|174:229,1,100,8|2,0:0|0:0,0:0:0:0:
168,108,36533,6,0,L|80:44,1,100,0|0,0:0|0:0,0:0:0:0:
40,160,37293,1,8,0:0:0:0:
72,276,37672,2,0,P|112:296|152:356,1,100,2|0,0:0|0:0,0:0:0:0:
264,360,38432,1,2,0:0:0:0:
364,292,38812,2,0,L|448:228,1,100,8|2,0:0|0:0,0:0:0:0:
484,188,39381,1,0,0:0:0:0:
484,128,39571,6,0,P|464:96|448:28,1,100,4|0,0:0|0:0,0:0:0:0:
328,36,40331,2,0,P|317:84|292:127,1,100,2|0,0:0|0:0,0:0:0:0:
196,196,41090,2,0,L|112:252,1,100,2|0,0:0|0:0,0:0:0:0:
24,332,41850,1,2,0:0:0:0:
140,364,42229,1,0,0:0:0:0:
256,332,42609,6,0,B|304:320|304:320|360:284,1,100,2|0,0:0|0:0,0:0:0:0:
384,176,43369,2,0,P|392:112|404:64,1,100,2|0,0:0|0:0,0:0:0:0:
284,44,44128,2,0,L|184:112,2,100,2|0|2,0:0|0:0|0:0,0:0:0:0:
400,77,45267,1,0,0:0:0:0:
476,168,45647,6,0,P|468:212|424:260,1,100,2|0,0:0|0:0,0:0:0:0:
312,260,46407,2,0,P|279:297|269:346,1,100,2|0,0:0|0:0,0:0:0:0:
212,356,46976,1,0,0:0:0:0:
152,356,47166,2,0,L|72:296,1,100,2|0,0:0|0:0,0:0:0:0:
68,176,47926,2,0,L|148:116,1,100,2|0,0:0|0:0,0:0:0:0:
196,80,48495,1,0,0:0:0:0:
248,48,48685,6,0,P|284:80|348:112,1,100,2|0,0:0|0:0,0:0:0:0:
388,124,49255,1,0,0:0:0:0:
440,156,49445,2,0,L|424:256,1,100,2|0,0:0|0:0,0:0:0:0:
332,332,50204,2,0,B|280:324|280:324|220:332,1,100,2|0,0:0|0:0,0:0:0:0:
120,288,50964,2,0,L|96:232,1,50,2|0,0:0|0:0,0:0:0:0:
88,184,51343,2,0,L|107:138,1,50,0|0,0:0|0:0,0:0:0:0:
128,80,51723,6,0,P|168:64|244:68,1,100,0|2,0:0|0:0,0:0:0:0:
284,72,52293,1,0,0:0:0:0:
332,104,52483,2,0,L|388:208,1,100,8|2,0:0|0:0,0:0:0:0:
372,312,53242,2,0,P|312:336|276:368,1,100,0|2,0:0|0:0,0:0:0:0:
224,360,53812,1,0,0:0:0:0:
164,360,54002,2,0,P|124:330|76:313,1,100,8|2,0:0|0:0,0:0:0:0:
36,200,54761,6,0,L|56:92,1,100,0|2,0:0|0:0,0:0:0:0:
68,44,55331,1,0,0:0:0:0:
128,32,55521,2,0,P|168:40|248:28,1,100,8|2,0:0|0:0,0:0:0:0:
336,84,56280,2,0,L|404:176,2,100,0|2|8,0:0|0:0|0:0,0:0:0:0:
226,34,57419,1,2,0:0:0:0:
220,152,57799,6,0,B|228:196|216:224|216:224|236:260|224:304,1,150
204,356,58559,2,0,L|76:276,1,150,8|0,0:0|0:0,0:0:0:0:
28,240,59318,2,0,P|32:180|48:88,1,150
68,36,60078,2,0,P|112:28|224:32,1,150,8|0,0:0|0:0,0:0:0:0:
276,48,60837,6,0,B|312:108|264:192|264:192|320:256|280:340,1,300,0|2,0:0|0:0,0:0:0:0:
232,360,62166,1,8,0:0:0:0:
84,100,63116,2,0,P|104:60|164:28,1,100,8|0,0:0|0:0,0:0:0:0:
208,28,63685,1,0,0:0:0:0:
268,36,63875,6,0,L|364:96,1,100,8|0,1:1|0:0,0:0:0:0:
372,208,64634,2,0,L|287:260,1,100,0|8,0:0|0:0,0:0:0:0:
236,292,65204,1,0,0:0:0:0:
180,316,65394,2,0,P|128:292|104:248,1,100,8|0,0:0|0:0,0:0:0:0:
112,136,66153,2,0,B|108:80|108:80|116:36,1,100,0|8,0:0|0:0,0:0:0:0:
172,20,66723,1,0,0:0:0:0:
232,24,66913,6,0,L|316:80,1,100,8|0,0:0|0:0,0:0:0:0:
364,116,67483,1,8,0:0:0:0:
392,168,67672,2,0,P|396:220|384:268,1,100,0|8,0:0|0:0,0:0:0:0:
268,296,68432,2,0,P|200:284|160:304,2,100,0|0|8,0:0|0:0|0:0,0:0:0:0:
384,328,69571,2,0,L|436:352,1,50,8|0,0:0|0:0,0:0:0:0:
484,320,69951,6,0,P|480:248|480:204,1,100,8|0,1:1|0:0,0:0:0:0:
480,160,70521,1,8,0:0:0:0:
472,100,70710,2,0,P|400:64|376:44,1,100,0|8,0:0|0:0,0:0:0:0:
264,52,71470,2,0,P|222:80|177:99,1,100,8|0,0:0|0:0,0:0:0:0:
120,120,72040,1,8,0:0:0:0:
72,152,72229,2,0,L|108:256,1,100,0|8,0:0|0:0,0:0:0:0:
124,304,72799,1,0,0:0:0:0:
176,336,72989,6,0,B|232:328|232:328|292:332,1,100,8|0,0:0|0:0,0:0:0:0:
336,328,73559,2,0,P|376:292|392:248,1,100,8|0,0:0|0:0,0:0:0:0:
396,188,74128,2,0,L|388:128,1,50,8|0,0:0|0:0,0:0:0:0:
248,24,74888,1,0,0:0:0:0:
136,72,75267,1,8,0:0:0:0:
108,188,75647,2,0,L|144:244,1,50,0|0,0:0|0:0,0:0:0:0:
176,276,76027,6,0,P|244:260|272:228,1,100,4|8,0:0|0:0,0:0:0:0:
320,136,76786,2,0,P|359:105|408:100,1,100,0|0,0:0|0:0,0:0:0:0:
464,120,77356,1,8,0:0:0:0:
476,180,77546,2,0,L|460:288,1,100,0|8,0:0|0:0,0:0:0:0:
352,324,78305,2,0,B|300:332|300:332|232:324,1,100,0|0,0:0|0:0,0:0:0:0:
144,272,79065,6,0,P|128:216|104:180,1,100,0|8,0:0|0:0,0:0:0:0:
64,140,79634,1,0,0:0:0:0:
24,96,79824,2,0,L|112:28,1,100,0|8,0:0|0:0,0:0:0:0:
224,36,80584,2,0,L|303:97,1,100,0|8,0:0|0:0,0:0:0:0:
328,216,81343,2,0,L|312:272,1,50,0|0,0:0|0:0,0:0:0:0:
312,324,81723,2,0,L|328:380,1,50,8|0,0:0|0:0,0:0:0:0:
388,372,82103,6,0,P|440:336|468:296,1,100,4|8,0:0|0:0,0:0:0:0:
480,248,82672,1,0,0:0:0:0:
484,188,82862,2,0,L|480:76,1,100,0|0,0:0|0:0,0:0:0:0:
392,36,83622,2,0,B|340:44|340:44|288:40,1,100,0|8,0:0|0:0,0:0:0:0:
232,32,84191,1,0,0:0:0:0:
188,72,84381,2,0,P|176:112|148:168,1,100,0|0,0:0|0:0,0:0:0:0:
100,272,85141,6,0,L|160:360,1,100,4|8,0:0|0:0,0:0:0:0:
216,356,85710,2,0,P|300:348|328:360,1,100,0|0,0:0|0:0,0:0:0:0:
256,192,86280,12,0,88179,0:0:0:0:
88,52,89698,6,0,P|120:64|196:48,1,100,4|2,0:0|0:0,0:0:0:0:
240,36,90267,1,0,0:0:0:0:
300,28,90457,2,0,L|376:96,1,100,8|2,0:0|0:0,0:0:0:0:
408,212,91217,2,0,B|408:264|408:264|420:320,1,100,0|2,0:0|0:0,0:0:0:0:
400,368,91786,1,0,0:0:0:0:
340,372,91976,2,0,P|300:364|228:368,1,100,8|2,0:0|0:0,0:0:0:0:
152,284,92736,6,0,L|88:184,2,100,0|2|8,0:0|0:0|0:0,0:0:0:0:
196,328,93685,2,0,L|252:328,1,50,0|2,0:0|0:0,0:0:0:0:
328,240,94255,2,0,P|348:176|376:136,1,100,0|2,0:0|0:0,0:0:0:0:
252,112,95014,2,0,P|239:160|214:203,1,100,8|2,0:0|0:0,0:0:0:0:
160,232,95584,1,0,0:0:0:0:
100,240,95774,6,0,P|56:208|36:152,1,100,0|2,0:0|0:0,0:0:0:0:
48,108,96343,2,0,L|84:52,1,50,0|8,0:0|0:0,0:0:0:0:
188,24,96913,1,2,0:0:0:0:
304,52,97293,2,0,L|400:124,1,100,0|2,0:0|0:0,0:0:0:0:
392,232,98052,2,0,L|296:304,1,100,8|2,0:0|0:0,0:0:0:0:
256,316,98622,1,0,0:0:0:0:
200,332,98812,6,0,P|160:304|136:248,1,100,0|2,0:0|0:0,0:0:0:0:
184,116,99571,2,0,P|224:88|248:32,1,100,8|2,0:0|0:0,0:0:0:0:
368,48,100331,2,0,L|424:136,1,100,0|2,0:0|0:0,0:0:0:0:
444,188,100900,1,0,0:0:0:0:
448,248,101090,2,0,P|436:284|384:324,1,100,8|2,0:0|0:0,0:0:0:0:
268,312,101850,5,0,0:0:0:0:
88,64,114002,6,0,L|184:112,1,100,8|2,0:0|0:0,0:0:0:0:
232,136,114571,1,0,0:0:0:0:
284,168,114761,2,0,P|304:228|292:272,1,100,0|2,0:0|0:0,0:0:0:0:
388,340,115521,2,0,L|456:264,1,100,0|2,0:0|0:0,0:0:0:0:
492,152,116280,1,0,0:0:0:0:
428,48,116660,1,2,0:0:0:0:
308,44,117040,6,0,P|260:56|204:44,1,100,8|2,0:0|0:0,0:0:0:0:
152,36,117609,1,0,0:0:0:0:
96,56,117799,2,0,L|44:152,1,100,0|2,0:0|0:0,0:0:0:0:
44,264,118559,2,0,L|96:360,1,100,0|2,0:0|0:0,0:0:0:0:
212,356,119318,2,0,P|252:344|320:364,1,100,0|2,0:0|0:0,0:0:0:0:
368,372,119888,1,0,0:0:0:0:
424,348,120078,6,0,L|472:240,1,100,0|2,0:0|0:0,0:0:0:0:
456,136,120837,2,0,P|404:88|384:56,1,100,0|2,0:0|0:0,0:0:0:0:
344,24,121407,1,0,0:0:0:0:
284,20,121597,2,0,B|232:32|232:32|168:24,1,100,0|2,0:0|0:0,0:0:0:0:
88,96,122356,2,0,P|88:144|68:200,1,100,0|2,0:0|0:0,0:0:0:0:
48,248,122926,1,0,0:0:0:0:
32,308,123116,6,0,L|132:368,1,100,0|2,0:0|0:0,0:0:0:0:
176,368,123685,1,0,0:0:0:0:
236,368,123875,2,0,P|272:344|296:288,1,100,0|2,0:0|0:0,0:0:0:0:
328,180,124634,2,0,L|360:64,1,100,0|2,0:0|0:0,0:0:0:0:
380,28,125204,2,0,L|448:24,1,50
480,56,125584,2,0,L|488:108,1,50,0|2,0:0|0:0,0:0:0:0:
488,164,125964,1,0,0:0:0:0:
484,224,126153,6,0,P|472:268|428:328,1,100,4|2,0:0|0:0,0:0:0:0:
324,340,126913,2,0,B|272:332|272:332|208:340,1,100,8|2,0:0|0:0,0:0:0:0:
168,356,127483,1,0,0:0:0:0:
108,364,127672,2,0,P|92:304|68:272,1,100,0|2,0:0|0:0,0:0:0:0:
52,156,128432,2,0,P|68:96|92:64,1,100,8|2,0:0|0:0,0:0:0:0:
140,36,129002,1,0,0:0:0:0:
200,32,129191,6,0,L|268:116,1,100,0|2,0:0|0:0,0:0:0:0:
384,112,129951,2,0,L|446:34,1,100,8|2,0:0|0:0,0:0:0:0:
504,48,130521,1,0,0:0:0:0:
504,108,130710,2,0,P|496:152|496:220,1,100,0|2,0:0|0:0,0:0:0:0:
440,316,131470,2,0,P|416:336|348:356,1,100,8|2,0:0|0:0,0:0:0:0:
236,316,132229,6,0,P|200:256|124:212,1,150,0|0,0:0|0:0,0:0:0:0:
76,204,132989,2,0,L|68:44,1,150,8|0,0:0|0:0,0:0:0:0:
116,20,133748,2,0,B|204:36|204:36|284:32,1,150,0|0,0:0|0:0,0:0:0:0:
324,32,134508,2,0,P|372:88|376:176,1,150,8|0,0:0|0:0,0:0:0:0:
352,216,135267,6,0,B|292:224|252:272|252:272|184:256|120:304,1,250,0|0,0:0|0:0,0:0:0:0:
68,316,136407,2,0,L|40:256,1,50,2|8,0:0|0:0,0:0:0:0:
240,40,137546,2,0,P|292:52|340:44,1,100,0|0,0:0|0:0,0:0:0:0:
444,100,138305,6,0,L|424:216,1,100,8|8,1:1|0:0,0:0:0:0:
420,260,138875,1,0,0:0:0:0:
404,316,139065,2,0,B|356:328|356:328|316:360,1,100,0|0,0:0|0:0,0:0:0:0:
196,360,139824,2,0,P|164:308|132:284,1,100,0|8,0:0|0:0,0:0:0:0:
76,268,140394,2,0,L|56:168,1,100,0|0,0:0|0:0,0:0:0:0:
48,108,140964,2,0,L|72:56,1,50,0|8,0:0|0:0,0:0:0:0:
96,8,141343,6,0,P|148:20|212:24,1,100,0|8,0:0|0:0,0:0:0:0:
304,76,142103,2,0,L|364:160,1,100,0|8,0:0|0:0,0:0:0:0:
384,212,142672,1,0,0:0:0:0:
388,272,142862,2,0,P|360:296|356:372,1,100,0|8,0:0|0:0,0:0:0:0:
228,356,143622,2,0,P|223:307|189:272,1,100,0|8,0:0|0:0,0:0:0:0:
96,196,144381,6,0,P|84:172|108:96,1,100,8|8,1:1|0:0,0:0:0:0:
208,68,145141,2,0,P|256:72|316:64,1,100,0|8,0:0|0:0,0:0:0:0:
368,60,145710,1,0,0:0:0:0:
424,80,145900,2,0,L|432:192,1,100,0|8,0:0|0:0,0:0:0:0:
420,300,146660,2,0,B|384:336|384:336|320:360,1,100,0|8,0:0|0:0,0:0:0:0:
280,356,147229,1,0,0:0:0:0:
220,356,147419,6,0,L|160:264,1,100,4|0,0:0|0:0,0:0:0:0:
128,224,147989,2,0,P|116:192|136:120,1,100,8|0,0:0|0:0,0:0:0:0:
176,92,148559,2,0,L|220:68,1,50,8|0,0:0|0:0,0:0:0:0:
388,132,149318,2,0,L|440:244,2,100,8|0|0,0:0|0:0|0:0,0:0:0:0:
288,64,150457,6,0,P|264:116|276:172,1,100,4|8,0:0|0:0,0:0:0:0:
300,208,151027,1,0,0:0:0:0:
316,264,151217,2,0,L|276:360,1,100,0|0,0:0|0:0,0:0:0:0:
156,356,151976,2,0,P|124:332|64:304,1,100,0|8,0:0|0:0,0:0:0:0:
56,188,152736,2,0,L|40:84,1,100,0|0,0:0|0:0,0:0:0:0:
148,32,153495,6,0,B|196:40|196:40|264:40,1,100,0|8,0:0|0:0,0:0:0:0:
308,40,154065,1,0,0:0:0:0:
360,68,154255,2,0,P|384:132|384:168,1,100,0|8,0:0|0:0,0:0:0:0:
332,272,155014,2,0,P|308:336|308:372,1,100,0|8,0:0|0:0,0:0:0:0:
428,356,155774,2,0,L|472:260,1,100,0|8,0:0|0:0,0:0:0:0:
500,148,156533,6,0,P|496:96|456:48,1,100,4|8,0:0|0:0,0:0:0:0:
412,44,157103,1,0,0:0:0:0:
352,44,157293,2,0,P|308:52|248:40,1,100,0|8,0:0|0:0,0:0:0:0:
144,96,158052,2,0,L|88:184,1,100,0|8,0:0|0:0,0:0:0:0:
56,232,158622,1,0,0:0:0:0:
52,292,158812,2,0,P|92:340|112:380,1,100,0|0,0:0|0:0,0:0:0:0:
168,360,159381,1,8,0:0:0:0:
216,324,159571,6,0,L|304:248,1,100,4|8,0:0|0:0,0:0:0:0:
344,224,160141,2,0,B|392:184|392:184|412:128,1,100,0|8,0:0|0:0,0:0:0:0:
256,192,160710,12,0,162609,0:0:0:0:
88,56,164128,6,0,P|128:72|192:56,1,100,4|0,0:0|0:0,0:0:0:0:
240,40,164698,1,0,0:0:0:0:
300,28,164888,2,0,L|348:124,1,100,8|0,0:0|0:0,0:0:0:0:
356,236,165647,2,0,P|356:268|368:340,1,100,0|8,0:0|0:0,0:0:0:0:
420,360,166217,1,0,0:0:0:0:
476,340,166407,2,0,B|500:280|500:280|504:224,1,100,8|0,0:0|0:0,0:0:0:0:
476,128,167166,6,0,P|424:60|396:48,1,100,8|0,0:0|0:0,0:0:0:0:
352,60,167736,2,0,L|248:120,1,100,0|0,0:0|0:0,0:0:0:0:
220,148,168305,2,0,P|196:200|188:244,1,100
260,336,169065,1,8,0:0:0:0:
380,324,169445,1,8,0:0:0:0:
456,232,169824,2,0,L|484:172,1,50
488,128,170204,6,0,L|404:48,1,100,8|0,0:0|0:0,0:0:0:0:
364,32,170774,1,0,0:0:0:0:
304,28,170964,2,0,P|276:64|220:96,1,100,8|0,0:0|0:0,0:0:0:0:
128,156,171723,2,0,P|85:181|54:220,1,100,0|8,0:0|0:0,0:0:0:0:
44,280,172293,1,0,0:0:0:0:
60,340,172483,2,0,P|128:360|176:348,1,100,8|0,0:0|0:0,0:0:0:0:
272,328,173242,6,0,L|360:256,1,100,8|0,0:0|0:0,0:0:0:0:
396,228,173812,1,0,0:0:0:0:
436,184,174002,2,0,P|424:136|368:108,1,100,8|0,0:0|0:0,0:0:0:0:
268,148,174761,1,0,0:0:0:0:
176,72,175141,1,0,0:0:0:0:
284,24,175521,2,0,P|332:32|400:20,1,100,0|0,0:0|0:0,0:0:0:0:
492,80,176280,6,0,B|480:136|480:136|492:188,1,100,4|0,0:0|0:0,0:0:0:0:
492,236,176850,1,0,0:0:0:0:
492,296,177040,2,0,P|472:328|400:352,1,100,8|0,0:0|0:0,0:0:0:0:
296,352,177799,2,0,P|249:335|220:295,1,100,0|8,0:0|0:0,0:0:0:0:
208,236,178369,1,0,0:0:0:0:
208,176,178559,2,0,L|204:72,1,100,8|0,0:0|0:0,0:0:0:0:
316,32,179318,6,0,P|352:56|408:84,1,100,8|0,0:0|0:0,0:0:0:0:
456,112,179888,1,0,0:0:0:0:
468,172,180078,2,0,P|476:216|468:284,1,100,8|0,0:0|0:0,0:0:0:0:
372,340,180837,2,0,B|320:336|320:336|264:348,1,100,0|8,0:0|0:0,0:0:0:0:
152,340,181597,2,0,L|88:260,1,100,8|8,0:0|0:0,0:0:0:0:
44,152,182356,6,0,P|80:116|112:72,1,100,4|0,0:0|0:0,0:0:0:0:
144,28,182926,1,0,0:0:0:0:
204,36,183116,2,0,L|272:112,1,100,8|0,0:0|0:0,0:0:0:0:
292,228,183875,2,0,L|224:304,1,100,0|8,0:0|0:0,0:0:0:0:
104,300,184634,2,0,B|56:272|56:272|36:224,1,100,8|0,0:0|0:0,0:0:0:0:
32,172,185204,1,0,0:0:0:0:
32,112,185394,6,0,L|120:48,1,100,8|0,0:0|0:0,0:0:0:0:
232,56,186153,2,0,L|312:114,1,100,8|0,0:0|0:0,0:0:0:0:
360,152,186723,1,0,0:0:0:0:
400,196,186913,2,0,P|400:240|408:308,1,100,0|0,0:0|0:0,0:0:0:0:
300,352,187672,2,0,L|240:364,1,50,0|8,0:0|0:0,0:0:0:0:
56,40,199824,6,0,L|144:112,1,100,0|0,0:0|0:0,0:0:0:0:
180,144,200394,1,0,0:0:0:0:
224,184,200584,6,0,P|228:220|224:296,1,100,8|0,1:1|0:0,0:0:0:0:
216,344,201153,1,8,0:0:0:0:
276,356,201343,2,0,P|328:348|384:360,1,100,0|8,0:0|0:0,0:0:0:0:
456,268,202103,2,0,L|460:168,1,100,8|0,0:0|0:0,0:0:0:0:
456,108,202672,1,8,0:0:0:0:
416,64,202862,2,0,P|360:56|320:28,1,100,0|8,0:0|0:0,0:0:0:0:
204,48,203622,6,0,B|152:68|152:68|116:112,2,100,8|0|0,0:0|0:0|0:0,0:0:0:0:
316,88,204761,2,0,L|340:144,1,50,8|0,0:0|0:0,0:0:0:0:
352,192,205141,2,0,P|360:240|344:296,1,100,0|0,0:0|0:0,0:0:0:0:
228,292,205900,2,0,P|215:243|223:194,1,100,8|8,0:0|0:0,0:0:0:0:
236,136,206470,1,0,0:0:0:0:
252,76,206660,6,0,L|152:12,1,100,8|0,1:1|0:0,0:0:0:0:
108,28,207229,1,8,0:0:0:0:
84,84,207419,2,0,P|80:140|64:188,1,100,0|8,0:0|0:0,0:0:0:0:
60,300,208179,2,0,L|144:372,1,100,8|0,0:0|0:0,0:0:0:0:
196,364,208748,1,8,0:0:0:0:
256,364,208938,2,0,L|331:298,1,100,0|8,0:0|0:0,0:0:0:0:
380,264,209508,1,0,0:0:0:0:
428,228,209698,6,0,P|452:176|448:116,1,100,8|0,0:0|0:0,0:0:0:0:
404,96,210267,2,0,L|308:48,1,100,8|0,0:0|0:0,0:0:0:0:
256,44,210837,2,0,L|200:68,1,50,8|0,0:0|0:0,0:0:0:0:
96,204,211597,1,0,0:0:0:0:
156,308,211976,1,0,0:0:0:0:
272,332,212356,2,0,L|332:324,1,50,0|0,0:0|0:0,0:0:0:0:
380,308,212736,6,0,P|416:264|420:200,1,100,4|8,0:0|0:0,0:0:0:0:
416,164,213305,1,0,0:0:0:0:
388,112,213495,2,0,L|336:16,1,100,0|0,0:0|0:0,0:0:0:0:
220,28,214255,2,0,P|176:36|116:32,1,100,0|8,0:0|0:0,0:0:0:0:
44,124,215014,1,0,0:0:0:0:
60,244,215394,1,0,0:0:0:0:
168,292,215774,6,0,P|224:304|264:320,1,100,0|8,0:0|0:0,0:0:0:0:
320,340,216343,1,0,0:0:0:0:
380,336,216533,2,0,L|440:236,1,100,0|8,0:0|0:0,0:0:0:0:
432,128,217293,2,0,L|380:42,1,100,0|8,0:0|0:0,0:0:0:0:
260,44,218052,2,0,B|216:72|216:72|192:128,1,100,0|8,0:0|0:0,0:0:0:0:
188,176,218622,1,0,0:0:0:0:
188,236,218812,6,0,L|224:336,1,100,4|8,0:0|0:0,0:0:0:0:
340,340,219571,2,0,P|388:332|444:336,1,100,0|0,0:0|0:0,0:0:0:0:
488,300,220141,1,0,0:0:0:0:
480,240,220331,2,0,P|472:184|484:128,1,100,0|8,0:0|0:0,0:0:0:0:
480,80,220900,1,0,0:0:0:0:
428,52,221090,2,0,L|328:28,1,100
228,92,221850,6,0,L|188:184,1,100,0|8,0:0|0:0,0:0:0:0:
164,240,222419,2,0,P|184:284|176:352,1,100,0|0,0:0|0:0,0:0:0:0:
256,192,222989,12,2,224888,0:0:0:0:
92,48,226407,6,0,L|160:120,1,100,4|0,0:0|0:0,0:0:0:0:
200,168,226976,1,0,0:0:0:0:
236,216,227166,2,0,P|244:264|236:328,1,100,8|0,0:0|0:0,0:0:0:0:
356,344,227926,2,0,L|408:252,1,100,0|8,0:0|0:0,0:0:0:0:
432,204,228495,1,0,0:0:0:0:
456,148,228685,2,0,P|452:96|420:56,1,100,8|0,0:0|0:0,0:0:0:0:
304,48,229445,6,0,B|248:64|248:64|184:64,2,100,8|0|8,0:0|0:0|0:0,0:0:0:0:
423,58,230584,1,0,0:0:0:0:
360,160,230964,2,0,L|288:232,1,100,0|8,0:0|0:0,0:0:0:0:
172,256,231723,2,0,P|132:272|104:320,1,100,8|0,0:0|0:0,0:0:0:0:
140,368,232293,1,0,0:0:0:0:
200,368,232483,6,0,P|280:356|312:360,1,100,8|0,0:0|0:0,0:0:0:0:
360,360,233052,1,0,0:0:0:0:
420,356,233242,2,0,L|468:252,1,100,8|0,0:0|0:0,0:0:0:0:
468,144,234002,2,0,L|420:40,1,100,0|8,0:0|0:0,0:0:0:0:
368,32,234571,1,0,0:0:0:0:
308,32,234761,2,0,B|256:48|256:48|208:48,1,100,8|0,0:0|0:0,0:0:0:0:
120,124,235521,6,0,P|100:176|104:236,1,100,8|0,0:0|0:0,0:0:0:0:
132,268,236090,1,0,0:0:0:0:
180,304,236280,2,0,L|272:344,1,100,8|0,0:0|0:0,0:0:0:0:
392,348,237040,2,0,L|484:308,1,100,0|8,0:0|0:0,0:0:0:0:
484,188,237799,2,0,P|480:120|484:76,2,100,0|0|4,0:0|0:0|0:0,0:0:0:0:
376,244,238938,5,0,0:0:0:0:
256,252,239318,2,0,P|220:256|140:248,1,100,8|0,0:0|0:0,0:0:0:0:
96,244,239888,1,8,0:0:0:0:
48,212,240078,2,0,L|40:104,1,100,0|8,0:0|0:0,0:0:0:0:
144,48,240837,2,0,B|192:52|192:52|244:48,1,100,8|0,0:0|0:0,0:0:0:0:
360,84,241597,6,0,P|396:140|400:192,1,100,8|0,0:0|0:0,0:0:0:0:
384,232,242166,1,0,0:0:0:0:
360,288,242356,2,0,L|296:372,1,100,8|0,0:0|0:0,0:0:0:0:
180,356,243116,2,0,P|144:324|92:292,2,100,0|8|8,0:0|0:0|0:0,0:0:0:0:
252,260,244255,2,0,L|288:200,1,50,0|0,0:0|0:0,0:0:0:0:
308,164,244634,6,0,P|316:124|292:56,1,100,12|0,0:0|0:0,0:0:0:0:
240,56,245204,1,0,0:0:0:0:
180,64,245394,2,0,L|124:164,1,100,8|0,0:0|0:0,0:0:0:0:
112,268,246153,2,0,L|168:368,1,100,0|8,0:0|0:0,0:0:0:0:
220,352,246723,2,0,P|276:340|336:364,1,100,0|0,0:0|0:0,0:0:0:0:
376,352,247293,2,0,L|420:312,1,50,0|0,0:0|0:0,0:0:0:0:
460,284,247672,6,0,L|464:176,1,100,8|0,0:0|0:0,0:0:0:0:
472,124,248242,1,0,0:0:0:0:
420,92,248432,2,0,P|376:76|332:48,1,100,8|0,0:0|0:0,0:0:0:0:
212,48,249191,2,0,P|170:75|123:92,1,100,0|0,0:0|0:0,0:0:0:0:
36,172,249951,2,0,L|56:232,1,50,0|0,0:0|0:0,0:0:0:0:
60,280,250331,2,0,L|44:327,1,50,0|0,0:0|0:0,0:0:0:0:
96,360,250710,6,0,P|160:352|204:368,1,100,4|0,0:0|0:0,0:0:0:0:
252,364,251280,1,0,0:0:0:0:
312,356,251470,2,0,L|384:272,1,100,2|0,0:0|0:0,0:0:0:0:
380,160,252229,2,0,L|308:76,1,100,0|0,0:0|0:0,0:0:0:0:
264,48,252799,1,0,0:0:0:0:
204,44,252989,2,0,P|168:92|128:112,1,100,2|0,0:0|0:0,0:0:0:0:
80,136,253559,1,0,0:0:0:0:
68,196,253748,6,0,B|72:248|72:248|64:304,1,100,0|0,0:0|0:0,0:0:0:0:
180,336,254508,2,0,P|232:328|296:344,1,100,2|0,0:0|0:0,0:0:0:0:
396,304,255267,2,0,L|440:204,1,100,0|0,0:0|0:0,0:0:0:0:
456,156,255837,1,0,0:0:0:0:
468,96,256027,2,0,P|428:76|364:32,1,100,2|0,0:0|0:0,0:0:0:0:
260,44,256786,6,0,P|224:64|176:120,1,100,0|0,0:0|0:0,0:0:0:0:
168,164,257356,1,0,0:0:0:0:
164,224,257546,2,0,L|192:328,1,100,2|0,0:0|0:0,0:0:0:0:
308,344,258305,2,0,B|360:336|360:336|428:348,1,100,0|0,0:0|0:0,0:0:0:0:
464,356,258875,1,0,0:0:0:0:
480,296,259065,2,0,P|480:232|488:188,1,100,2|0,0:0|0:0,0:0:0:0:
448,84,259824,6,0,P|416:80|356:40,1,100,0|0,0:0|0:0,0:0:0:0:
304,20,260394,1,0,0:0:0:0:
248,40,260584,2,0,L|200:128,1,100,2|0,0:0|0:0,0:0:0:0:
196,248,261343,2,0,L|244:336,2,100,0|0|2,0:0|0:0|0:0,0:0:0:0:
132,148,262483,1,0,0:0:0:0:
252,148,262862,6,0,L|368:148,1,100,0|0,0:0|0:0,0:0:0:0:
412,148,263432,1,0,0:0:0:0:
472,148,263622,2,0,P|476:200|456:252,1,100,2|0,0:0|0:0,0:0:0:0:
360,312,264381,2,0,P|304:332|264:360,1,100,0|0,0:0|0:0,0:0:0:0:
212,360,264951,2,0,B|160:352|160:352|112:360,1,100,0|0,0:0|0:0,0:0:0:0:
52,188,265900,6,0,P|52:128|48:80,1,100,0|0,0:0|0:0,0:0:0:0:
44,28,266470,1,0,0:0:0:0:
104,28,266660,2,0,P|140:32|216:24,1,100,2|0,0:0|0:0,0:0:0:0:
320,56,267419,2,0,L|400:144,2,100,0|0|2,0:0|0:0|0:0,0:0:0:0:
203,26,268559,1,0,0:0:0:0:
192,144,268938,6,0,P|184:200|200:252,1,100,0|0,0:0|0:0,0:0:0:0:
224,292,269508,1,0,0:0:0:0:
276,324,269698,2,0,L|376:332,1,100,2|0,0:0|0:0,0:0:0:0:
440,232,270457,2,0,B|456:180|456:180|440:124,1,100,0|0,0:0|0:0,0:0:0:0:
404,88,271027,1,0,0:0:0:0:
348,68,271217,2,0,P|300:72|240:72,1,100,2|0,0:0|0:0,0:0:0:0:
132,100,271976,6,0,P|116:128|104:204,1,100,0|0,0:0|0:0,0:0:0:0:
116,252,272546,1,0,0:0:0:0:
140,308,272736,2,0,L|224:364,1,100,2|0,0:0|0:0,0:0:0:0:
344,352,273495,6,0,L|384:316,1,50
380,260,273875,2,0,L|340:224,1,50,0|0,0:0|0:0,0:0:0:0:
328,168,274255,2,0,L|368:132,1,50,2|0,0:0|0:0,0:0:0:0:
380,76,274634,2,0,L|340:40,1,50,0|0,0:0|0:0,0:0:0:0:
